Subcategories

Dwele - Some Kinda... (2005) **[RE-UP]**

Posted By: TestTickles
Dwele - Some Kinda... (2005) **[RE-UP]**

Dwele - Some Kinda… (2005)
EAC Rip | FLAC with CUE and log | scans | 362 mb
MP3 CBR 320kbps | RAR | 171 mb
Genre: soul, R&B

Some Kinda… is the 2005 CD from soul vocalist Dwele. It is his second album and features a song that uses pancakes as a metaphor for buttocks, "Flapjacks".

Dwele - Some Kinda... (2005) **[RE-UP]**

01. Holla
02. A Pimp's Dream
03. Know Your Name
04. My Lova
05. Flapjacks
06. Caught Up
07. Weekend Love
08. Lay It Down
09. I Think I Love U
10. Continuation
11. Keep On
12. Some Kinda Prelude
13. Some Kinda
14. Wake The Baby
15. Old Lovas

EAC extraction logfile from 6. December 2005, 12:35 for CD
Dwele / Some Kinda…

Used drive : LITE-ON DVDRW SOHW-1633S Adapter: 0 ID: 0
Read mode : Secure with NO C2, accurate stream, disable cache
Read offset correction : 12
Overread into Lead-In and Lead-Out : No

Used output format : Internal WAV Routines
44.100 Hz; 16 Bit; Stereo

Other options :
Fill up missing offset samples with silence : Yes
Delete leading and trailing silent blocks : No
Installed external ASPI interface


Track 1
Filename C:\FLAC\Dwele - Some Kinda… (2005) [FLAC]\01 - Holla.wav

Pre-gap length 0:00:02.00

Peak level 99.8 %
Track quality 99.9 %
Test CRC 9FAFFB01
Copy CRC 9FAFFB01
Copy OK

Track 2
Filename C:\FLAC\Dwele - Some Kinda… (2005) [FLAC]\02 - A Pimp's Dream.wav

Peak level 99.8 %
Track quality 100.0 %
Test CRC F1CD3AD9
Copy CRC F1CD3AD9
Copy OK

Track 3
Filename C:\FLAC\Dwele - Some Kinda… (2005) [FLAC]\03 - Know Your Name.wav

Peak level 99.8 %
Track quality 99.9 %
Test CRC 3F7D8C4F
Copy CRC 3F7D8C4F
Copy OK

Track 4
Filename C:\FLAC\Dwele - Some Kinda… (2005) [FLAC]\04 - My Lova.wav

Peak level 99.8 %
Track quality 100.0 %
Test CRC 477E2666
Copy CRC 477E2666
Copy OK

Track 5
Filename C:\FLAC\Dwele - Some Kinda… (2005) [FLAC]\05 - Flapjacks.wav

Peak level 99.8 %
Track quality 100.0 %
Test CRC 9069A48C
Copy CRC 9069A48C
Copy OK

Track 6
Filename C:\FLAC\Dwele - Some Kinda… (2005) [FLAC]\06 - Caught Up.wav

Peak level 87.4 %
Track quality 100.0 %
Test CRC 07E69E0A
Copy CRC 07E69E0A
Copy OK

Track 7
Filename C:\FLAC\Dwele - Some Kinda… (2005) [FLAC]\07 - Weekend Love.wav

Peak level 99.6 %
Track quality 100.0 %
Test CRC D2416564
Copy CRC D2416564
Copy OK

Track 8
Filename C:\FLAC\Dwele - Some Kinda… (2005) [FLAC]\08 - Lay It Down.wav

Peak level 99.7 %
Track quality 100.0 %
Test CRC 4CE1B6FA
Copy CRC 4CE1B6FA
Copy OK

Track 9
Filename C:\FLAC\Dwele - Some Kinda… (2005) [FLAC]\09 - I Think I Love U.wav

Pre-gap length 0:00:00.64

Peak level 99.8 %
Track quality 100.0 %
Test CRC 201F584F
Copy CRC 201F584F
Copy OK

Track 10
Filename C:\FLAC\Dwele - Some Kinda… (2005) [FLAC]\10 - Continuation.wav

Pre-gap length 0:00:00.35

Peak level 99.8 %
Track quality 100.0 %
Test CRC EDB9B424
Copy CRC EDB9B424
Copy OK

Track 11
Filename C:\FLAC\Dwele - Some Kinda… (2005) [FLAC]\11 - Keep On.wav

Peak level 99.8 %
Track quality 100.0 %
Test CRC 35BA6BB1
Copy CRC 35BA6BB1
Copy OK

Track 12
Filename C:\FLAC\Dwele - Some Kinda… (2005) [FLAC]\12 - Some Kinda Prelude.wav

Peak level 85.2 %
Track quality 100.0 %
Test CRC 504D30CE
Copy CRC 504D30CE
Copy OK

Track 13
Filename C:\FLAC\Dwele - Some Kinda… (2005) [FLAC]\13 - Some Kinda.wav

Peak level 99.8 %
Track quality 99.9 %
Test CRC 8AA1F99E
Copy CRC 8AA1F99E
Copy OK

Track 14
Filename C:\FLAC\Dwele - Some Kinda… (2005) [FLAC]\14 - Wake The Baby.wav

Peak level 99.8 %
Track quality 99.9 %
Test CRC EFEA96C8
Copy CRC EFEA96C8
Copy OK

Track 15
Filename C:\FLAC\Dwele - Some Kinda… (2005) [FLAC]\15 - Old Lovas.wav

Pre-gap length 0:00:01.34

Peak level 99.7 %
Track quality 100.0 %
Test CRC 8A8AEC1B
Copy CRC 8A8AEC1B
Copy OK

No errors occured


End of status report


Dwele - Some Kinda... (2005) **[RE-UP]**