Subcategories
Please register here if you want to download anything!

If domain in your address bar is different from the list below
PLEASE LEAVE THAT SITE IMMEDIATELY
❗IT'S A DANGEROUS FAKE❗



Spicy Magazines for Men! ;-)

Daevid Allen & Nicoletta Stephanz - Bananamoon Obscura No. 6: Live @ The Knitting Factory NYC (2004) Re-Up

Posted By: popsakov
Daevid Allen & Nicoletta Stephanz - Bananamoon Obscura No. 6: Live @ The Knitting Factory NYC (2004) Re-Up

Daevid Allen & Nicoletta Stephanz - Bananamoon Obscura No. 6: Live @ The Knitting Factory NYC (2004)
EAC Rip | FLAC (Img) + Cue + Log ~ 359 Mb | MP3 CBR320 ~ 164 Mb
Full Scans ~ 34 Mb | RAR 5% Recovery
Progressive Rock / Psychedelic Rock / Garage Rock / Acid Rock / Canterbury Scene
Voiceprint #BMOVP006CD

Live Gliss guitar/Theremin gig. This CD of Gliss guitar, Theremin and treated vocals results in a marvellously adventurous cauldron of sounds and spacey textures. Both musicians combine superbly well together with their distinctly odd chosen instruments to create totally unique sonic experience. These CDs are in matt black card covers with silver and white printing. This is the sixth of a 20CD series, each release a limited pressing of 1000 copies only - no more will be pressed.
***************
Daevid Allen was one of the founders of the British progressive rock band the Soft Machine in 1966. After recording just one album with the group, he became the founder/leader of Gong, which he left in 1973 to begin a solo career (though his first solo album, Banana Moon, was released in 1971 while he was still in the group). Allen explored his quirky, folky take on rock throughout the '70s and '80s on albums like 1976's Good Morning and 1983's Alien in New York. His solo work also included collaborations with underground rock impresario Kramer like 1993's Who's Afraid? and 1996's Hit Men, which was released on Kramer's Shimmy Disc label. Allen returned in 1999 with Money Doesn't Make It, followed a year later by Stroking the Tail of the Bird. Nectans Glen also followed in 2000. In 2003 Allen formed a new version of Gong with members of the Japanese collective known as Acid Mothers Temple, as well as playing and releasing material with his California-based band University of Errors. He continues to release numerous live sets and one-off collaborations in limited editions on various independent labels under his own and various group names. A best-of, Man From Gong, which only scratches the surface of his lengthy discography, appeared from Snapper Music in 2006. After a battle with cancer, Allen died in Australia in 13 March 2015 at the age of 77.
~ William Ruhlmann, All Music

***************
Volume six in Voiceprint Bananamoon Obscura series of archival Daevid Allen material presents the first meeting between Gong's glissando guitar guru and theremin player Nicoletta Stephanz, (aka Coven of One, once of Black Chamber and Legendary Pink Dots). The sleeve discloses very little detail about this performance held at the Knitting Factory in New York, but an educated guess would place it in 2000 or 2001. Despite the fact that Allen comes from the psychedelic rock/new age scene and Stephanz hails from a post-industrial current, their collaboration is surprisingly sensitive and efficient – the glissando guitar and theremin complete each other very well. Of course, this also means that most of the performance belongs to the quieter side of Allen's output: extended drones, poetry, vocal experiments. The two musicians engage each other only in some tracks. The set opens with a solo glissando improvisation, full of loops and reverb. Then follows a multi-tracked vocal piece by Stephanz, which perfectly answers the mood previously established by Allen. "False Teacher" is also performed by the guitarist (the first one being a regular inclusion in his live sets at the time), while "Defenestrating Frogs" showcases Stephanz' dark side, with wailing theremins, rumbling textures and gloomy vocals. "Your Book of Silences" and "Journey Into Divine Vagina" are the two main duets of the set and the foundation of what would become an occasional collaboration (Stephanz's theremin work would be featured on University of Errors' third CD, ugly.music.4.monica). The latter track is especially nice, Nic's vocals enhancing the disquieting factor in Allen's playing. Sound quality on this recording is good, but no more. It seems to be an audience recording, with some overloading in the louder sections (Stephanz' looped vocals, in particular, tend to come out pureed). A nice curiosity.

~ François Couture, All Music

***************

Daevid Allen & Nicoletta Stephanz - Bananamoon Obscura No. 6: Live @ The Knitting Factory NYC (2004) Re-Up

Track List:

01. Introductions [01:00]
02. Multidimensional Marmalade (Daevid Allen Solo Glissando) [07:30]
03. Temple Of Menstruation (Nic Solo Vocal) [06:58]
04. False Teacher [12:41]
05. Your Book Of Silences (Instrumental Duet) [09:28]
06. Unriddle Me This [06:10]
07. Defenestrating Frogs [08:28]
08. Journey Into The Divine Vagina (Nic & Daevid Finale) [16:14]

Exact Audio Copy V1.0 beta 3 from 29. August 2011

EAC extraction logfile from 4. May 2014, 10:47

Daevid Allen & Nicoletta Stephanz / Live at The Knitting Factory, NYC (Obscura No.6)

Used drive : PIONEER DVD-RW DVR-220RS Adapter: 0 ID: 0

Read mode : Secure
Utilize accurate stream : Yes
Defeat audio cache : Yes
Make use of C2 pointers : No

Read offset correction : 6
Overread into Lead-In and Lead-Out : No
Fill up missing offset samples with silence : Yes
Delete leading and trailing silent blocks : No
Null samples used in CRC calculations : Yes
Used interface : Native Win32 interface for Win NT & 2000

Used output format : User Defined Encoder
Selected bitrate : 128 kBit/s
Quality : High
Add ID3 tag : No
Command line compressor : C:\Program Files (x86)\Exact Audio Copy\Wavpack\wavpack.exe
Additional command line options : -hlm %source% %dest%


TOC of the extracted CD

Track | Start | Length | Start sector | End sector
––––––––––––––––––––––––––––-
1 | 0:00.00 | 0:59.37 | 0 | 4461
2 | 0:59.37 | 7:29.27 | 4462 | 38163
3 | 8:28.64 | 6:57.40 | 38164 | 69478
4 | 15:26.29 | 12:40.06 | 69479 | 126484
5 | 28:06.35 | 9:27.74 | 126485 | 169083
6 | 37:34.34 | 6:09.03 | 169084 | 196761
7 | 43:43.37 | 8:27.37 | 196762 | 234823
8 | 52:10.74 | 16:13.32 | 234824 | 307830


Range status and errors

Selected range

Filename C:\NL+\CD52\Daevid Allen & Nicoletta Stephanz - Live at The Knitting Factory, NYC (Obscura No.6).wav

Peak level 98.9 %
Extraction speed 1.9 X
Range quality 100.0 %
Test CRC C6D3B3CE
Copy CRC C6D3B3CE
Copy OK

No errors occurred


AccurateRip summary

Track 1 not present in database
Track 2 not present in database
Track 3 not present in database
Track 4 not present in database
Track 5 not present in database
Track 6 not present in database
Track 7 not present in database
Track 8 not present in database

None of the tracks are present in the AccurateRip database

End of status report

–– CUETools DB Plugin V2.1.3

[CTDB TOCID: 2h7.A0EEiVY9W63nIZGdrs.DbvM-] disk not present in database, Submit result: 2h7.A0EEiVY9W63nIZGdrs.DbvM- has been uploaded


==== Log checksum F822CED12F3642A214DA1CE6D215F7AF1E7908090DA3665BA5F9F7BE1BA3A00C ====

foobar2000 1.2.6 / Dynamic Range Meter 1.1.1
log date: 2015-03-25 00:42:56

––––––––––––––––––––––––––––––––––––––––
Analyzed: Daevid Allen & Nicoletta Stephanz / Live at The Knitting Factory, NYC (Obscura No.6)
––––––––––––––––––––––––––––––––––––––––

DR Peak RMS Duration Track
––––––––––––––––––––––––––––––––––––––––
DR14 -0.78 dB -18.13 dB 0:59 01-Introductions
DR9 -0.40 dB -11.92 dB 7:29 02-Multidimensional Marmalade (Daevid Allen Solo Glissando)
DR8 -0.30 dB -12.67 dB 6:58 03-Temple Of Menstruation (Nic Solo Vocal)
DR10 -0.14 dB -14.67 dB 12:40 04-False Teacher
DR10 -0.39 dB -14.92 dB 9:28 05-Your Book Of Silences (Instrumental Duet)
DR6 -0.24 dB -10.86 dB 6:09 06-Unriddle Me This
DR7 -0.30 dB -10.33 dB 8:27 07-Defenestrating Frogs
DR8 -0.09 dB -11.67 dB 16:13 08-Journey Into The Divine Vagina (Nic & Daevid Finale)
––––––––––––––––––––––––––––––––––––––––

Number of tracks: 8
Official DR value: DR9

Samplerate: 44100 Hz
Channels: 2
Bits per sample: 16
Bitrate: 697 kbps
Codec: FLAC
================================================================================

[CUETools log; Date: 25.03.2015 0:42:22; Version: 2.1.5]
[CTDB TOCID: 2h7.A0EEiVY9W63nIZGdrs.DbvM-] found.
Track | CTDB Status
1 | (1/1) Accurately ripped
2 | (1/1) Accurately ripped
3 | (1/1) Accurately ripped
4 | (1/1) Accurately ripped
5 | (1/1) Accurately ripped
6 | (1/1) Accurately ripped
7 | (1/1) Accurately ripped
8 | (1/1) Accurately ripped
[AccurateRip ID: 001180d3-007b35ab-60100808] found.
Track [ CRC | V2 ] Status
01 [97a2c571|95914bf7] (0+1/1) Accurately ripped
02 [8bdd9ed7|d06ba342] (0+1/1) Accurately ripped
03 [ae0d29ec|291a2a5d] (0+1/1) Accurately ripped
04 [9331c688|5cbf3111] (0+1/1) Accurately ripped
05 [854aacc5|fab35092] (0+1/1) Accurately ripped
06 [ae9bdb29|5408f809] (0+1/1) Accurately ripped
07 [1c19fd49|24ceefc3] (0+1/1) Accurately ripped
08 [36e33037|32727793] (0+1/1) Accurately ripped

Track Peak [ CRC32 ] [W/O NULL] [ LOG ]
– 98,9 [C6D3B3CE] [B961E53A] CRC32
01 91,3 [2886C421] [5E0AD95D]
02 95,5 [61901A6F] [91A429FE]
03 96,6 [0F0A8A18] [5AFAE405]
04 98,3 [DB2A816C] [4579216C]
05 95,6 [8FE38784] [46812623]
06 97,3 [145FD687] [C9833117]
07 96,6 [0CE50D83] [8E548793]
08 98,9 [6EE67712] [EF359865]

Daevid Allen & Nicoletta Stephanz - Bananamoon Obscura No. 6: Live @ The Knitting Factory NYC (2004) Re-Up

All thanks go to tatuk

>>> My Blog <<<

Download from icerbox.com: