Subcategories

Daniel Behle, Armonia Atenea, George Petrou - Gluck: Opera Arias (2014)

Posted By: tirexiss
Daniel Behle, Armonia Atenea, George Petrou - Gluck: Opera Arias (2014)

Daniel Behle, Armonia Atenea, George Petrou - Gluck: Opera Arias (2014)
EAC | FLAC (tracks+.cue, log) | Covers Included | 63:59 | 373 MB
Genre: Classical, Opera, Vocal | Label: Decca | Catalog: 0289 478 6758 6

Christoph Willibald Gluck has a place in the history books for a few big hits and for the idea of reforming the ornate style of opera seria – serious opera – in the 18th century, replacing it with a more natural ideal of melody. This reputation has rested on a very few pieces, and both bibliographic control and recorded explorations of Gluck's music are perhaps more sparse than for any other major composer. Accordingly, the major label Decca deserves commendation for this collection of Gluck arias, four of which receive their world premieres here. The album is roughly divided between the sort of pastoral melody exemplified by Gluck hits like the "Dance of the Blessed Spirits" from Orfeo ed Euridice and earlier works of a more vocally taxing nature. Behle may be a bit stronger in the latter: hear the fearless leap up to high B flat and the very delicate descent from the cliff in the aria "Io veggo in lontananza" from the opera Semiramide riconosciuta (track 2). But he is nowhere subpar, and he's very ably backed by the historical-instrument group Armonia Atenea under George Petrou. The overall effect is to give a much fuller picture of this composer than has been available previously, and the only complaint is hollow sound from an oversized Athenian concert hall. – James Manheim

Daniel Behle, Armonia Atenea, George Petrou - Gluck: Opera Arias (2014)

Track List:

Antigono, Wq 21
1. "Quercia annosa sull'erte pendici" (Ed. Giovanni Secchi) 4:06

La Semiramide riconosciuta, Wq 13
Ed. Giovanni Secchi
2. "Io veggo in lontananza" 7:45

Ipermestra, Wq 7
3. "Non hai cor per un'impresa" (Ed. Giovanni Secchi) 6:39

Ezio, Wq 31
4. "Se povero il ruscello" (Ed. Giovanni Secchi) 9:47

La Semiramide riconosciuta, Wq 13
Ed. Giovanni Secchi
5. "Bel piacer saria d'un core" 7:34

La Contesa de'numi, Wq 14
Ed. Giovanni Secchi
6. "Qual ira intempestiva Oggi per me non sudi" 4:25
7. "Oggi per me sudi" - Aria 4:24

Le Cinesi, Wq 18
8. "Son lungi e non mi brami " (Ed. Giovanni Secchi) 7:07

Iphigénie en Aulide, Wq 40
9. "Cruelle, non jamais votre insensible coeur ne fut touché de mon amour" (Ed. Giovanni Secchi) 2:46

Orfeo ed Euridice, Wq. 30
10. "J'ai perdu mon Eurydice" (Ed. Giovanni Secchi) 4:21

La Rencontre imprévue, Wq 32
11. "Je chérirai, jusqu'au trépas" (ed. Giovanni Secchi) 5:01

Performers:
Daniel Behle, tenor
Armonia Atenea
on period instruments
sur instruments d’époque · auf authentischen Instrumenten
George Petrou, conductor

Exact Audio Copy V1.0 beta 4 from 7. December 2014

EAC extraction logfile from 19. April 2015, 20:21

Daniel Behle, Armonia Atenea and George Petrou / Gluck: Opera Arias

Used drive : hp DVD A DS8A9SH Adapter: 1 ID: 0

Read mode : Secure
Utilize accurate stream : Yes
Defeat audio cache : Yes
Make use of C2 pointers : No

Read offset correction : 6
Overread into Lead-In and Lead-Out : No
Fill up missing offset samples with silence : Yes
Delete leading and trailing silent blocks : No
Null samples used in CRC calculations : Yes
Used interface : Native Win32 interface for Win NT & 2000
Gap handling : Appended to previous track

Used output format : User Defined Encoder
Selected bitrate : 1024 kBit/s
Quality : High
Add ID3 tag : No
Command line compressor : C:\Program Files (x86)\Exact Audio Copy\Flac\flac.exe
Additional command line options : -8 -V -T "ARTIST=%artist%" -T "TITLE=%title%" -T "ALBUM=%albumtitle%" -T "DATE=%year%" -T "TRACKNUMBER=%tracknr%" -T "GENRE=%genre%" -T "PERFORMER=%albuminterpret%" -T "COMPOSER=%composer%" %haslyrics%–tag-from-file=LYRICS="%lyricsfile%"%haslyrics% -T "ALBUMARTIST=%albumartist%" -T "DISCNUMBER=%cdnumber%" -T "TOTALDISCS=%totalcds%" -T "TOTALTRACKS=%numtracks%" -T "COMMENT=%comment%" %source% -o %dest%


TOC of the extracted CD

Track | Start | Length | Start sector | End sector
––––––––––––––––––––––––––––-
1 | 0:00.00 | 4:07.29 | 0 | 18553
2 | 4:07.29 | 7:45.59 | 18554 | 53487
3 | 11:53.13 | 6:40.12 | 53488 | 83499
4 | 18:33.25 | 9:47.66 | 83500 | 127590
5 | 28:21.16 | 7:35.00 | 127591 | 161715
6 | 35:56.16 | 4:24.49 | 161716 | 181564
7 | 40:20.65 | 4:24.26 | 181565 | 201390
8 | 44:45.16 | 7:07.65 | 201391 | 233480
9 | 51:53.06 | 2:48.00 | 233481 | 246080
10 | 54:41.06 | 4:23.12 | 246081 | 265817
11 | 59:04.18 | 5:01.34 | 265818 | 288426


Track 1

Filename C:\Gluck - Opera Arias - 2014 [FLAC]\01 - Antigono, Wq 21 - ''Quercia annosa sull'erte pendici'' (Ed. Giovanni Secchi).wav

Pre-gap length 0:00:02.00

Peak level 95.5 %
Extraction speed 1.1 X
Track quality 100.0 %
Test CRC C97FA0F4
Copy CRC C97FA0F4
Accurately ripped (confidence 4) [D0E33D65] (AR v2)
Copy OK

Track 2

Filename C:\Gluck - Opera Arias - 2014 [FLAC]\02 - La Semiramide riconosciuta, Wq 13 - ''Io veggo in lontananza'' (Ed. Giovanni Secchi).wav

Pre-gap length 0:00:01.30

Peak level 91.1 %
Extraction speed 1.3 X
Track quality 99.9 %
Test CRC C6845910
Copy CRC C6845910
Accurately ripped (confidence 4) [03191479] (AR v2)
Copy OK

Track 3

Filename C:\Gluck - Opera Arias - 2014 [FLAC]\03 - Ipermestra, Wq 7 - ''Non hai cor per un'impresa'' (Ed. Giovanni Secchi).wav

Pre-gap length 0:00:01.09

Peak level 95.2 %
Extraction speed 1.5 X
Track quality 100.0 %
Test CRC AF4EDF9F
Copy CRC AF4EDF9F
Accurately ripped (confidence 4) [CF249346] (AR v2)
Copy OK

Track 4

Filename C:\Gluck - Opera Arias - 2014 [FLAC]\04 - Ezio, Wq 31 - ''Se povero il ruscello'' (Ed. Giovanni Secchi).wav

Pre-gap length 0:00:01.44

Peak level 88.0 %
Extraction speed 1.8 X
Track quality 100.0 %
Test CRC 853EC83B
Copy CRC 853EC83B
Accurately ripped (confidence 4) [37615972] (AR v2)
Copy OK

Track 5

Filename C:\Gluck - Opera Arias - 2014 [FLAC]\05 - La Semiramide riconosciuta, Wq 13 - ''Bel piacer saria d'un core'' (Ed. Giovanni Secchi).wav

Pre-gap length 0:00:00.36

Peak level 95.2 %
Extraction speed 2.0 X
Track quality 100.0 %
Test CRC 0DC9913F
Copy CRC 0DC9913F
Accurately ripped (confidence 4) [5A20FE08] (AR v2)
Copy OK

Track 6

Filename C:\Gluck - Opera Arias - 2014 [FLAC]\06 - La Contesa de'numi, Wq 14 - ''Qual ira intempestiva Oggi per me non sudi'' (Ed. Giovanni Secchi).wav

Pre-gap length 0:00:01.26

Peak level 95.2 %
Extraction speed 2.0 X
Track quality 100.0 %
Test CRC 2DBE3822
Copy CRC 2DBE3822
Accurately ripped (confidence 4) [C6CEE14D] (AR v2)
Copy OK

Track 7

Filename C:\Gluck - Opera Arias - 2014 [FLAC]\07 - La Contesa de'numi, Wq 14 - ''Oggi per me sudi'' - Aria (Ed. Giovanni Secchi).wav

Peak level 95.3 %
Extraction speed 2.0 X
Track quality 100.0 %
Test CRC F841A631
Copy CRC F841A631
Accurately ripped (confidence 4) [C2C2CDB6] (AR v2)
Copy OK

Track 8

Filename C:\Gluck - Opera Arias - 2014 [FLAC]\08 - Le Cinesi, Wq 18 - ''Son lungi e non mi brami '' (Ed. Giovanni Secchi).wav

Pre-gap length 0:00:00.47

Peak level 95.1 %
Extraction speed 2.2 X
Track quality 100.0 %
Test CRC A03BA5E9
Copy CRC A03BA5E9
Accurately ripped (confidence 4) [9DCF9346] (AR v2)
Copy OK

Track 9

Filename C:\Gluck - Opera Arias - 2014 [FLAC]\09 - Iphigénie en Aulide, Wq 40 - ''Cruelle, non jamais votre insensible coeur ne fut touché de mon amour'' (Ed. Giovanni Secchi).wav

Pre-gap length 0:00:01.16

Peak level 95.4 %
Extraction speed 1.7 X
Track quality 99.9 %
Test CRC 1BC4DC02
Copy CRC 1BC4DC02
Accurately ripped (confidence 4) [C08B9B06] (AR v2)
Copy OK

Track 10

Filename C:\Gluck - Opera Arias - 2014 [FLAC]\10 - Orfeo ed Euridice (Orphée et Eurydice), Wq 30 - ''J'ai perdu mon Eurydice'' (Ed. Giovanni Secchi).wav

Pre-gap length 0:00:01.55

Peak level 95.6 %
Extraction speed 2.3 X
Track quality 100.0 %
Test CRC 0D39B954
Copy CRC 0D39B954
Accurately ripped (confidence 4) [C9028342] (AR v2)
Copy OK

Track 11

Filename C:\Gluck - Opera Arias - 2014 [FLAC]\11 - La Rencontre imprévue, Wq 32 - ''Je chérirai, jusqu'au trépas'' (ed. Giovanni Secchi).wav

Pre-gap length 0:00:02.42

Peak level 82.5 %
Extraction speed 2.1 X
Track quality 99.9 %
Test CRC 29D024BF
Copy CRC 29D024BF
Accurately ripped (confidence 4) [223F8266] (AR v2)
Copy OK


All tracks accurately ripped

No errors occurred

End of status report

–– CUETools DB Plugin V2.1.4

[CTDB TOCID: DLZJ1Vu6giZSi0kLdfU3UyXkSOI-] disk not present in database
Submit result: DLZJ1Vu6giZSi0kLdfU3UyXkSOI- has been uploaded


==== Log checksum 331C4C4B09FD356CE513EBF135AB972036D69AC7B0874C87BAA53A246BF7D3C3 ====

[CUETools log; Date: 05.12.2017 10:25:19; Version: 2.1.5]
[CTDB TOCID: DLZJ1Vu6giZSi0kLdfU3UyXkSOI-] found.
Track | CTDB Status
1 | (6/6) Accurately ripped
2 | (6/6) Accurately ripped
3 | (6/6) Accurately ripped
4 | (6/6) Accurately ripped
5 | (6/6) Accurately ripped
6 | (6/6) Accurately ripped
7 | (6/6) Accurately ripped
8 | (6/6) Accurately ripped
9 | (6/6) Accurately ripped
10 | (6/6) Accurately ripped
11 | (6/6) Accurately ripped
[AccurateRip ID: 001c67ec-00f3ab90-8e0f050b] found.
Track [ CRC | V2 ] Status
01 [9d606e03|d0e33d65] (0+9/9) Accurately ripped
02 [326b0bd5|03191479] (0+9/9) Accurately ripped
03 [65bce42f|cf249346] (0+9/9) Accurately ripped
04 [09aa179b|37615972] (0+9/9) Accurately ripped
05 [5bc56fbd|5a20fe08] (0+9/9) Accurately ripped
06 [33d30a6a|c6cee14d] (0+9/9) Accurately ripped
07 [7c17e195|c2c2cdb6] (0+9/9) Accurately ripped
08 [146534eb|9dcf9346] (0+9/9) Accurately ripped
09 [7b1650cf|c08b9b06] (0+9/9) Accurately ripped
10 [7c8c51b0|c9028342] (0+9/9) Accurately ripped
11 [60502582|223f8266] (0+9/9) Accurately ripped

Track Peak [ CRC32 ] [W/O NULL] [ LOG ]
– 95,6 [11BF0A76] [68C02ADB]
01 95,5 [C97FA0F4] [12597B88] CRC32
02 91,1 [C6845910] [675466D8] CRC32
03 95,2 [AF4EDF9F] [85D6A481] CRC32
04 88,0 [853EC83B] [839FEFAB] CRC32
05 95,2 [0DC9913F] [BEF6E11F] CRC32
06 95,2 [2DBE3822] [74A6DA95] CRC32
07 95,3 [F841A631] [2E2CCD04] CRC32
08 95,1 [A03BA5E9] [1BF301CD] CRC32
09 95,4 [1BC4DC02] [ABD6A9B4] CRC32
10 95,6 [0D39B954] [05635BBB] CRC32
11 82,5 [29D024BF] [DA6774AB] CRC32

Thanks to the Original ripper (unknown)!

Download: