Subcategories

Daniel Muller-Schott, Arabella Steinbacher - Aram Khatchaturian: Violin Concerto & Cello Concerto (2004)

Posted By: tirexiss
Daniel Muller-Schott, Arabella Steinbacher - Aram Khatchaturian: Violin Concerto & Cello Concerto (2004)

Daniel Muller-Schott, Arabella Steinbacher - Aram Khatchaturian: Violin Concerto & Cello Concerto (2004)
EAC | FLAC (image+.cue, log) | Covers Included | 01:10:24 | 361 MB
Genre: Classical | Label: Orfeo | Catalog: C 623 041 A

If you're going to record the fiendishly difficult and vibrant violin and cello concertos of Armenian composer Aram Khachaturian, magnificently clean, virtuosic, and sensitive performances are absolutely essential for soloists and orchestra alike. Fortunately, that is precisely what is achieved on this recording featuring violinist Arabella Steinbacher, cellist Daniel Muller-Schott, and the City of Birmingham Symphony Orchestra. Muller-Schott's performance of the cello concerto, first on the CD, is beyond exciting. His technique is sparkling and gives listeners the impression that even the most difficult passages are completely effortless. Always infused with the folk-like panache so necessary for Khachaturian's works, technical passages are always exciting and never sterile. The second movement is sultry and filled with tension. Offering a similarly virtuosic performance, Steinbacher's violin playing is throaty and guttural, another ideal match for Khachaturian. Filled with passionate risk-taking, the folksy, almost militaristic third movement is a tour de force for soloist and orchestra alike, while the passionate second movement showcases violin playing that is nothing short of sexy. The City of Birmingham Symphony Orchestra's tight and sensitive accompaniment only enhances the virtuosity of these two soloists.

Daniel Muller-Schott, Arabella Steinbacher - Aram Khatchaturian: Violin Concerto & Cello Concerto (2004)

Track List:

Cello Concerto in E Minor
1. I. Allegro moderato 00:14:57
2. II. Andante sostenuto - 00:07:43
3. III. Allegro [a battuta] 00:09:32

Violin Concerto in D Minor
4. I. Allegro con fermezza 00:15:40
5. II. Andante sostenuto 00:12:03
6. III. Allegro vivace 00:10:15

Performers:
Daniel Müller-Schott - cello
Arabella Steinbacher - violin

City of Birmingham Symphony Orchestra
Sakari Oramo - conductor

Exact Audio Copy V1.0 beta 3 from 29. August 2011

EAC extraction logfile from 19. April 2013, 12:08

Sakari Oramo / Khachaturian - Violin Concerto, Cello Concerto - Steinbacher, Müller-Schott

Used drive : TSSTcorpCDDVDW SH-222BB Adapter: 2 ID: 1

Read mode : Secure
Utilize accurate stream : Yes
Defeat audio cache : Yes
Make use of C2 pointers : No

Read offset correction : 6
Overread into Lead-In and Lead-Out : No
Fill up missing offset samples with silence : Yes
Delete leading and trailing silent blocks : No
Null samples used in CRC calculations : Yes
Used interface : Native Win32 interface for Win NT & 2000

Used output format : User Defined Encoder
Selected bitrate : 1024 kBit/s
Quality : High
Add ID3 tag : No
Command line compressor : C:\Program Files\Exact Audio Copy\Flac\flac.exe
Additional command line options : -8 -V -T "TITLE=%title%" -T "ARTIST=%artist%" -T "ALBUMARTIST=%albumartist%" -T "ALBUM=%albumtitle%" -T "DATE=%year%" -T "TRACKNUMBER=%tracknr%" -T "TRACKTOTAL=%numtracks%" -T "GENRE=%genre%" -T "COMMENT=%comment%" -T "PERFORMER=%albuminterpret%" -T "COMPOSER=%composer%" %source% -o %dest%


TOC of the extracted CD

Track | Start | Length | Start sector | End sector
––––––––––––––––––––––––––––-
1 | 0:00.00 | 15:00.08 | 0 | 67507
2 | 15:00.08 | 7:43.63 | 67508 | 102295
3 | 22:43.71 | 9:41.04 | 102296 | 145874
4 | 32:25.00 | 15:40.48 | 145875 | 216422
5 | 48:05.48 | 12:05.70 | 216423 | 270867
6 | 60:11.43 | 10:15.20 | 270868 | 317012


Range status and errors

Selected range

Filename G:\Ripped general\[8927] Khachaturian – Violin Concerto, Cello Concerto – Steinbacher, Müller-Schott\Khachaturian - Violin Concerto, Cello Concerto - Steinbacher, Müller-Schott.wav

Peak level 100.0 %
Extraction speed 7.5 X
Range quality 100.0 %
Test CRC 4D720374
Copy CRC 4D720374
Copy OK

No errors occurred


AccurateRip summary

Track 1 accurately ripped (confidence 6) [355A5544] (AR v1)
Track 2 accurately ripped (confidence 7) [DF5DA0C5] (AR v1)
Track 3 accurately ripped (confidence 7) [D19A0F1E] (AR v1)
Track 4 accurately ripped (confidence 6) [E3EF5AD8] (AR v1)
Track 5 accurately ripped (confidence 7) [C88B5B39] (AR v1)
Track 6 accurately ripped (confidence 6) [C8C8CD50] (AR v1)

All tracks accurately ripped

End of status report

[CUETools log; Date: 27.10.2017 10:53:34; Version: 2.1.5]
[CTDB TOCID: XYstiJYJMTdVInc0S8xXbWJn52Y-] found.
Track | CTDB Status
1 | (11/11) Accurately ripped
2 | (11/11) Accurately ripped
3 | (11/11) Accurately ripped
4 | (11/11) Accurately ripped
5 | (11/11) Accurately ripped
6 | (11/11) Accurately ripped
[AccurateRip ID: 001116ef-005ad14b-57108206] found.
Track [ CRC | V2 ] Status
01 [355a5544|d4be3bbb] (06+08/14) Accurately ripped
02 [df5da0c5|d1ea238a] (07+08/15) Accurately ripped
03 [d19a0f1e|8ed7747b] (07+08/15) Accurately ripped
04 [e3ef5ad8|f40497d6] (06+08/14) Accurately ripped
05 [c88b5b39|92d4722f] (07+08/15) Accurately ripped
06 [c8c8cd50|307e33ab] (06+07/13) Accurately ripped

Track Peak [ CRC32 ] [W/O NULL] [ LOG ]
– 100,0 [4D720374] [B245A57A] CRC32
01 98,6 [86845FEB] [C827ACC5]
02 78,6 [A1A6456F] [0306C651]
03 100,0 [1340079A] [B400B41D]
04 62,7 [276EBAFE] [D973F524]
05 99,9 [75A337E0] [18406F7F]
06 93,6 [0AE80B9A] [08C28F11]

Thanks to the Original ripper (unknown)!

Download: