Subcategories

Daniel Pemberton - Bedroom (1994)

Posted By: gribovar
Daniel Pemberton - Bedroom (1994)

Daniel Pemberton - Bedroom (1994)
EAC Rip | FLAC (image+.cue+log) - 366 MB | MP3 CBR 320 kbps (LAME 3.93) - 174 MB | Covers - 31 MB
Genre: Electronic, Ambient | RAR 3% Rec. | Label: Fax +49-69/450464 (PS 08/62)

Film, television, and video game music composer Daniel Pemberton got his start in avant-garde and ambient electronic music, influenced as a teenager by statuesque electronic artists such as Jean Michel Jarre, Tomita, and Vangelis. Pemberton began collecting keyboard gear from an early age and wrote a tips column for a video game magazine to earn enough money for increasingly high-end equipment. He also began recording his own compositions, and passed a tape on to Mixmaster Morris at one of his gigs. When word (as well as additional tapes) continued to spread, Pemberton recorded his debut album, Bedroom, which gained release in late 1994 for Pete Namlook's highly collectible Fax Records.
Tracklist:
01. Phoenix
02. Basement
03. Submerge
04. Phosphine
05. Antarctica
06. Orange Sludge
07. Igloo
08. Lost Caves
09. Leaving
10. Voices
11. Moderob
12. 3:51 - Hello?
13. Novelty Track

Total time: 01:14:03

Exact Audio Copy V0.99 prebeta 4 from 23. January 2008

EAC extraction logfile from 27. March 2009, 13:12

Daniel Pemberton / Bedroom

Used drive : PIONEER DVD-RW DVR-111 Adapter: 3 ID: 0

Read mode : Secure
Utilize accurate stream : Yes
Defeat audio cache : Yes
Make use of C2 pointers : No

Read offset correction : 48
Overread into Lead-In and Lead-Out : No
Fill up missing offset samples with silence : Yes
Delete leading and trailing silent blocks : No
Null samples used in CRC calculations : Yes
Used interface : Installed external ASPI interface

Used output format : User Defined Encoder
Selected bitrate : 1024 kBit/s
Quality : High
Add ID3 tag : No
Command line compressor : C:\Program Files\Exact Audio Copy\Flac\flac.exe
Additional command line options : -8 -V -T "ARTIST=%a" -T "ALBUM=%g" -T "DATE=%y" -T "GENRE=%m" %s -o %d


TOC of the extracted CD

Track | Start | Length | Start sector | End sector
––––––––––––––––––––––––––––-
1 | 0:00.30 | 5:04.31 | 30 | 22860
2 | 5:04.61 | 3:34.05 | 22861 | 38915
3 | 8:38.66 | 4:19.72 | 38916 | 58412
4 | 12:58.63 | 9:41.71 | 58413 | 102058
5 | 22:40.59 | 6:34.08 | 102059 | 131616
6 | 29:14.67 | 4:13.00 | 131617 | 150591
7 | 33:27.67 | 4:32.60 | 150592 | 171051
8 | 38:00.52 | 9:51.68 | 171052 | 215444
9 | 47:52.45 | 6:34.03 | 215445 | 244997
10 | 54:26.48 | 2:31.73 | 244998 | 256395
11 | 56:58.46 | 5:02.06 | 256396 | 279051
12 | 62:00.52 | 4:25.67 | 279052 | 298993
13 | 66:26.44 | 7:35.72 | 298994 | 333190


Range status and errors

Selected range

Filename F:\temp\nnm\Daniel Pemberton - Bedroom.wav

Peak level 90.6 %
Range quality 100.0 %
Test CRC C2C2A6B4
Copy CRC C2C2A6B4
Copy OK

No errors occurred


AccurateRip summary

Track 1 not present in database
Track 2 not present in database
Track 3 not present in database
Track 4 not present in database
Track 5 not present in database
Track 6 not present in database
Track 7 not present in database
Track 8 not present in database
Track 9 not present in database
Track 10 not present in database
Track 11 not present in database
Track 12 not present in database
Track 13 not present in database

None of the tracks are present in the AccurateRip database

End of status report

[CUETools log; Date: 02.04.2014 12:31:54; Version: 2.0.9]
Pregap length 00:00:30.
[AccurateRip ID: 00232680-01626f6e-b4115a0d] found.
Track [ CRC ] Status
01 [3d42505f] (3/3) Accurately ripped
02 [1f5f38f0] (3/3) Accurately ripped
03 [3a3c52a0] (3/3) Accurately ripped
04 [0faeebda] (3/3) Accurately ripped
05 [1c03aa7f] (3/3) Accurately ripped
06 [b8b32b44] (3/3) Accurately ripped
07 [de46ef50] (3/3) Accurately ripped
08 [224d7199] (3/3) Accurately ripped
09 [6b97ffb1] (3/3) Accurately ripped
10 [d04d540b] (3/3) Accurately ripped
11 [6bf8ed13] (3/3) Accurately ripped
12 [4a13a59e] (3/3) Accurately ripped
13 [e5ffa507] (3/3) Accurately ripped

Track Peak [ CRC32 ] [W/O NULL] [ LOG ]
– 90,6 [C2C2A6B4] [2506C697] CRC32
01 82,1 [547ECB37] [AE986140]
02 71,3 [CD81C5D1] [500E080B]
03 90,6 [4CF4B669] [1E41FD2C]
04 82,5 [12595E13] [0B4E482D]
05 86,4 [039AB315] [DF485F7B]
06 80,1 [CC3492C8] [3CBD525B]
07 80,7 [553119D9] [5454D91B]
08 80,8 [63A7B204] [CA0AD613]
09 65,4 [2DF30F86] [DDFBFD56]
10 83,0 [758DD310] [1B77AE29]
11 76,5 [8CF62FB5] [D0A9E8CC]
12 79,4 [CD722799] [CFBE51FD]
13 84,4 [35F8A3B6] [6BB8B885]

Thanks to _ok

More Fax +49-69/450464 releases from my blog:
Fax +49-69/450464
LOSSLESS:

Filepost.com
_______________

MP3 320 kbps:

Filepost.com
_______________

Covers:

Filepost.com