Subcategories

Danny Elfman - Red Dragon (OST) (2002)

Posted By: gribovar
Danny Elfman - Red Dragon (OST) (2002)

Danny Elfman - Red Dragon (OST) (2002)
EAC Rip | FLAC (tracks+.cue+log) - 315 MB | MP3 CBR 320 kbps (LAME 3.93) - 135 MB | Covers - 48 MB
Genre: Soundtrack/Modern Classical | RAR 3% Rec. | Label: Decca (473 248-2)

This vaunted "new" chapter in the exploits of serial killer/cannibal Dr. Hannibal Lecter is actually the first, essentially a remake of Manhunter, Michael Mann's adaptation of the Thomas Harris novel in which Dr. L. is but a supporting player. But where Mann used a nervous, often ironic rock and postpunk pop score, Danny Elfman's largely orchestral soundtrack here punctuates the film's creep factor with tense arpeggios and crashing rhythms. Nothing wrong with that, per se the old school masters succeeded following a similar tack for decades. But Elfman is no Bernard Herrmann here. In fact, there's often precious little to remind us that this is the same composer who served up such goth-modern standouts as Batman, Nightmare Before Christmas, Edward Scissorhands, and Darkman. It's a score that's masterfully atmospheric, yet strangely sterile - and one that occasionally dithers uncomfortably close to McGoth.
Tracklist:
01. Logos
02. The Revelation
03. Main Titles
04. The Cell
05. The old Mansion
06. The Address
07. We're Different
08. The Note
09. Enter the Dragon
10. Threats
11. Tiger Balls
12. Love on a Couch
13. Devouring the Dragon
14. The Fire
15. The Book
16. He's Back!
17. End Credits Suite

Total time: 57:15

Exact Audio Copy V0.99 prebeta 4 from 23. January 2008

EAC extraction logfile from 10. February 2011, 23:09

Danny Elfman / Red Dragon

Used drive : Optiarc DVD RW AD-7241S Adapter: 1 ID: 1

Read mode : Secure
Utilize accurate stream : Yes
Defeat audio cache : Yes
Make use of C2 pointers : No

Read offset correction : 48
Overread into Lead-In and Lead-Out : No
Fill up missing offset samples with silence : Yes
Delete leading and trailing silent blocks : No
Null samples used in CRC calculations : Yes
Used interface : Installed external ASPI interface
Gap handling : Appended to previous track

Used output format : User Defined Encoder
Selected bitrate : 1024 kBit/s
Quality : High
Add ID3 tag : No
Command line compressor : C:\Program Files\Exact Audio Copy\Flac\flac.exe
Additional command line options : -8 -V -T "ARTIST=%a" -T "TITLE=%t" -T "ALBUM=%g" -T "DATE=%y" -T "TRACKNUMBER=%n" -T "GENRE=%m" -T "COMMENT=EAC FLAC -8" %s


TOC of the extracted CD

Track | Start | Length | Start sector | End sector
––––––––––––––––––––––––––––-
1 | 0:00.00 | 0:49.68 | 0 | 3742
2 | 0:49.68 | 2:41.10 | 3743 | 15827
3 | 3:31.03 | 2:59.60 | 15828 | 29312
4 | 6:30.63 | 3:26.38 | 29313 | 44800
5 | 9:57.26 | 4:45.33 | 44801 | 66208
6 | 14:42.59 | 1:41.39 | 66209 | 73822
7 | 16:24.23 | 1:25.16 | 73823 | 80213
8 | 17:49.39 | 2:47.21 | 80214 | 92759
9 | 20:36.60 | 5:52.25 | 92760 | 119184
10 | 26:29.10 | 2:23.01 | 119185 | 129910
11 | 28:52.11 | 1:32.03 | 129911 | 136813
12 | 30:24.14 | 5:08.46 | 136814 | 159959
13 | 35:32.60 | 3:43.25 | 159960 | 176709
14 | 39:16.10 | 4:33.45 | 176710 | 197229
15 | 43:49.55 | 0:34.23 | 197230 | 199802
16 | 44:24.03 | 6:07.41 | 199803 | 227368
17 | 50:31.44 | 6:43.56 | 227369 | 257649
18 | 59:47.25 | 16:37.00 | 269050 | 343824


Track 1

Filename F:\torrent\Red Dragon_Danny Elfman\score\01. Danny Elfman – Logos.wav

Pre-gap length 0:00:02.00

Peak level 68.6 %
Track quality 100.0 %
Test CRC 1496584F
Copy CRC 1496584F
Cannot be verified as accurate (confidence 6) [80B3786F], AccurateRip returned [4B20F373]
Copy OK

Track 2

Filename F:\torrent\Red Dragon_Danny Elfman\score\02. Danny Elfman – The Revelation.wav

Peak level 95.5 %
Track quality 100.0 %
Test CRC 78275AA1
Copy CRC 78275AA1
Cannot be verified as accurate (confidence 6) [491C8A22], AccurateRip returned [CD3FDAC4]
Copy OK

Track 3

Filename F:\torrent\Red Dragon_Danny Elfman\score\03. Danny Elfman – Main Titles.wav

Peak level 97.1 %
Track quality 100.0 %
Test CRC 47000EB2
Copy CRC 47000EB2
Cannot be verified as accurate (confidence 6) [57E65D59], AccurateRip returned [8A619A80]
Copy OK

Track 4

Filename F:\torrent\Red Dragon_Danny Elfman\score\04. Danny Elfman – The Cell.wav

Peak level 71.3 %
Track quality 100.0 %
Test CRC 6E169C6A
Copy CRC 6E169C6A
Cannot be verified as accurate (confidence 6) [8037B2BD], AccurateRip returned [79962AB1]
Copy OK

Track 5

Filename F:\torrent\Red Dragon_Danny Elfman\score\05. Danny Elfman – The Old Mansion.wav

Peak level 94.2 %
Track quality 100.0 %
Test CRC CE02919C
Copy CRC CE02919C
Cannot be verified as accurate (confidence 6) [4FE2B468], AccurateRip returned [D95BC119]
Copy OK

Track 6

Filename F:\torrent\Red Dragon_Danny Elfman\score\06. Danny Elfman – The Address.wav

Peak level 77.2 %
Track quality 100.0 %
Test CRC D9184E12
Copy CRC D9184E12
Cannot be verified as accurate (confidence 6) [F6207469], AccurateRip returned [F0CDF552]
Copy OK

Track 7

Filename F:\torrent\Red Dragon_Danny Elfman\score\07. Danny Elfman – We're Different.wav

Peak level 55.7 %
Track quality 100.0 %
Test CRC B2ECA251
Copy CRC B2ECA251
Cannot be verified as accurate (confidence 6) [19BCAD67], AccurateRip returned [5C8E5CA8]
Copy OK

Track 8

Filename F:\torrent\Red Dragon_Danny Elfman\score\08. Danny Elfman – The Note.wav

Peak level 95.9 %
Track quality 100.0 %
Test CRC 3BEB6DB4
Copy CRC 3BEB6DB4
Cannot be verified as accurate (confidence 6) [54B95C63], AccurateRip returned [068D3674]
Copy OK

Track 9

Filename F:\torrent\Red Dragon_Danny Elfman\score\09. Danny Elfman – Enter the Dragon.wav

Peak level 97.4 %
Track quality 99.9 %
Test CRC EAFC5831
Copy CRC EAFC5831
Cannot be verified as accurate (confidence 6) [816EE534], AccurateRip returned [E3F6EC46]
Copy OK

Track 10

Filename F:\torrent\Red Dragon_Danny Elfman\score\10. Danny Elfman – Threats.wav

Peak level 80.5 %
Track quality 100.0 %
Test CRC 14CD7CEA
Copy CRC 14CD7CEA
Cannot be verified as accurate (confidence 6) [AEA414E6], AccurateRip returned [8CA48584]
Copy OK

Track 11

Filename F:\torrent\Red Dragon_Danny Elfman\score\11. Danny Elfman – Tiger Balls.wav

Peak level 89.5 %
Track quality 100.0 %
Test CRC 1FDE6970
Copy CRC 1FDE6970
Cannot be verified as accurate (confidence 6) [834FC28A], AccurateRip returned [12BA8147]
Copy OK

Track 12

Filename F:\torrent\Red Dragon_Danny Elfman\score\12. Danny Elfman – Love on A Couch.wav

Peak level 96.4 %
Track quality 100.0 %
Test CRC E35A6D63
Copy CRC E35A6D63
Cannot be verified as accurate (confidence 6) [9A992D19], AccurateRip returned [336DB852]
Copy OK

Track 13

Filename F:\torrent\Red Dragon_Danny Elfman\score\13. Danny Elfman – Devouring the Dragon.wav

Peak level 94.7 %
Track quality 100.0 %
Test CRC 24225F75
Copy CRC 24225F75
Cannot be verified as accurate (confidence 6) [53C386A2], AccurateRip returned [219DABDE]
Copy OK

Track 14

Filename F:\torrent\Red Dragon_Danny Elfman\score\14. Danny Elfman – The Fire.wav

Peak level 96.7 %
Track quality 99.9 %
Test CRC 606E09C6
Copy CRC 606E09C6
Cannot be verified as accurate (confidence 6) [5CAE2F18], AccurateRip returned [056675B9]
Copy OK

Track 15

Filename F:\torrent\Red Dragon_Danny Elfman\score\15. Danny Elfman – The Book.wav

Peak level 62.4 %
Track quality 100.0 %
Test CRC 13E81746
Copy CRC 13E81746
Cannot be verified as accurate (confidence 6) [41591353], AccurateRip returned [9A12DDEE]
Copy OK

Track 16

Filename F:\torrent\Red Dragon_Danny Elfman\score\16. Danny Elfman – He's Back!.wav

Peak level 97.4 %
Track quality 100.0 %
Test CRC ABBD5F24
Copy CRC ABBD5F24
Cannot be verified as accurate (confidence 6) [3E6CB6B1], AccurateRip returned [867610C1]
Copy OK

Track 17

Filename F:\torrent\Red Dragon_Danny Elfman\score\17. Danny Elfman – End Credits Suite.wav

Peak level 97.1 %
Track quality 100.0 %
Test CRC 4DE2523B
Copy CRC 4DE2523B
Cannot be verified as accurate (confidence 6) [6E40C9BB], AccurateRip returned [4A749CD2]
Copy OK


No tracks could be verified as accurate
You may have a different pressing from the one(s) in the database

No errors occurred

End of status report

[CUETools log; Date: 10.12.2017 13:02:49; Version: 2.1.4]
CD-Extra data track length 16:37:00.
[CTDB TOCID: MBBAFCKqitpSyN282sh_K5VgT4U-] found.
Track | CTDB Status
1 | (26/26) Accurately ripped
2 | (26/26) Accurately ripped
3 | (26/26) Accurately ripped
4 | (26/26) Accurately ripped
5 | (26/26) Accurately ripped
6 | (26/26) Accurately ripped
7 | (26/26) Accurately ripped
8 | (26/26) Accurately ripped
9 | (26/26) Accurately ripped
10 | (26/26) Accurately ripped
11 | (26/26) Accurately ripped
12 | (26/26) Accurately ripped
13 | (26/26) Accurately ripped
14 | (26/26) Accurately ripped
15 | (26/26) Accurately ripped
16 | (26/26) Accurately ripped
17 | (26/26) Accurately ripped
[AccurateRip ID: 0020015a-01a861b3-0411e812] found.
Track [ CRC | V2 ] Status
01 [80b3786f|27640667] (00+00/18) No match
02 [491c8a22|cf271545] (00+00/18) No match
03 [57e65d59|49491fc8] (00+00/18) No match
04 [8037b2bd|383bcb61] (00+00/18) No match
05 [4fe2b468|e979067c] (00+00/18) No match
06 [f6207469|d38d957b] (00+00/18) No match
07 [19bcad67|6557f11e] (00+00/18) No match
08 [54b95c63|cdecf7e9] (00+00/18) No match
09 [816ee534|2139ecda] (00+00/18) No match
10 [aea414e6|908c8a89] (00+00/18) No match
11 [834fc28a|efe34687] (00+00/18) No match
12 [9a992d19|6132a980] (00+00/18) No match
13 [53c386a2|80957377] (00+00/18) No match
14 [5cae2f18|6bb80be7] (00+00/18) No match
15 [41591353|86cb202d] (00+00/18) No match
16 [3e6cb6b1|da2cb1c3] (00+00/18) No match
17 [6e40c9bb|35ddd310] (00+00/18) No match
Offsetted by 900:
01 [4b20f373] (06/18) Accurately ripped
02 [cd3fdac4] (06/18) Accurately ripped
03 [8a619a80] (06/18) Accurately ripped
04 [79962ab1] (06/18) Accurately ripped
05 [d95bc119] (06/18) Accurately ripped
06 [f0cdf552] (06/18) Accurately ripped
07 [5c8e5ca8] (06/18) Accurately ripped
08 [068d3674] (06/18) Accurately ripped
09 [e3f6ec46] (06/18) Accurately ripped
10 [8ca48584] (06/18) Accurately ripped
11 [12ba8147] (06/18) Accurately ripped
12 [336db852] (06/18) Accurately ripped
13 [219dabde] (06/18) Accurately ripped
14 [056675b9] (06/18) Accurately ripped
15 [9a12ddee] (06/18) Accurately ripped
16 [867610c1] (06/18) Accurately ripped
17 [4a749cd2] (06/18) Accurately ripped
Offsetted by 251:
01 [a718c8fb] (00/18) No match (V2 was not tested)
02 [5baa80af] (00/18) No match (V2 was not tested)
03 [f0303e82] (00/18) No match (V2 was not tested)
04 [967d33ea] (00/18) No match (V2 was not tested)
05 [ff2a0a2a] (00/18) No match (V2 was not tested)
06 [ccd4b552] (00/18) No match (V2 was not tested)
07 [8eadaedf] (00/18) No match (V2 was not tested)
08 [184ec037] (00/18) No match (V2 was not tested)
09 [4cce4fff] (00/18) No match (V2 was not tested)
10 [ff2b2ff7] (00/18) No match (V2 was not tested)
11 [021f9e30] (00/18) No match (V2 was not tested)
12 [6d73862f] (00/18) No match (V2 was not tested)
13 [ea224f54] (00/18) No match (V2 was not tested)
14 [8f8d32fe] (00/18) No match (V2 was not tested)
15 [f082fb1c] (00/18) No match (V2 was not tested)
16 [2ca59299] (00/18) No match (V2 was not tested)
17 [7629d7ed] (00/18) No match (V2 was not tested)

Track Peak [ CRC32 ] [W/O NULL] [ LOG ]
– 97,4 [02EBCF7A] [31B6730A]
01 68,6 [1496584F] [AA7570CA] CRC32
02 95,5 [78275AA1] [50F27450] CRC32
03 97,1 [47000EB2] [911E97F2] CRC32
04 71,3 [6E169C6A] [3BBF0F22] CRC32
05 94,2 [CE02919C] [1D31003C] CRC32
06 77,2 [D9184E12] [E2F5467A] CRC32
07 55,7 [B2ECA251] [A553B168] CRC32
08 95,9 [3BEB6DB4] [6CA918BA] CRC32
09 97,4 [EAFC5831] [249510D4] CRC32
10 80,5 [14CD7CEA] [4F7D1612] CRC32
11 89,5 [1FDE6970] [55B70897] CRC32
12 96,4 [E35A6D63] [EA79DA87] CRC32
13 94,7 [24225F75] [001EF71E] CRC32
14 96,7 [606E09C6] [947C4319] CRC32
15 62,4 [13E81746] [41E845D2] CRC32
16 97,4 [ABBD5F24] [43198CBC] CRC32
17 97,1 [4DE2523B] [480CF4F7] CRC32

Thanks to Sarant

See also:
Hans Zimmer - Hannibal (OST) (2001)