Subcategories

The White Buffalo - Darkest Darks, Lightest Lights (2017)

Posted By: SERTiL
The White Buffalo - Darkest Darks, Lightest Lights (2017)

The White Buffalo - Darkest Darks, Lightest Lights
EAC Rip | FLAC (tracks)+cue, log, m3u, front cover | 33:58 min | 218 MB
Label: Unison Music Group LLC ‎– UM88 | Tracks: 10 | Rls.date: 2017
Folk Rock, Alt-Country, Singer-Songwriter

Darkest Darks, Lightest Lights is the sixth full length album from The White Buffalo, singer-songwriter Jake Smith's solo act. The raw, country-grounded, rock-inflected sound that provided the perfect soundtrack for projects such as the television series Sons of Anarchy continues on this strong and versatile effort, which includes the ballad If I Lost My Eyes and the Western-reminiscent Robbery and Border Town / Bury Me in Baja.

“There's something ancient about Jake Smith's voice. The man behind the name the White Buffalo, Smith's is a deep, dark rasp, aged and weathered, wearied and wizened. So it's the perfect instrument with which to ponder the secrets of the universe or the ties that bind his fellow humans…” - Jeff Gage, Rolling Stone

“The voice inside him whirls… hitting the air like a fist.” - Jeffrey Fleishman, L.A. Times

Tracklist:
1. Hide and Seek (03:03)
2. Avalon (02:53)
3. Robbery (03:56)
4. The Observatory (03:47)
5. Madam's Soft, Madam's Sweet (03:26)
6. Nightstalker Blues (02:47)
7. If I Lost My Eyes (03:59)
8. Border Town / Bury Me in Baja (03:21)
9. The Heart and Soul of the Night (03:28)
10. I Am the Moon (03:18)

Exact Audio Copy V1.3 from 2. September 2016

EAC extraction logfile from 5. November 2017, 22:00

The White Buffalo / Darkest Darks, Lightest Lights

Used drive : ASUS BW-12B1ST Adapter: 1 ID: 0

Read mode : Secure
Utilize accurate stream : Yes
Defeat audio cache : Yes
Make use of C2 pointers : No

Read offset correction : 6
Overread into Lead-In and Lead-Out : No
Fill up missing offset samples with silence : Yes
Delete leading and trailing silent blocks : No
Null samples used in CRC calculations : Yes
Used interface : Native Win32 interface for Win NT & 2000
Gap handling : Appended to previous track

Used output format : User Defined Encoder
Selected bitrate : 1024 kBit/s
Quality : High
Add ID3 tag : No
Command line compressor : C:\Program Files (x86)\Exact Audio Copy\Flac\flac.exe
Additional command line options : -8 -e -p -V -T "ARTIST=%artist%" -T "TITLE=%title%" -T "ALBUM=%albumtitle%" -T "DATE=%year%" -T "TRACKNUMBER=%tracknr%" -T "GENRE=%genre%" -T "PERFORMER=%albuminterpret%" -T "COMPOSER=%composer%" %haslyrics%–tag-from-file=LYRICS="%lyricsfile%"%haslyrics% -T "ALBUMARTIST=%albumartist%" -T "DISCNUMBER=%cdnumber%" -T "TOTALDISCS=%totalcds%" -T "TOTALTRACKS=%numtracks%" -T "COMMENT=%comment%" %source% -o %dest%


TOC of the extracted CD

Track | Start | Length | Start sector | End sector
––––––––––––––––––––––––––––-
1 | 0:00.00 | 3:03.65 | 0 | 13789
2 | 3:03.65 | 2:53.39 | 13790 | 26803
3 | 5:57.29 | 3:56.66 | 26804 | 44569
4 | 9:54.20 | 3:47.57 | 44570 | 61651
5 | 13:42.02 | 3:26.22 | 61652 | 77123
6 | 17:08.24 | 2:47.17 | 77124 | 89665
7 | 19:55.41 | 3:59.62 | 89666 | 107652
8 | 23:55.28 | 3:21.18 | 107653 | 122745
9 | 27:16.46 | 3:28.33 | 122746 | 138378
10 | 30:45.04 | 3:18.17 | 138379 | 153245


Track 1

Filename C:\Ripping\The White Buffalo - Darkest Darks, Lightest Lights (2017)\01 - Hide And Seek.wav

Pre-gap length 0:00:02.00

Peak level 100.0 %
Extraction speed 4.8 X
Track quality 100.0 %
Test CRC 42297BF2
Copy CRC 42297BF2
Track not present in AccurateRip database
Copy OK

Track 2

Filename C:\Ripping\The White Buffalo - Darkest Darks, Lightest Lights (2017)\02 - Avalon.wav

Peak level 100.0 %
Extraction speed 5.2 X
Track quality 100.0 %
Test CRC E4AC257D
Copy CRC E4AC257D
Track not present in AccurateRip database
Copy OK

Track 3

Filename C:\Ripping\The White Buffalo - Darkest Darks, Lightest Lights (2017)\03 - Robbery.wav

Peak level 100.0 %
Extraction speed 5.9 X
Track quality 100.0 %
Test CRC A147BD69
Copy CRC A147BD69
Track not present in AccurateRip database
Copy OK

Track 4

Filename C:\Ripping\The White Buffalo - Darkest Darks, Lightest Lights (2017)\04 - The Observatory.wav

Peak level 99.5 %
Extraction speed 5.3 X
Track quality 99.9 %
Test CRC 3C05E3F1
Copy CRC 3C05E3F1
Track not present in AccurateRip database
Copy OK

Track 5

Filename C:\Ripping\The White Buffalo - Darkest Darks, Lightest Lights (2017)\05 - Madam's Soft, Madam's Sweet.wav

Peak level 100.0 %
Extraction speed 6.5 X
Track quality 100.0 %
Test CRC 3220B0C8
Copy CRC 3220B0C8
Track not present in AccurateRip database
Copy OK

Track 6

Filename C:\Ripping\The White Buffalo - Darkest Darks, Lightest Lights (2017)\06 - Nightstalker Blues.wav

Peak level 100.0 %
Extraction speed 6.6 X
Track quality 100.0 %
Test CRC 27CE9826
Copy CRC 27CE9826
Track not present in AccurateRip database
Copy OK

Track 7

Filename C:\Ripping\The White Buffalo - Darkest Darks, Lightest Lights (2017)\07 - If I Lost My Eyes.wav

Peak level 99.0 %
Extraction speed 7.3 X
Track quality 100.0 %
Test CRC 4A0608BB
Copy CRC 4A0608BB
Track not present in AccurateRip database
Copy OK

Track 8

Filename C:\Ripping\The White Buffalo - Darkest Darks, Lightest Lights (2017)\08 - Border Town-Bury Me In Baja.wav

Peak level 98.3 %
Extraction speed 5.1 X
Track quality 100.0 %
Test CRC 99B2B278
Copy CRC 99B2B278
Track not present in AccurateRip database
Copy OK

Track 9

Filename C:\Ripping\The White Buffalo - Darkest Darks, Lightest Lights (2017)\09 - The Heart And Soul Of The Night.wav

Peak level 100.0 %
Extraction speed 7.8 X
Track quality 100.0 %
Test CRC AC6B7442
Copy CRC AC6B7442
Track not present in AccurateRip database
Copy OK

Track 10

Filename C:\Ripping\The White Buffalo - Darkest Darks, Lightest Lights (2017)\10 - I Am The Moon.wav

Peak level 97.7 %
Extraction speed 6.6 X
Track quality 99.9 %
Test CRC 356225F8
Copy CRC 356225F8
Track not present in AccurateRip database
Copy OK


None of the tracks are present in the AccurateRip database

No errors occurred

End of status report

–– CUETools DB Plugin V2.1.6

[CTDB TOCID: vwgUepDowO5v0lz9tRBRxfjmChs-] found
Submit result: vwgUepDowO5v0lz9tRBRxfjmChs- has been confirmed
Track | CTDB Status
1 | (7/7) Accurately ripped
2 | (7/7) Accurately ripped
3 | (7/7) Accurately ripped
4 | (7/7) Accurately ripped
5 | (7/7) Accurately ripped
6 | (7/7) Accurately ripped
7 | (7/7) Accurately ripped
8 | (7/7) Accurately ripped
9 | (7/7) Accurately ripped
10 | (7/7) Accurately ripped


==== Log checksum 95859F5DBC8ECBFE1538B4400C0E82FB73CFAEDBF37E67B70A02B1FE33EA597B ====


Thanks to the Original customer.