The Dave Brubeck Quartet - Paper Moon (1981) Japanese Reissue 2014

Posted By: Designol
The Dave Brubeck Quartet - Paper Moon (1981) Japanese Reissue 2014

The Dave Brubeck Quartet - Paper Moon (1981) Japanese Reissue 2014
EAC | FLAC | Image (Cue&Log) ~ 276 Mb (incl 5%) | Mp3 (CBR320) ~ 131 Mb (incl 5%) | Scans included
Cool, West Coast Jazz, Piano Jazz | Label: Concord/Universal | # UCCO-90315 | Time: 00:42:22

The third of three Concord albums by this version of the Quartet (with Jerry Bergonzi on tenor, Chris Brubeck on bass and bass trombone and drummer Randy Jones) is the most rewarding of the trio although each one is recommended. Brubeck and the Coltrane-influenced tenor Bergonzi take consistently exciting solos on seven standards which are highlighted by "Music, Maestro, Please," "I Hear a Rhapsody" and "It's Only a Paper Moon"; Brubeck's solo version of "St. Louis Blues" is also noteworthy.

Review by Scott Yanow, Allmusic.com

The 1981 edition of the Dave Brubeck Quartet performs a nicely sequenced set of seven standards, highlighted by a "Paper Moon", creating a relaxed yet wistful mood. Pianist Dave Brubeck and tenor saxist Jerry Bergonzi take strong solos throughout. Bassist Chris Brubeck gets in a nice melodic bass solo in on the opener, "Music, Maestro, Please!". Chris breaks out his bass trombone for a solo on the title track, throwing in a cute "When You Wish Upon a Star" quote before wrapping up the track with a return to the primary melody. Drummer Randy Jones is solid in support throughout, creating subtle rhythmic interest. If you're a fan, you know what to expect from Dave, lots of block chords, though he steps out with fast single note runs in "Long Ago (And Far Away)", and takes a sensitive solo turn on "St. Louis Blues" to close out the set. Overall, another very solid entry into the maestro's lengthy discography.

Review by J. Levinson, Amazon.com

The Dave Brubeck Quartet - Paper Moon (1981) Japanese Reissue 2014



The Dave Brubeck Quartet:

Dave Brubeck - piano
Jerry Bergonzi - tenor saxophone (#1-4,6), bass (#5)
Chris Brubeck - bass (#1-4,6), bass trombone (#5)
Randy Jones - drums (#1-4,6)

Recorded at Coast Recorders, San Francisco, CA in September 1981.

Tracklist:

01. Music, Maestro, Please! (08:56)
02. I Hear a Rhapsody (06:06)
03. Symphony (05:09)
04. I Thought About You (05:21)
05. It's Only a Paper Moon (05:33)
06. Long Ago and Far Away (08:02)
07. St. Louis Blues (03:11)


Exact Audio Copy V1.1 from 23. June 2015

EAC extraction logfile from 17. May 2016, 11:53

Dave Brubeck / Paper Moon

Used drive : ASUS DRW-24B1LT Adapter: 5 ID: 1

Read mode : Secure
Utilize accurate stream : Yes
Defeat audio cache : Yes
Make use of C2 pointers : No

Read offset correction : 6
Overread into Lead-In and Lead-Out : No
Fill up missing offset samples with silence : Yes
Delete leading and trailing silent blocks : No
Null samples used in CRC calculations : Yes
Used interface : Installed external ASPI interface

Used output format : User Defined Encoder
Selected bitrate : 768 kBit/s
Quality : High
Add ID3 tag : No
Command line compressor : C:\Program Files\Exact Audio Copy\Flac\flac.exe
Additional command line options : -8 -V -T "ARTIST=%artist%" -T "TITLE=%title%" -T "ALBUM=%albumtitle%" -T "DATE=%year%" -T "TRACKNUMBER=%tracknr%" -T "TOTALTRACKS=%numtracks%" -T "GENRE=%genre%" -T "ALBUMARTIST=%albumartist%" -T "ALBUM ARTIST=%albumartist%" -T "COMMENT=EAC Secure Mode, Test & Copy, AccurateRip, FLAC -8" %source%


TOC of the extracted CD

Track | Start | Length | Start sector | End sector
––––––––––––––––––––––––––––-
1 | 0:00.00 | 8:56.74 | 0 | 40273
2 | 8:56.74 | 6:06.05 | 40274 | 67728
3 | 15:03.04 | 5:09.61 | 67729 | 90964
4 | 20:12.65 | 5:21.65 | 90965 | 115104
5 | 25:34.55 | 5:33.32 | 115105 | 140111
6 | 31:08.12 | 8:02.65 | 140112 | 176326
7 | 39:11.02 | 3:11.27 | 176327 | 190678


Range status and errors

Selected range

Filename F:\audio\Dave Brubeck - Paper Moon.wav

Peak level 96.1 %
Extraction speed 5.3 X
Range quality 100.0 %
Test CRC 2E5A498A
Copy CRC 2E5A498A
Copy OK

No errors occurred


AccurateRip summary

Track 1 accurately ripped (confidence 1) [7B0DEB6A] (AR v2)
Track 2 accurately ripped (confidence 1) [B218B4BD] (AR v2)
Track 3 accurately ripped (confidence 1) [BC7AF353] (AR v2)
Track 4 accurately ripped (confidence 1) [B7DBD9DA] (AR v2)
Track 5 accurately ripped (confidence 1) [0E09108D] (AR v2)
Track 6 accurately ripped (confidence 1) [50218F2C] (AR v2)
Track 7 accurately ripped (confidence 1) [9806F622] (AR v2)

All tracks accurately ripped

End of status report

–– CUETools DB Plugin V2.1.6

[CTDB TOCID: PK7FATbK4LNL4Ug3VV2DndqJNvs-] found
Submit result: PK7FATbK4LNL4Ug3VV2DndqJNvs- has been confirmed
Track | CTDB Status
1 | (4/4) Accurately ripped
2 | (4/4) Accurately ripped
3 | (4/4) Accurately ripped
4 | (4/4) Accurately ripped
5 | (4/4) Accurately ripped
6 | (4/4) Accurately ripped
7 | (4/4) Accurately ripped


==== Log checksum BF96B9E7E689B36BDFFEE22AC49475BFAA8C339C7FE3E643E16EA17320A6BD76 ====

foobar2000 1.2 / Dynamic Range Meter 1.1.1
log date: 2016-05-18 13:40:17

––––––––––––––––––––––––––––––––––––––––
Analyzed: Dave Brubeck / Paper Moon
––––––––––––––––––––––––––––––––––––––––

DR Peak RMS Duration Track
––––––––––––––––––––––––––––––––––––––––
DR12 -0.38 dB -15.15 dB 8:57 01-Music, Maestro, Please!
DR11 -0.34 dB -13.26 dB 6:06 02-I Hear a Rhapsody
DR11 -0.36 dB -14.21 dB 5:10 03-Symphony
DR11 -0.44 dB -14.59 dB 5:22 04-I Thought About You
DR11 -0.35 dB -13.12 dB 5:33 05-It's Only a Paper Moon
DR12 -0.37 dB -13.90 dB 8:03 06-Long Ago and Far Away
DR15 -0.46 dB -20.76 dB 3:11 07-St. Louis Blues
––––––––––––––––––––––––––––––––––––––––

Number of tracks: 7
Official DR value: DR12

Samplerate: 44100 Hz
Channels: 2
Bits per sample: 16
Bitrate: 775 kbps
Codec: FLAC
================================================================================

The Dave Brubeck Quartet - Paper Moon (1981) Japanese Reissue 2014

The Dave Brubeck Quartet - Paper Moon (1981) Japanese Reissue 2014