Tags
Language
Tags

Dave Alvin - Eleven Eleven (2011) Expanded Edition 2012 [3CD + DVD]

Posted By: Designol
Dave Alvin - Eleven Eleven (2011) Expanded Edition 2012 [3CD + DVD]

Dave Alvin - Eleven Eleven (2011) Expanded Edition 2012 [3CD + DVD]
EAC | FLAC | Image (Cue&Log) ~ 810 Mb | Mp3 (CBR320) ~ 301 Mb | Time: 02:05:19
DVD5 | NTSC | 16:9 (720x480) VBR | AC3 2.0 @ 192 kbps | Time: 01:31:04 | ~ 3.5 Gb
Americana, Country-Rock, Blues, Blues-Rock | Label: Yep Roc | # YEP 2273 | Scans included

A unique slip-case hardcover box containing all three CDs and the DVD. The original Eleven Eleven album on digipak CD. A second CD featuring 9 songs recorded live on the official Eleven Eleven US Tour at the Ark in Ann Arbor, MI on July 2, 2011 including Dave’s classic songs “Fourth of July', 'Out Of Control'. A bonus CD including 3 unreleased bonus tracks from the original Eleven Eleven recording session, including 'Never Trust A Woman' (duet with Candye Kane), 'Signal Hill', and 'Beautiful City ‘Cross the River' which was featured on a recent episode of FX’s hit television show 'Justified'. A DVD [NTSC] of live performance footage featuring Dave Alvin and The Guilty Ones live at The Ark in Ann Arbor, MI including a live performance of 'Abilene'.

Dave Alvin summed up his work as well as anyone could when he quipped, "There are two types of folk music: quiet folk music and loud folk music. I play both." Alvin shows off his skill on both sides of the volume divide on 2011's Eleven Eleven, where he reaffirms his status as one of the best and most distinctive American songwriters alive. There are few artists who can match Alvin's gift for creating vivid characters and bringing their lives to life through music, and Eleven Eleven finds him near the top of his game as a tunesmith, while also showing off his estimable skills as a guitarist. Whether he's digging into the dirty details of Johnny Ace's death in 1954, embodying a man who may kill a powerful politician for money, focusing his powers of seduction on one woman in a dirty nightgown, or swapping stories of an old friend's adventures on both sides of the law, Alvin's lyrics give the people he sings about depth and detail, and they're crafted with the skill of a talented novelist. Alvin also knows what sort of background to give to these stories, and the spectral guitar and accordion accompaniment of "No Worries Mija" feels just as right as the bluesy Bo Diddley stomp of "Run Conejo Run," and Alvin's electric guitar solos – crisp, sharp, and bracing – are as potent as he's been in years. And longtime fans will get a special kick out of "What's Up with Your Brother?," in which he swaps verses with his brother and former bandmate Phil Alvin and pokes fun at their combative reputation. Hearing Dave Alvin at work is to hear a man who is both a poet and a craftsman and remarkably gifted at both; Eleven Eleven shows he's a long way away from running out of ideas, and these 11 portraits of life in the Golden State are engrossing, thoughtful music that should satisfy old fans and engage those introducing themselves to his work for the first time.

Review by Mark Deming, Allmusic.com

Dave Alvin at Allmusic
Dave Alvin Website
Dave Alvin at Wiki

Dave Alvin - Eleven Eleven (2011) Expanded Edition 2012 [3CD + DVD]

Dave Alvin - Eleven Eleven (2011) Expanded Edition 2012 [3CD + DVD]

Tracklist:

CD1 - Dave Alvin - Eleven Eleven (Original Album):

01. Harlan County Line (05:11)
02. Johnny Ace Is Dead (04:26)
03. Black Rose Of Texas (04:52)
04. Gary, Indiana 1959 (04:05)
05. Run Conejo Run (04:52)
06. No Worries Mija (03:35)
07. What's Up With Your Brother? (04:43)
08. Murriettta's Head (05:58)
09. Manzanita (04:08)
10. Dirty Nightgown (05:18)
11. Two Lucky Bums (02:27)

CD2 - Dave Alvin & The Guilty Ones - Live at the Ark in Ann Arbor, MI July 2, 2011:

01. Harlan County line (06:38)
02. Boss of the Blues (08:13)
03. Long White Cadillac (05:35)
04. Rio Grande (05:14)
05. Johnny Ace is Dead (05:11)
06. Out of Control (09:51)
07. Dry River (08:07)
08. Run Conejo Run (07:26)
09. Fourth of July (06:50)

CD3 - Bonus Tracks:

01. Beautiful City 'Cross The River (04:16)
02. Signal Hill (04:28)
03. Never Trust A Woman (03:42)


Exact Audio Copy V1.0 beta 3 from 29. August 2011

EAC extraction logfile from 17. April 2014, 6:48

Dave Alvin / Eleven Eleven

Used drive : Optiarc DVD RW AD-7240S Adapter: 1 ID: 1

Read mode : Secure
Utilize accurate stream : Yes
Defeat audio cache : Yes
Make use of C2 pointers : No

Read offset correction : 48
Overread into Lead-In and Lead-Out : No
Fill up missing offset samples with silence : Yes
Delete leading and trailing silent blocks : No
Null samples used in CRC calculations : Yes
Used interface : Native Win32 interface for Win NT & 2000

Used output format : User Defined Encoder
Selected bitrate : 896 kBit/s
Quality : High
Add ID3 tag : No
Command line compressor : C:\Program Files\Exact Audio Copy\FLAC\FLAC.EXE
Additional command line options : -V -8 -T "Date=%year%" -T "Genre=%genre%" %source%


TOC of the extracted CD

Track | Start | Length | Start sector | End sector
––––––––––––––––––––––––––––-
1 | 0:00.00 | 5:11.42 | 0 | 23366
2 | 5:11.42 | 4:26.39 | 23367 | 43355
3 | 9:38.06 | 4:52.21 | 43356 | 65276
4 | 14:30.27 | 4:05.32 | 65277 | 83683
5 | 18:35.59 | 4:52.26 | 83684 | 105609
6 | 23:28.10 | 3:35.45 | 105610 | 121779
7 | 27:03.55 | 4:43.43 | 121780 | 143047
8 | 31:47.23 | 5:58.49 | 143048 | 169946
9 | 37:45.72 | 4:08.57 | 169947 | 188603
10 | 41:54.54 | 5:18.74 | 188604 | 212527
11 | 47:13.53 | 2:27.36 | 212528 | 223588


Range status and errors

Selected range

Filename D:\My Docs 2\My Music 2\_Dave Alvin\Regular Albums\Dave Alvin - Eleven Eleven\Dave Alvin - Eleven Eleven.wav

Peak level 98.8 %
Extraction speed 3.8 X
Range quality 100.0 %
Test CRC 73D93210
Copy CRC 73D93210
Copy OK

No errors occurred


AccurateRip summary

Track 1 accurately ripped (confidence 3) [A8F10E10] (AR v2)
Track 2 accurately ripped (confidence 3) [BAC3F7C3] (AR v2)
Track 3 accurately ripped (confidence 3) [55A6FBFE] (AR v2)
Track 4 accurately ripped (confidence 3) [ED6BA0CB] (AR v2)
Track 5 accurately ripped (confidence 3) [3725A182] (AR v2)
Track 6 accurately ripped (confidence 3) [E4244D91] (AR v2)
Track 7 accurately ripped (confidence 3) [FB976BB1] (AR v2)
Track 8 accurately ripped (confidence 3) [07DFFDA6] (AR v2)
Track 9 accurately ripped (confidence 3) [92EC3C12] (AR v2)
Track 10 accurately ripped (confidence 3) [F418C062] (AR v2)
Track 11 accurately ripped (confidence 3) [B74E592B] (AR v2)

All tracks accurately ripped

End of status report

==== Log checksum 85F26EEABEF3E7B53D85FB36BE1014779E86BC3134378D549973F1DEC2540B1C ====

foobar2000 1.2 / Dynamic Range Meter 1.1.1
log date: 2015-04-01 15:51:49

––––––––––––––––––––––––––––––––––––––––
Analyzed: Dave Alvin / Eleven Eleven
––––––––––––––––––––––––––––––––––––––––

DR Peak RMS Duration Track
––––––––––––––––––––––––––––––––––––––––
DR8 -0.10 dB -9.85 dB 5:12 01-Harlan County Line
DR8 -0.10 dB -9.56 dB 4:27 02-Johnny Ace Is Dead
DR9 -0.10 dB -12.37 dB 4:52 03-Black Rose Of Texas
DR9 -0.10 dB -10.39 dB 4:05 04-Gary, Indiana 1959
DR8 -0.10 dB -9.49 dB 4:52 05-Run Conejo Run
DR11 -0.10 dB -14.07 dB 3:36 06-No Worries Mija
DR9 -0.10 dB -10.88 dB 4:44 07-What's Up With Your Brother?
DR9 -0.10 dB -10.85 dB 5:59 08-Murriettta's Head
DR9 -0.10 dB -11.46 dB 4:09 09-Manzanita
DR9 -0.10 dB -11.31 dB 5:19 10-Dirty Nightgown
DR11 -0.10 dB -13.25 dB 2:27 11-Two Lucky Bums
––––––––––––––––––––––––––––––––––––––––

Number of tracks: 11
Official DR value: DR9

Samplerate: 44100 Hz
Channels: 2
Bits per sample: 16
Bitrate: 847 kbps
Codec: FLAC
================================================================================


Exact Audio Copy V1.0 beta 3 from 29. August 2011

EAC extraction logfile from 17. April 2014, 21:56

Dave Alvin & The Guilty Ones / Live at the Ark in Ann Arbor, MI July 2, 2011

Used drive : Optiarc DVD RW AD-7240S Adapter: 1 ID: 1

Read mode : Secure
Utilize accurate stream : Yes
Defeat audio cache : Yes
Make use of C2 pointers : No

Read offset correction : 48
Overread into Lead-In and Lead-Out : No
Fill up missing offset samples with silence : Yes
Delete leading and trailing silent blocks : No
Null samples used in CRC calculations : Yes
Used interface : Native Win32 interface for Win NT & 2000

Used output format : User Defined Encoder
Selected bitrate : 896 kBit/s
Quality : High
Add ID3 tag : No
Command line compressor : C:\Program Files\Exact Audio Copy\FLAC\FLAC.EXE
Additional command line options : -V -8 -T "Date=%year%" -T "Genre=%genre%" %source%


TOC of the extracted CD

Track | Start | Length | Start sector | End sector
––––––––––––––––––––––––––––-
1 | 0:00.00 | 6:38.49 | 0 | 29898
2 | 6:38.49 | 8:13.63 | 29899 | 66936
3 | 14:52.37 | 5:35.72 | 66937 | 92133
4 | 20:28.34 | 5:14.69 | 92134 | 115752
5 | 25:43.28 | 5:11.42 | 115753 | 139119
6 | 30:54.70 | 9:51.45 | 139120 | 183489
7 | 40:46.40 | 8:07.21 | 183490 | 220035
8 | 48:53.61 | 7:26.32 | 220036 | 253517
9 | 56:20.18 | 6:50.23 | 253518 | 284290


Range status and errors

Selected range

Filename D:\My Docs 2\My Music 2\_Dave Alvin\Regular Albums\Dave Alvin & The Guilty Ones - Live at the Ark in Ann Arbor, MI July 2, 2011\Dave Alvin & The Guilty Ones - Live at the Ark in Ann Arbor, MI July 2, 2011.wav

Peak level 96.0 %
Extraction speed 4.0 X
Range quality 100.0 %
Test CRC 83DA41EA
Copy CRC 83DA41EA
Copy OK

No errors occurred


AccurateRip summary

Track 1 accurately ripped (confidence 2) [EA5578AC] (AR v2)
Track 2 accurately ripped (confidence 2) [7C7EAEDF] (AR v2)
Track 3 accurately ripped (confidence 2) [26043F23] (AR v2)
Track 4 accurately ripped (confidence 2) [EFDF8564] (AR v2)
Track 5 accurately ripped (confidence 2) [EA69D703] (AR v2)
Track 6 accurately ripped (confidence 2) [1B3E8C41] (AR v2)
Track 7 accurately ripped (confidence 2) [3238799F] (AR v2)
Track 8 accurately ripped (confidence 2) [7D90C0C2] (AR v2)
Track 9 accurately ripped (confidence 2) [209ACFAD] (AR v2)

All tracks accurately ripped

End of status report

==== Log checksum 62688F104C665585031C28A0126C1ADDC806D83C3562C5521F2D9EB16B47102F ====

foobar2000 1.2 / Dynamic Range Meter 1.1.1
log date: 2015-04-01 15:52:13

––––––––––––––––––––––––––––––––––––––––
Analyzed: Dave Alvin & The Guilty Ones / Live at the Ark in Ann Arbor, MI July 2, 2011
––––––––––––––––––––––––––––––––––––––––

DR Peak RMS Duration Track
––––––––––––––––––––––––––––––––––––––––
DR7 -0.35 dB -10.78 dB 6:39 01-Harlan County line
DR7 -0.35 dB -9.73 dB 8:14 02-Boss of the Blues
DR7 -0.35 dB -8.55 dB 5:36 03-Long White Cadillac
DR9 -0.35 dB -11.96 dB 5:15 04-Rio Grande
DR7 -0.35 dB -9.47 dB 5:12 05-Johnny Ace is Dead
DR8 -0.35 dB -10.90 dB 9:52 06-Out of Control
DR7 -0.35 dB -11.18 dB 8:07 07-Dry River
DR8 -0.35 dB -11.18 dB 7:26 08-Run Conejo Run
DR7 -0.35 dB -9.79 dB 6:50 09-Fourth of July
––––––––––––––––––––––––––––––––––––––––

Number of tracks: 9
Official DR value: DR8

Samplerate: 44100 Hz
Channels: 2
Bits per sample: 16
Bitrate: 905 kbps
Codec: FLAC
================================================================================


Exact Audio Copy V1.0 beta 3 from 29. August 2011

EAC extraction logfile from 17. April 2014, 22:09

Dave Alvin / Eleven Eleven Deluxe Bonus Tracks

Used drive : Optiarc DVD RW AD-7240S Adapter: 1 ID: 1

Read mode : Secure
Utilize accurate stream : Yes
Defeat audio cache : Yes
Make use of C2 pointers : No

Read offset correction : 48
Overread into Lead-In and Lead-Out : No
Fill up missing offset samples with silence : Yes
Delete leading and trailing silent blocks : No
Null samples used in CRC calculations : Yes
Used interface : Native Win32 interface for Win NT & 2000

Used output format : User Defined Encoder
Selected bitrate : 896 kBit/s
Quality : High
Add ID3 tag : No
Command line compressor : C:\Program Files\Exact Audio Copy\FLAC\FLAC.EXE
Additional command line options : -V -8 -T "Date=%year%" -T "Genre=%genre%" %source%


TOC of the extracted CD

Track | Start | Length | Start sector | End sector
––––––––––––––––––––––––––––-
1 | 0:00.00 | 4:16.68 | 0 | 19267
2 | 4:16.68 | 4:28.36 | 19268 | 39403
3 | 8:45.29 | 3:42.50 | 39404 | 56103


Range status and errors

Selected range

Filename D:\My Docs 2\My Music 2\_Dave Alvin\Regular Albums\Dave Alvin - Eleven Eleven Deluxe Bonus Tracks\Dave Alvin - Eleven Eleven Deluxe Bonus Tracks.wav

Peak level 98.8 %
Extraction speed 2.8 X
Range quality 100.0 %
Test CRC AD834124
Copy CRC AD834124
Copy OK

No errors occurred


AccurateRip summary

Track 1 accurately ripped (confidence 3) [1A6BEB50] (AR v2)
Track 2 accurately ripped (confidence 3) [E84AC9AE] (AR v2)
Track 3 accurately ripped (confidence 3) [F70EDCF5] (AR v2)

All tracks accurately ripped

End of status report

==== Log checksum 72256B157A26A3CF88343914BA07AD0948DCAF07CDD90BDF7B57436F44C6AF3B ====

foobar2000 1.2 / Dynamic Range Meter 1.1.1
log date: 2015-04-01 15:51:54

––––––––––––––––––––––––––––––––––––––––
Analyzed: Dave Alvin / Eleven Eleven Deluxe Bonus Tracks
––––––––––––––––––––––––––––––––––––––––

DR Peak RMS Duration Track
––––––––––––––––––––––––––––––––––––––––
DR8 -0.10 dB -9.77 dB 4:17 01-Beautiful City 'Cross The River
DR9 -0.10 dB -10.78 dB 4:28 02-Signal Hill
DR9 -0.10 dB -11.51 dB 3:43 03-Never Trust A Woman
––––––––––––––––––––––––––––––––––––––––

Number of tracks: 3
Official DR value: DR9

Samplerate: 44100 Hz
Channels: 2
Bits per sample: 16
Bitrate: 949 kbps
Codec: FLAC
================================================================================


Dave Alvin - Eleven Eleven (2011) Expanded Edition 2012 [3CD + DVD]

Dave Alvin - Eleven Eleven (2011) Expanded Edition 2012 [3CD + DVD]

Dave Alvin - Eleven Eleven (2011) Expanded Edition 2012 [3CD + DVD]

Dave Alvin - Eleven Eleven (2011) Expanded Edition 2012 [3CD + DVD]

Dave Alvin - Eleven Eleven (2011) Expanded Edition 2012 [3CD + DVD]



Dave Alvin & The Guilty Ones - Live at the Ark in Ann Arbor, MI July 2, 2011

DVD Content:


01. Harlan County Line
02. Boss of the Blues
03. Long White Cadillac
04. Rio Grande
05. Johnny Ace is Dead
06. Abilene
07. Out of Control
08. Dry River
09. Run Conejo Run
10. Fourth of July

Bonus: Interview with Dave Alvin

Dave Alvin - Eleven Eleven (2011) Expanded Edition 2012 [3CD + DVD]

Dave Alvin - Eleven Eleven (2011) Expanded Edition 2012 [3CD + DVD]

All thanks to original releaser - funny_horse

More interesting music in My Blog