Subcategories

Dave Brubeck Quartet - Brubeck Time (1955) [Reissue 2009] (Repost)

Posted By: gribovar
Dave Brubeck Quartet - Brubeck Time (1955) [Reissue 2009] (Repost)

Dave Brubeck Quartet - Brubeck Time (1955) [Reissue 2009]
EAC Rip | FLAC (image+.cue+log) - 156 MB | MP3 CBR 320 kbps (LAME 3.93) - 95 MB | Covers - 101 MB
Genre: Jazz | RAR 3% Rec. | Label: Columbia/Legacy (88697491932)

This LP introduced Paul Desmond's beautiful ballad "Audrey" and found the early Dave Brubeck quartet (with pianist Brubeck, altoist Desmond, bassist Bob Bates, and drummer Joe Dodge) making a rare studio recording; up to this point all of their most popular records were club performances. With fresh versions of such songs as "Jeepers Creepers," "Pennies from Heaven," and "A Fine Romance," this music is certainly worth acquiring.
Tracklist:
01. Audrey
02. Jeepers Creepers
03. Pennies From Heaven
04. Why Do I Love You?
05. Stompin' For Mili
06. Keepin' Out Of Mischief Now
07. A Fine Romance
08. Brother, Can You Spare A Dime?

Total time: 40:26

Exact Audio Copy V0.99 prebeta 5 from 4. May 2009

EAC extraction logfile from 2. November 2010, 0:18

Dave Brubeck Quartet / Brubeck Time

Used drive : TSSTcorpCDDVDW SH-S223F Adapter: 3 ID: 0

Read mode : Secure
Utilize accurate stream : Yes
Defeat audio cache : Yes
Make use of C2 pointers : No

Read offset correction : 6
Overread into Lead-In and Lead-Out : No
Fill up missing offset samples with silence : Yes
Delete leading and trailing silent blocks : No
Null samples used in CRC calculations : Yes
Used interface : Native Win32 interface for Win NT & 2000

Used output format : User Defined Encoder
Selected bitrate : 1024 kBit/s
Quality : High
Add ID3 tag : No
Command line compressor : C:\Program Files\Exact Audio Copy\wavpack.exe
Additional command line options : -hlm %s


TOC of the extracted CD

Track | Start | Length | Start sector | End sector
––––––––––––––––––––––––––––-
1 | 0:00.00 | 3:35.05 | 0 | 16129
2 | 3:35.05 | 4:57.45 | 16130 | 38449
3 | 8:32.50 | 6:28.52 | 38450 | 67601
4 | 15:01.27 | 5:42.20 | 67602 | 93271
5 | 20:43.47 | 5:27.35 | 93272 | 117831
6 | 26:11.07 | 5:06.53 | 117832 | 140834
7 | 31:17.60 | 3:50.15 | 140835 | 158099
8 | 35:08.00 | 5:18.00 | 158100 | 181949


Range status and errors

Selected range

Filename E:\temp\Misic\brubecktime\Dave Brubeck Quartet - Brubeck Time.wav

Peak level 99.7 %
Range quality 100.0 %
Test CRC BA591443
Copy CRC BA591443
Copy OK

No errors occurred


AccurateRip summary

Track 1 accurately ripped (confidence 5) [BFD60881]
Track 2 accurately ripped (confidence 5) [7C64A80E]
Track 3 accurately ripped (confidence 5) [633CB5F3]
Track 4 accurately ripped (confidence 5) [822224F1]
Track 5 accurately ripped (confidence 5) [6BA8C49B]
Track 6 accurately ripped (confidence 5) [E5EE4BBF]
Track 7 accurately ripped (confidence 5) [71C31BE4]
Track 8 accurately ripped (confidence 5) [A47B7A34]

All tracks accurately ripped

End of status report

[CUETools log; Date: 22.10.2017 13:34:52; Version: 2.1.4]
[CTDB TOCID: cZJr1wKVdzn.dPQikxc2xksxY2A-] found.
Track | CTDB Status
1 | (52/53) Accurately ripped
2 | (53/53) Accurately ripped
3 | (53/53) Accurately ripped
4 | (53/53) Accurately ripped
5 | (53/53) Accurately ripped
6 | (53/53) Accurately ripped
7 | (53/53) Accurately ripped
8 | (53/53) Accurately ripped
[AccurateRip ID: 000c6c5b-00539c8e-5b097a08] found.
Track [ CRC | V2 ] Status
01 [bfd60881|248c0d4a] (10+15/62) Accurately ripped
02 [7c64a80e|d19f37ee] (10+15/61) Accurately ripped
03 [633cb5f3|a42552fb] (10+15/62) Accurately ripped
04 [822224f1|e2676003] (10+15/61) Accurately ripped
05 [6ba8c49b|3c7a76e7] (10+15/62) Accurately ripped
06 [e5ee4bbf|9bb4cc11] (10+15/61) Accurately ripped
07 [71c31be4|face1d1b] (10+15/62) Accurately ripped
08 [a47b7a34|662bfec7] (10+15/61) Accurately ripped
Offsetted by -36:
01 [2f052cd5] (03/62) Accurately ripped
02 [6bd04cf2] (03/61) Accurately ripped
03 [ecbb5e5f] (03/62) Accurately ripped
04 [24277489] (03/61) Accurately ripped
05 [d994413f] (03/62) Accurately ripped
06 [bb5c1bdf] (03/61) Accurately ripped
07 [6dbc9218] (03/62) Accurately ripped
08 [07c9c748] (03/61) Accurately ripped
Offsetted by 628:
01 [652de41d] (17/62) Accurately ripped
02 [2bd5f9da] (17/61) Accurately ripped
03 [e845e697] (17/62) Accurately ripped
04 [5b53b879] (17/61) Accurately ripped
05 [270e9ba7] (17/62) Accurately ripped
06 [cc8f1d1f] (17/61) Accurately ripped
07 [0d519c20] (17/62) Accurately ripped
08 [fc975610] (16/61) Accurately ripped

Track Peak [ CRC32 ] [W/O NULL] [ LOG ]
– 99,7 [BA591443] [ADA7FC5A] CRC32
01 84,8 [981494EB] [B23EFBC4]
02 99,3 [133B4623] [355E6BA0]
03 76,7 [77DD63A4] [8C01823A]
04 93,7 [767DCF31] [FD2340C7]
05 99,7 [4534B1F6] [DA427E75]
06 92,9 [2F9E259E] [4F1F0BE0]
07 99,7 [9A44A410] [D99718A9]
08 99,7 [97D6FF58] [797D43EA]

Thanks to shatterhand

See also:
Dave Brubeck Quartet Featuring Paul Desmond - Stardust (1983)