Subcategories

David Bowie - Loving The Alien (1983-1988) [2018, 11CD Box Set] Re-up

Posted By: v3122
David Bowie - Loving The Alien (1983-1988) [2018, 11CD Box Set] Re-up

David Bowie - Loving The Alien (1983-1988)
EAC | Flac(Image) + Cue + Log & MP3 CBR 320Kbps
Parlophone, DBX 4 (8704331) | ~ 3919 or 1703 Mb | Artwork(png) -> 526 Mb
Rock / Pop / Pop Rock / Dance-Pop / Art Rock

The fourth in a series of comprehensive box sets chronicling David Bowie's entire career: Loving the Alien (1983-1988) covers a period that found Bowie at a popular peak yet somewhat creatively adrift. Once Let's Dance went supernova in 1983, as it was designed to do, Bowie's productivity slowed to a crawl: he knocked out the sequel, Tonight, in a year, then took three to deliver Never Let Me Down. By the end of the decade, he rediscovered his muse via the guitar skronk of Tin Machine, but Loving the Alien cuts off with Never Let Me Down, presented both in its original version and in a new incarnation containing tasteful instrumentation recorded in the wake of Bowie's death. Spearheaded by producer Mario J. McNulty, this revision of Never Let Me Down had been brewing in Bowie's mind for some time – McNulty pegs it to his 2008 remix of "Time Will Crawl," guitarist Reeves Gabrels maintains Bowie discussed re-recording songs as early as the album's supporting Glass Spider tour – so its existence isn't exactly sacrilege, even if it's not exactly a success, either. The new Never Let Me Down is neither fish nor fowl: it's not radical enough to be a reimagined record – its core remains the same – and without its ornamental period feel, it seems trapped out of time. The same can't be said of the rest of Loving the Alien, which goes overboard on period charm. Alongside remastered versions of the three main records and the new Never Let Me Down, there are two live albums sourced that mirror home videos – Serious Moonlight (Live 1983) and Glass Spider – the fourth installment of Re:Call, which gathers stray songs and non-LP singles and Dance, a two-disc collection of remixes that was originally planned for a 1985 release but scrapped. Each of these records are filled with bright, clanging, pastel colors and clean, sharp edges – the aesthetic of MTV, which Bowie helped define with Let's Dance. Once his gambit for superstardom worked, he experienced a brief creative paralysis. He made a handful of classic songs in the mid-'80s, but it's telling that apart from "Blue Jean," the single that greatly outshone its parent album Tonight, these were non-LP singles: "Absolute Beginners" and "This Is Not America" found him exploring avenues his hit-hungry albums wouldn't allow. The fascinating thing about Loving the Alien is how it makes this period seem more interesting than the individual albums, and that's entirely due to the dance mixes, ephemera, and awkward live material. On these byways, it's possible to hear Bowie grapple with both his past and present in a hungry fashion and that desperation is alien to Bowie, so an immersion into this unease makes for compelling listening.

by Stephen Thomas Erlewine, allmusic
David Bowie - Loving The Alien (1983-1988) [2018, 11CD Box Set] Re-up

David Bowie - Loving The Alien (1983-1988):

David Bowie - Loving The Alien (1983-1988) [2018, 11CD Box Set] Re-up

Tracklist CD01 - 1983 Let's Dance:

01 Modern Love
02 China Girl
03 Let's Dance
04 Without You
05 Ricochet
06 Criminal World
07 Cat People (Putting Out Fire)
08 Shake It

Exact Audio Copy V1.3 from 2. September 2016

EAC extraction logfile from 8. December 2018, 9:20

David Bowie / Let's Dance

Used drive : PLEXTOR BD-R PX-B950SA Adapter: 1 ID: 1

Read mode : Secure
Utilize accurate stream : Yes
Defeat audio cache : Yes
Make use of C2 pointers : No

Read offset correction : 6
Overread into Lead-In and Lead-Out : No
Fill up missing offset samples with silence : Yes
Delete leading and trailing silent blocks : No
Null samples used in CRC calculations : Yes
Used interface : Native Win32 interface for Win NT & 2000

Used output format : Internal WAV Routines
Sample format : 44.100 Hz; 16 Bit; Stereo


TOC of the extracted CD

Track | Start | Length | Start sector | End sector
––––––––––––––––––––––––––––-
1 | 0:00.00 | 4:48.25 | 0 | 21624
2 | 4:48.25 | 5:33.61 | 21625 | 46660
3 | 10:22.11 | 7:37.51 | 46661 | 80986
4 | 17:59.62 | 3:09.30 | 80987 | 95191
5 | 21:09.17 | 5:13.49 | 95192 | 118715
6 | 26:22.66 | 4:25.00 | 118716 | 138590
7 | 30:47.66 | 5:09.72 | 138591 | 161837
8 | 35:57.63 | 3:52.28 | 161838 | 179265


Range status and errors

Selected range

Filename C:\Users\Alex\Desktop\ALLexxess\David Bowie\2018 Loving The Alien (11CD Box Set Parlophone Records)\1983 Let's Dance\David Bowie - Let's Dance.wav

Peak level 92.9 %
Extraction speed 6.7 X
Range quality 100.0 %
Test CRC 6D32520C
Copy CRC 6D32520C
Copy OK

No errors occurred


AccurateRip summary

Track 1 accurately ripped (confidence 15) [1B58A8BC] (AR v2)
Track 2 accurately ripped (confidence 15) [B7A3F7CE] (AR v2)
Track 3 accurately ripped (confidence 15) [C1AFA28D] (AR v2)
Track 4 accurately ripped (confidence 15) [36E3664E] (AR v2)
Track 5 accurately ripped (confidence 15) [C3BEF3CB] (AR v2)
Track 6 accurately ripped (confidence 15) [C9F5C949] (AR v2)
Track 7 accurately ripped (confidence 15) [9114956C] (AR v2)
Track 8 accurately ripped (confidence 15) [D49BBA61] (AR v2)

All tracks accurately ripped

End of status report

–– CUETools DB Plugin V2.1.6

[CTDB TOCID: j8sSx_3lx1m1Di_dPLkf.b74VAc-] found
Submit result: j8sSx_3lx1m1Di_dPLkf.b74VAc- has been confirmed
Track | CTDB Status
1 | (68/68) Accurately ripped
2 | (68/68) Accurately ripped
3 | (68/68) Accurately ripped
4 | (68/68) Accurately ripped
5 | (68/68) Accurately ripped
6 | (68/68) Accurately ripped
7 | (68/68) Accurately ripped
8 | (68/68) Accurately ripped


==== Log checksum 708DBEF95F48B3C08868544AE8AE6CF6E82CD01A6B97EA0317571C91D4E8FB07 ====


[CUETools log; Date: 13.12.2018 22:59:16; Version: 2.1.4]
[AccurateRip ID: 000cdc7c-00550c29-67095608] found.
Track [ CRC | V2 ] Status
01 [9a99180b|1b58a8bc] (00+15/15) Accurately ripped
02 [cac1b9ae|b7a3f7ce] (00+15/15) Accurately ripped
03 [4a551934|c1afa28d] (00+15/15) Accurately ripped
04 [903dbffa|36e3664e] (00+15/15) Accurately ripped
05 [2dfd1d5f|c3bef3cb] (00+15/15) Accurately ripped
06 [fa44f3f6|c9f5c949] (00+15/15) Accurately ripped
07 [df5ce151|9114956c] (00+15/15) Accurately ripped
08 [5411288d|d49bba61] (00+15/15) Accurately ripped

Track Peak [ CRC32 ] [W/O NULL] [ LOG ]
– 92,9 [6D32520C] [D078925E] CRC32
01 92,9 [C6473C2D] [BEE5DD12]
02 92,6 [3BDFEA57] [173629F5]
03 92,8 [35337994] [E3210426]
04 92,5 [95A76096] [26586BAC]
05 92,6 [3E898B3F] [43A4E553]
06 92,6 [3913190B] [D525514B]
07 92,5 [83DF1B8B] [88D06916]
08 92,9 [9F383211] [EF807206]


David Bowie - Loving The Alien (1983-1988) [2018, 11CD Box Set] Re-up

Tracklist CD02-3 - 1983 Serious Moonlight 2CD (Live '83):

01 Look Back In Anger
02 'Heroes'
03 What In The World
04 Golden Years
05 Fashion
06 Let's Dance
07 Breaking Glass
08 Life On Mars?
09 Sorrow
10 Cat People (Putting Out Fire)
11 China Girl
12 Scary Monsters (And Super Creeps)
13 Rebel Rebel

Exact Audio Copy V1.3 from 2. September 2016

EAC extraction logfile from 8. December 2018, 8:56

David Bowie / Serious Moonlight CD1

Used drive : PLEXTOR BD-R PX-B950SA Adapter: 1 ID: 1

Read mode : Secure
Utilize accurate stream : Yes
Defeat audio cache : Yes
Make use of C2 pointers : No

Read offset correction : 6
Overread into Lead-In and Lead-Out : No
Fill up missing offset samples with silence : Yes
Delete leading and trailing silent blocks : No
Null samples used in CRC calculations : Yes
Used interface : Native Win32 interface for Win NT & 2000

Used output format : Internal WAV Routines
Sample format : 44.100 Hz; 16 Bit; Stereo


TOC of the extracted CD

Track | Start | Length | Start sector | End sector
––––––––––––––––––––––––––––-
1 | 0:00.00 | 3:07.43 | 0 | 14067
2 | 3:07.43 | 4:53.05 | 14068 | 36047
3 | 8:00.48 | 3:44.56 | 36048 | 52903
4 | 11:45.29 | 3:31.43 | 52904 | 68771
5 | 15:16.72 | 2:43.33 | 68772 | 81029
6 | 18:00.30 | 4:34.06 | 81030 | 101585
7 | 22:34.36 | 3:00.11 | 101586 | 115096
8 | 25:34.47 | 4:07.03 | 115097 | 133624
9 | 29:41.50 | 2:49.35 | 133625 | 146334
10 | 32:31.10 | 4:20.46 | 146335 | 165880
11 | 36:51.56 | 5:27.02 | 165881 | 190407
12 | 42:18.58 | 3:42.42 | 190408 | 207099
13 | 46:01.25 | 2:24.10 | 207100 | 217909


Range status and errors

Selected range

Filename C:\Users\Alex\Desktop\ALLexxess\David Bowie\2018 Loving The Alien (11CD Box Set Parlophone Records)\1983 Serious Moonlight 2CD\CD1\David Bowie - Serious Moonlight CD1.wav

Peak level 99.9 %
Extraction speed 6.9 X
Range quality 100.0 %
Test CRC 3C3B2469
Copy CRC 3C3B2469
Copy OK

No errors occurred


AccurateRip summary

Track 1 accurately ripped (confidence 14) [95537C01] (AR v2)
Track 2 accurately ripped (confidence 14) [056DD3F6] (AR v2)
Track 3 accurately ripped (confidence 14) [80A7FC82] (AR v2)
Track 4 accurately ripped (confidence 14) [6CF68E4F] (AR v2)
Track 5 accurately ripped (confidence 14) [10ED0219] (AR v2)
Track 6 accurately ripped (confidence 14) [2078448A] (AR v2)
Track 7 accurately ripped (confidence 14) [7900CF03] (AR v2)
Track 8 accurately ripped (confidence 14) [F29DAB8F] (AR v2)
Track 9 accurately ripped (confidence 14) [95B51EF0] (AR v2)
Track 10 accurately ripped (confidence 14) [97A8CC0C] (AR v2)
Track 11 accurately ripped (confidence 14) [BC44A599] (AR v2)
Track 12 accurately ripped (confidence 14) [A46941AA] (AR v2)
Track 13 accurately ripped (confidence 14) [B2096995] (AR v2)

All tracks accurately ripped

End of status report

–– CUETools DB Plugin V2.1.6

[CTDB TOCID: dUB73dOFR0O9WpZgoulHKuMhQU0-] found
Submit result: dUB73dOFR0O9WpZgoulHKuMhQU0- has been confirmed
Track | CTDB Status
1 | (66/66) Accurately ripped
2 | (66/66) Accurately ripped
3 | (66/66) Accurately ripped
4 | (66/66) Accurately ripped
5 | (66/66) Accurately ripped
6 | (66/66) Accurately ripped
7 | (66/66) Accurately ripped
8 | (66/66) Accurately ripped
9 | (66/66) Accurately ripped
10 | (66/66) Accurately ripped
11 | (66/66) Accurately ripped
12 | (66/66) Accurately ripped
13 | (66/66) Accurately ripped


==== Log checksum 0B61019D887A15288DFA5877BB43361B1F2AB4C58CE5511A006E18EA191161C6 ====


[CUETools log; Date: 13.12.2018 23:01:06; Version: 2.1.4]
[AccurateRip ID: 00175b8c-00e9e4a1-b50b590d] found.
Track [ CRC | V2 ] Status
01 [9a1d492c|95537c01] (00+14/14) Accurately ripped
02 [ada02446|056dd3f6] (00+14/14) Accurately ripped
03 [ff37d448|80a7fc82] (00+14/14) Accurately ripped
04 [4a5a67ec|6cf68e4f] (00+14/14) Accurately ripped
05 [94a4e2a5|10ed0219] (00+14/14) Accurately ripped
06 [0b53369c|2078448a] (00+14/14) Accurately ripped
07 [07f1c12f|7900cf03] (00+14/14) Accurately ripped
08 [eb250868|f29dab8f] (00+14/14) Accurately ripped
09 [a0a32108|95b51ef0] (00+14/14) Accurately ripped
10 [f143e9f0|97a8cc0c] (00+14/14) Accurately ripped
11 [ec4987b1|bc44a599] (00+14/14) Accurately ripped
12 [1baa71df|a46941aa] (00+14/14) Accurately ripped
13 [578ffa0f|b2096995] (00+14/14) Accurately ripped

Track Peak [ CRC32 ] [W/O NULL] [ LOG ]
– 99,9 [3C3B2469] [43751A0C] CRC32
01 93,2 [75797C73] [22E9E74A]
02 97,4 [A49E92E4] [10A13D56]
03 99,9 [2FE4EBDE] [A29FE065]
04 97,1 [EC855C06] [0C6F810B]
05 96,5 [C2BA6386] [BC8BE78E]
06 97,3 [EC4EE2E7] [49DB5B31]
07 97,4 [1645F962] [33580FB1]
08 97,4 [868CAC64] [74658A34]
09 97,5 [B12671FB] [0A3BF7B2]
10 82,6 [66506A39] [B84B41C6]
11 97,3 [7D8F17D2] [72A95EDD]
12 97,2 [94969D34] [F9051EB2]
13 98,1 [3548C81D] [2FBAD887]


01 White Light / White Heat
02 Station To Station
03 Cracked Actor
04 Ashes To Ashes
05 Space Oddity / Band Introduction
06 Young Americans
07 Fame
08 Modern Love

Exact Audio Copy V1.3 from 2. September 2016

EAC extraction logfile from 7. December 2018, 20:28

David Bowie / Serious Moonlight CD2

Used drive : PLEXTOR BD-R PX-B950SA Adapter: 1 ID: 1

Read mode : Secure
Utilize accurate stream : Yes
Defeat audio cache : Yes
Make use of C2 pointers : No

Read offset correction : 6
Overread into Lead-In and Lead-Out : No
Fill up missing offset samples with silence : Yes
Delete leading and trailing silent blocks : No
Null samples used in CRC calculations : Yes
Used interface : Native Win32 interface for Win NT & 2000

Used output format : Internal WAV Routines
Sample format : 44.100 Hz; 16 Bit; Stereo


TOC of the extracted CD

Track | Start | Length | Start sector | End sector
––––––––––––––––––––––––––––-
1 | 0:00.00 | 5:36.26 | 0 | 25225
2 | 5:36.26 | 8:58.31 | 25226 | 65606
3 | 14:34.57 | 3:58.21 | 65607 | 83477
4 | 18:33.03 | 3:51.20 | 83478 | 100822
5 | 22:24.23 | 6:32.43 | 100823 | 130265
6 | 28:56.66 | 5:25.08 | 130266 | 154648
7 | 34:21.74 | 5:36.26 | 154649 | 179874
8 | 39:58.25 | 3:54.65 | 179875 | 197489


Range status and errors

Selected range

Filename C:\Users\Alex\Desktop\ALLexxess\David Bowie\2018 Loving The Alien (11CD Box Set Parlophone Records)\1983 Serious Moonlight 2CD\CD2\David Bowie - Serious Moonlight CD2.wav

Peak level 98.0 %
Extraction speed 6.7 X
Range quality 100.0 %
Test CRC C2625F67
Copy CRC C2625F67
Copy OK

No errors occurred


AccurateRip summary

Track 1 accurately ripped (confidence 14) [38BDDA3F] (AR v2)
Track 2 accurately ripped (confidence 14) [9AA9F819] (AR v2)
Track 3 accurately ripped (confidence 14) [050C2A4A] (AR v2)
Track 4 accurately ripped (confidence 14) [55963F70] (AR v2)
Track 5 accurately ripped (confidence 14) [E10D1091] (AR v2)
Track 6 accurately ripped (confidence 14) [AE6A03CB] (AR v2)
Track 7 accurately ripped (confidence 14) [BCEE69F1] (AR v2)
Track 8 accurately ripped (confidence 14) [66B18BF3] (AR v2)

All tracks accurately ripped

End of status report

–– CUETools DB Plugin V2.1.6

[CTDB TOCID: y.HEjmxs3hUhINu8H9oRhtW2UYY-] found
Submit result: y.HEjmxs3hUhINu8H9oRhtW2UYY- has been confirmed
Track | CTDB Status
1 | (66/66) Accurately ripped
2 | (66/66) Accurately ripped
3 | (66/66) Accurately ripped
4 | (66/66) Accurately ripped
5 | (66/66) Accurately ripped
6 | (66/66) Accurately ripped
7 | (66/66) Accurately ripped
8 | (66/66) Accurately ripped


==== Log checksum 1C1D25290227947084FAD1281204F43CDB9117D4822F61E65DE4E308ED449715 ====


[CUETools log; Date: 13.12.2018 23:02:48; Version: 2.1.4]
[AccurateRip ID: 000e4dc6-005e155a-5f0a4908] found.
Track [ CRC | V2 ] Status
01 [e5ce22cb|38bdda3f] (00+14/14) Accurately ripped
02 [b47bd12b|9aa9f819] (00+14/14) Accurately ripped
03 [4e05dfae|050c2a4a] (00+14/14) Accurately ripped
04 [324ff12f|55963f70] (00+14/14) Accurately ripped
05 [23ef0251|e10d1091] (00+14/14) Accurately ripped
06 [eeb5a6e7|ae6a03cb] (00+14/14) Accurately ripped
07 [2ba39b40|bcee69f1] (00+14/14) Accurately ripped
08 [ac8d6a62|66b18bf3] (00+14/14) Accurately ripped

Track Peak [ CRC32 ] [W/O NULL] [ LOG ]
– 98,0 [C2625F67] [89E18E54] CRC32
01 97,5 [BBC25B51] [8B14480F]
02 97,6 [85387783] [97A37413]
03 97,5 [8E723C98] [3B41C8E2]
04 97,3 [E878B5E4] [F7DA72FB]
05 97,4 [3902E655] [CD30CF1E]
06 97,2 [FED06B91] [D62626B7]
07 97,4 [17D8A0F4] [40E3E54E]
08 98,0 [4706A543] [5C949294]


David Bowie - Loving The Alien (1983-1988) [2018, 11CD Box Set] Re-up

Tracklist CD04 - 1984 Tonight:

01 Loving The Alien
02 Don't Look Down
03 God Only Knows
04 Tonight
05 Neighborhood Threat
06 Blue Jean
07 Tumble And Twirl
08 I Keep Forgettin'
09 Dancing With The Big Boys

Exact Audio Copy V1.3 from 2. September 2016

EAC extraction logfile from 7. December 2018, 19:59

David Bowie / Tonight

Used drive : PLEXTOR BD-R PX-B950SA Adapter: 1 ID: 1

Read mode : Secure
Utilize accurate stream : Yes
Defeat audio cache : Yes
Make use of C2 pointers : No

Read offset correction : 6
Overread into Lead-In and Lead-Out : No
Fill up missing offset samples with silence : Yes
Delete leading and trailing silent blocks : No
Null samples used in CRC calculations : Yes
Used interface : Native Win32 interface for Win NT & 2000

Used output format : Internal WAV Routines
Sample format : 44.100 Hz; 16 Bit; Stereo


TOC of the extracted CD

Track | Start | Length | Start sector | End sector
––––––––––––––––––––––––––––-
1 | 0:00.00 | 7:12.51 | 0 | 32450
2 | 7:12.51 | 4:11.06 | 32451 | 51281
3 | 11:23.57 | 3:09.29 | 51282 | 65485
4 | 14:33.11 | 3:45.00 | 65486 | 82360
5 | 18:18.11 | 3:12.50 | 82361 | 96810
6 | 21:30.61 | 3:11.68 | 96811 | 111203
7 | 24:42.54 | 4:58.53 | 111204 | 133606
8 | 29:41.32 | 2:35.33 | 133607 | 145264
9 | 32:16.65 | 3:34.11 | 145265 | 161325


Range status and errors

Selected range

Filename C:\Users\Alex\Desktop\ALLexxess\David Bowie\2018 Loving The Alien (11CD Box Set Parlophone Records)\1984 Tonight\David Bowie - Tonight.wav

Peak level 99.3 %
Extraction speed 6.3 X
Range quality 99.9 %
Test CRC E4E9934A
Copy CRC E4E9934A
Copy OK

No errors occurred


AccurateRip summary

Track 1 accurately ripped (confidence 14) [94FC982B] (AR v2)
Track 2 accurately ripped (confidence 14) [23217536] (AR v2)
Track 3 accurately ripped (confidence 14) [43BDE9E5] (AR v2)
Track 4 accurately ripped (confidence 14) [F558DAE4] (AR v2)
Track 5 accurately ripped (confidence 14) [6A514A00] (AR v2)
Track 6 accurately ripped (confidence 14) [E66B39BD] (AR v2)
Track 7 accurately ripped (confidence 14) [34EE5B2E] (AR v2)
Track 8 accurately ripped (confidence 14) [63AEBAA8] (AR v2)
Track 9 accurately ripped (confidence 14) [BE58E0CD] (AR v2)

All tracks accurately ripped

End of status report

–– CUETools DB Plugin V2.1.6

[CTDB TOCID: QVH4455SAIz_QZc..He.IqS4j4c-] found
Submit result: QVH4455SAIz_QZc..He.IqS4j4c- has been confirmed
Track | CTDB Status
1 | (67/69) Accurately ripped
2 | (67/69) Accurately ripped
3 | (67/69) Accurately ripped
4 | (67/69) Accurately ripped
5 | (67/69) Accurately ripped
6 | (67/69) Accurately ripped
7 | (67/69) Accurately ripped
8 | (67/69) Accurately ripped
9 | (67/69) Accurately ripped


==== Log checksum C46918A63FCA8E7F6597C6BD60850BBE6682C457346384860A2009A27261CA4A ====


[CUETools log; Date: 13.12.2018 23:04:25; Version: 2.1.4]
[AccurateRip ID: 000d6cb1-005f3c0d-7d086709] found.
Track [ CRC | V2 ] Status
01 [ee117110|94fc982b] (00+14/14) Accurately ripped
02 [ec49211e|23217536] (00+14/14) Accurately ripped
03 [c3fa0333|43bde9e5] (00+14/14) Accurately ripped
04 [b029da2d|f558dae4] (00+14/14) Accurately ripped
05 [0c5b4e5d|6a514a00] (00+14/14) Accurately ripped
06 [f16b13fb|e66b39bd] (00+14/14) Accurately ripped
07 [37535655|34ee5b2e] (00+14/14) Accurately ripped
08 [3cb0734d|63aebaa8] (00+14/14) Accurately ripped
09 [aede344a|be58e0cd] (00+14/14) Accurately ripped

Track Peak [ CRC32 ] [W/O NULL] [ LOG ]
– 99,3 [E4E9934A] [CC5A0E6C] CRC32
01 98,2 [C62DB66D] [67744756]
02 99,3 [5D37EC0A] [B4B69A1E]
03 96,9 [1006587B] [99AFB863]
04 97,6 [56A41721] [6044F97D]
05 97,2 [AE0A7A70] [4223E8E2]
06 96,8 [A6457270] [F962E893]
07 96,9 [3F15EC7E] [2EF126E0]
08 96,9 [77DF1D91] [FA7AA74E]
09 96,8 [EEBC5235] [88456CA1]


David Bowie - Loving The Alien (1983-1988) [2018, 11CD Box Set] Re-up

Tracklist CD05 - 1987 Never Let Me Down:

01 Day-In Day-Out
02 Time Will Crawl
03 Beat Of Your Drum
04 Never Let Me Down
05 Zeroes
06 Glass Spider
07 Shining Star (Makin' My Love)
08 New York's In Love
09 '87 And Cry
10 Bang Bang

Exact Audio Copy V1.3 from 2. September 2016

EAC extraction logfile from 7. December 2018, 17:35

David Bowie / Never Let Me Down

Used drive : PLEXTOR BD-R PX-B950SA Adapter: 1 ID: 1

Read mode : Secure
Utilize accurate stream : Yes
Defeat audio cache : Yes
Make use of C2 pointers : No

Read offset correction : 6
Overread into Lead-In and Lead-Out : No
Fill up missing offset samples with silence : Yes
Delete leading and trailing silent blocks : No
Null samples used in CRC calculations : Yes
Used interface : Native Win32 interface for Win NT & 2000

Used output format : Internal WAV Routines
Sample format : 44.100 Hz; 16 Bit; Stereo


TOC of the extracted CD

Track | Start | Length | Start sector | End sector
––––––––––––––––––––––––––––-
1 | 0:00.00 | 5:39.29 | 0 | 25453
2 | 5:39.29 | 4:20.17 | 25454 | 44970
3 | 9:59.46 | 5:06.10 | 44971 | 67930
4 | 15:05.56 | 4:05.28 | 67931 | 86333
5 | 19:11.09 | 5:47.13 | 86334 | 112371
6 | 24:58.22 | 5:34.01 | 112372 | 137422
7 | 30:32.23 | 5:06.41 | 137423 | 160413
8 | 35:38.64 | 4:34.40 | 160414 | 181003
9 | 40:13.29 | 4:21.54 | 181004 | 200632
10 | 44:35.08 | 4:30.31 | 200633 | 220913


Range status and errors

Selected range

Filename C:\Users\Alex\Desktop\ALLexxess\David Bowie\2018 Loving The Alien (11CD Box Set Parlophone Records)\1987 Never Let Me Down\David Bowie - Never Let Me Down.wav

Peak level 96.6 %
Extraction speed 6.7 X
Range quality 99.9 %
Test CRC 56973991
Copy CRC 56973991
Copy OK

No errors occurred


AccurateRip summary

Track 1 accurately ripped (confidence 13) [778667CA] (AR v2)
Track 2 accurately ripped (confidence 13) [2FA9E0C3] (AR v2)
Track 3 accurately ripped (confidence 13) [C09AF895] (AR v2)
Track 4 accurately ripped (confidence 13) [DFC38BD4] (AR v2)
Track 5 accurately ripped (confidence 13) [7A3D5D5F] (AR v2)
Track 6 accurately ripped (confidence 13) [B51C6049] (AR v2)
Track 7 accurately ripped (confidence 13) [84B83C14] (AR v2)
Track 8 accurately ripped (confidence 13) [CD5D7885] (AR v2)
Track 9 accurately ripped (confidence 13) [D9C258B5] (AR v2)
Track 10 accurately ripped (confidence 13) [D47CEF08] (AR v2)

All tracks accurately ripped

End of status report

–– CUETools DB Plugin V2.1.6

[CTDB TOCID: 3beI7PvjDREo0kHaGPwWCDC3D28-] found
Submit result: 3beI7PvjDREo0kHaGPwWCDC3D28- has been confirmed
Track | CTDB Status
1 | (67/68) Accurately ripped
2 | (67/68) Accurately ripped
3 | (67/68) Accurately ripped
4 | (67/68) Accurately ripped
5 | (67/68) Accurately ripped
6 | (67/68) Accurately ripped
7 | (67/68) Accurately ripped
8 | (67/68) Accurately ripped
9 | (67/68) Accurately ripped
10 | (67/68) Accurately ripped


==== Log checksum 4C79E55A3255BA95AEC32F33EBB5773902E0F0637EB2C17C85DC028D6BF98442 ====


[CUETools log; Date: 13.12.2018 23:11:25; Version: 2.1.4]
[AccurateRip ID: 0012e1ca-0096aadd-6a0b810a] found.
Track [ CRC | V2 ] Status
01 [2a1a9f16|778667ca] (00+13/13) Accurately ripped
02 [69c97751|2fa9e0c3] (00+13/13) Accurately ripped
03 [d67dffff|c09af895] (00+13/13) Accurately ripped
04 [0f406283|dfc38bd4] (00+13/13) Accurately ripped
05 [a4235d1b|7a3d5d5f] (00+13/13) Accurately ripped
06 [854bcf04|b51c6049] (00+13/13) Accurately ripped
07 [eb2127d5|84b83c14] (00+13/13) Accurately ripped
08 [681469dd|cd5d7885] (00+13/13) Accurately ripped
09 [25c36ad1|d9c258b5] (00+13/13) Accurately ripped
10 [7caedf54|d47cef08] (00+13/13) Accurately ripped

Track Peak [ CRC32 ] [W/O NULL] [ LOG ]
– 96,6 [56973991] [139D100D] CRC32
01 96,6 [96D28C13] [4D81C129]
02 96,6 [F5E8E2B0] [8806A0BE]
03 96,6 [8DC7523C] [12324478]
04 96,6 [1473C3FF] [CB73A1DE]
05 96,6 [381B1007] [29C76148]
06 96,6 [8BA61927] [4D6F6C2F]
07 96,6 [6A71A73D] [E1A60A0D]
08 96,6 [8A613B2F] [6B9A52D0]
09 96,6 [9DC31E9C] [3B57CB37]
10 96,6 [ACC55A78] [864AD7DF]


David Bowie - Loving The Alien (1983-1988) [2018, 11CD Box Set] Re-up

Tracklist CD06 - 1987 Never Let Me Down (2018):

01 Day-In Day-Out
02 Time Will Crawl
03 Beat Of Your Drum
04 Never Let Me Down
05 Zeroes
06 Glass Spider
07 Shining Star (Makin' My Love)
08 New York's In Love
09 '87 And Cry
10 Bang Bang

Exact Audio Copy V1.3 from 2. September 2016

EAC extraction logfile from 7. December 2018, 17:03

David Bowie / Never Let Me Down 2018

Used drive : PLEXTOR BD-R PX-B950SA Adapter: 1 ID: 1

Read mode : Secure
Utilize accurate stream : Yes
Defeat audio cache : Yes
Make use of C2 pointers : No

Read offset correction : 6
Overread into Lead-In and Lead-Out : No
Fill up missing offset samples with silence : Yes
Delete leading and trailing silent blocks : No
Null samples used in CRC calculations : Yes
Used interface : Native Win32 interface for Win NT & 2000

Used output format : Internal WAV Routines
Sample format : 44.100 Hz; 16 Bit; Stereo


TOC of the extracted CD

Track | Start | Length | Start sector | End sector
––––––––––––––––––––––––––––-
1 | 0:00.00 | 5:26.50 | 0 | 24499
2 | 5:26.50 | 4:26.05 | 24500 | 44454
3 | 9:52.55 | 5:27.50 | 44455 | 69029
4 | 15:20.30 | 4:26.20 | 69030 | 88999
5 | 19:46.50 | 5:06.64 | 89000 | 112013
6 | 24:53.39 | 6:53.69 | 112014 | 143057
7 | 31:47.33 | 5:32.00 | 143058 | 167957
8 | 37:19.33 | 4:33.17 | 167958 | 188449
9 | 41:52.50 | 4:25.21 | 188450 | 208345
10 | 46:17.71 | 4:42.58 | 208346 | 229553


Range status and errors

Selected range

Filename C:\Users\Alex\Desktop\ALLexxess\David Bowie\2018 Loving The Alien (11CD Box Set Parlophone Records)\1987 Never Let Me Down 2018\David Bowie - Never Let Me Down 2018.wav

Peak level 98.0 %
Extraction speed 6.7 X
Range quality 99.9 %
Test CRC A0E129EC
Copy CRC A0E129EC
Copy OK

No errors occurred


AccurateRip summary

Track 1 accurately ripped (confidence 16) [8DA8D867] (AR v2)
Track 2 accurately ripped (confidence 16) [3797472A] (AR v2)
Track 3 accurately ripped (confidence 16) [2563E442] (AR v2)
Track 4 accurately ripped (confidence 16) [254F4625] (AR v2)
Track 5 accurately ripped (confidence 16) [6BCAE6D8] (AR v2)
Track 6 accurately ripped (confidence 16) [B92358E0] (AR v2)
Track 7 accurately ripped (confidence 16) [80495E72] (AR v2)
Track 8 accurately ripped (confidence 16) [A03927DC] (AR v2)
Track 9 accurately ripped (confidence 16) [4CFADE27] (AR v2)
Track 10 accurately ripped (confidence 16) [A3EB036F] (AR v2)

All tracks accurately ripped

End of status report

–– CUETools DB Plugin V2.1.6

[CTDB TOCID: sHGBbC1EV3h0NiljCc9l1f62tss-] found
Submit result: sHGBbC1EV3h0NiljCc9l1f62tss- has been confirmed
Track | CTDB Status
1 | (72/73) Accurately ripped
2 | (72/73) Accurately ripped
3 | (72/73) Accurately ripped
4 | (72/73) Accurately ripped
5 | (72/73) Accurately ripped
6 | (72/73) Accurately ripped
7 | (72/73) Accurately ripped
8 | (72/73) Accurately ripped
9 | (72/73) Accurately ripped
10 | (72/73) Accurately ripped


==== Log checksum 47BE0E6F071C380BBA494DFD6C0AB457B2F3923AE68C3CD6336B791DF643F2EC ====


[CUETools log; Date: 13.12.2018 23:13:38; Version: 2.1.4]
[AccurateRip ID: 001379cd-009c065c-940bf40a] found.
Track [ CRC | V2 ] Status
01 [f7bd01de|8da8d867] (00+16/16) Accurately ripped
02 [abf2609e|3797472a] (00+16/16) Accurately ripped
03 [675ba524|2563e442] (00+16/16) Accurately ripped
04 [cbd67e95|254f4625] (00+16/16) Accurately ripped
05 [5991a9d2|6bcae6d8] (00+16/16) Accurately ripped
06 [2a8c59b5|b92358e0] (00+16/16) Accurately ripped
07 [d10b6f47|80495e72] (00+16/16) Accurately ripped
08 [9929956e|a03927dc] (00+16/16) Accurately ripped
09 [af3728aa|4cfade27] (00+16/16) Accurately ripped
10 [58e25ad4|a3eb036f] (00+16/16) Accurately ripped

Track Peak [ CRC32 ] [W/O NULL] [ LOG ]
– 98,0 [A0E129EC] [6454A852] CRC32
01 95,8 [0D5ABDCF] [8C562861]
02 95,0 [E794DD22] [963CE414]
03 97,4 [2A38371F] [8B0BEE30]
04 95,1 [DBAD7762] [34A9FB4D]
05 96,3 [F9B9277B] [951699EC]
06 95,9 [0FB44FEA] [713042D8]
07 94,1 [CEE8E6FF] [D4EE281C]
08 84,4 [98FE03F6] [1EFFCA8E]
09 98,0 [5770DADE] [F8AF37D5]
10 94,9 [6BF9BE41] [22939970]


David Bowie - Loving The Alien (1983-1988) [2018, 11CD Box Set] Re-up

Tracklist CD07-08 - 1987 Glass Spider (Live Montreal '87):

01 Up The Hill Backwards
02 Glass Spider
03 Day-In Day-Out
04 Bang Bang
05 Absolute Beginners
06 Loving The Alien
07 China Girl
08 Rebel Rebel
09 Fashion
10 Scary Monsters (And Super Creeps)
11 All The Madmen
12 Never Let Me Down

Exact Audio Copy V1.3 from 2. September 2016

EAC extraction logfile from 6. December 2018, 21:02

David Bowie / Glass Spider CD1

Used drive : PLEXTOR BD-R PX-B950SA Adapter: 1 ID: 1

Read mode : Secure
Utilize accurate stream : Yes
Defeat audio cache : Yes
Make use of C2 pointers : No

Read offset correction : 6
Overread into Lead-In and Lead-Out : No
Fill up missing offset samples with silence : Yes
Delete leading and trailing silent blocks : No
Null samples used in CRC calculations : Yes
Used interface : Native Win32 interface for Win NT & 2000

Used output format : Internal WAV Routines
Sample format : 44.100 Hz; 16 Bit; Stereo


TOC of the extracted CD

Track | Start | Length | Start sector | End sector
––––––––––––––––––––––––––––-
1 | 0:00.00 | 3:51.64 | 0 | 17388
2 | 3:51.64 | 5:55.38 | 17389 | 44051
3 | 9:47.27 | 4:34.21 | 44052 | 64622
4 | 14:21.48 | 4:02.12 | 64623 | 82784
5 | 18:23.60 | 7:08.50 | 82785 | 114934
6 | 25:32.35 | 7:14.73 | 114935 | 147557
7 | 32:47.33 | 4:55.12 | 147558 | 169694
8 | 37:42.45 | 3:30.31 | 169695 | 185475
9 | 41:13.01 | 5:04.40 | 185476 | 208315
10 | 46:17.41 | 4:52.63 | 208316 | 230278
11 | 51:10.29 | 6:39.22 | 230279 | 260225
12 | 57:49.51 | 3:56.12 | 260226 | 277937


Range status and errors

Selected range

Filename C:\Users\Alex\Desktop\ALLexxess\David Bowie\2018 Loving The Alien (11CD Box Set Parlophone Records)\1987 Glass Spider 2CD\CD1\David Bowie - Glass Spider CD1.wav

Peak level 98.2 %
Extraction speed 7.3 X
Range quality 100.0 %
Test CRC 7B7B380A
Copy CRC 7B7B380A
Copy OK

No errors occurred


AccurateRip summary

Track 1 accurately ripped (confidence 14) [4E217C98] (AR v2)
Track 2 accurately ripped (confidence 14) [D4D9585C] (AR v2)
Track 3 accurately ripped (confidence 14) [D5045A6B] (AR v2)
Track 4 accurately ripped (confidence 14) [1851F46A] (AR v2)
Track 5 accurately ripped (confidence 14) [B7D6FED1] (AR v2)
Track 6 accurately ripped (confidence 14) [87A6BE37] (AR v2)
Track 7 accurately ripped (confidence 14) [A9E165C7] (AR v2)
Track 8 accurately ripped (confidence 14) [CF6EC65F] (AR v2)
Track 9 accurately ripped (confidence 14) [4839C5ED] (AR v2)
Track 10 accurately ripped (confidence 14) [0013F93C] (AR v2)
Track 11 accurately ripped (confidence 14) [87D95CD3] (AR v2)
Track 12 accurately ripped (confidence 14) [1B4195F3] (AR v2)

All tracks accurately ripped

End of status report

–– CUETools DB Plugin V2.1.6

[CTDB TOCID: 8I8.67fnVd3gKOz0MV0uKWkQEiY-] found
Submit result: 8I8.67fnVd3gKOz0MV0uKWkQEiY- has been confirmed
Track | CTDB Status
1 | (66/66) Accurately ripped
2 | (66/66) Accurately ripped
3 | (66/66) Accurately ripped
4 | (66/66) Accurately ripped
5 | (66/66) Accurately ripped
6 | (66/66) Accurately ripped
7 | (66/66) Accurately ripped
8 | (66/66) Accurately ripped
9 | (66/66) Accurately ripped
10 | (66/66) Accurately ripped
11 | (66/66) Accurately ripped
12 | (66/66) Accurately ripped


==== Log checksum 64EEE82E376B6F2D731078EF0EF5D2E6E5EBBBE925C5B0B5B70F56D794C1C5B5 ====


[CUETools log; Date: 13.12.2018 23:06:57; Version: 2.1.4]
[AccurateRip ID: 001b8408-01027f2f-b20e790c] found.
Track [ CRC | V2 ] Status
01 [96a401d7|4e217c98] (00+14/14) Accurately ripped
02 [a64a648c|d4d9585c] (00+14/14) Accurately ripped
03 [f02c5d53|d5045a6b] (00+14/14) Accurately ripped
04 [e3948173|1851f46a] (00+14/14) Accurately ripped
05 [5c749add|b7d6fed1] (00+14/14) Accurately ripped
06 [0e1c00e6|87a6be37] (00+14/14) Accurately ripped
07 [f33ab8cd|a9e165c7] (00+14/14) Accurately ripped
08 [d9611263|cf6ec65f] (00+14/14) Accurately ripped
09 [2f8fee09|4839c5ed] (00+14/14) Accurately ripped
10 [1a09dd05|0013f93c] (00+14/14) Accurately ripped
11 [7a9af905|87d95cd3] (00+14/14) Accurately ripped
12 [c4e61c24|1b4195f3] (00+14/14) Accurately ripped

Track Peak [ CRC32 ] [W/O NULL] [ LOG ]
– 98,2 [7B7B380A] [6D42E051] CRC32
01 77,7 [8607F4DB] [F8062C2C]
02 95,3 [B5DC315F] [FA39CCF1]
03 98,2 [F006B914] [04C907A9]
04 95,0 [02811619] [FEF7BA27]
05 94,9 [C9BE2768] [6267BDA7]
06 94,6 [9D52D7D4] [62DDA87A]
07 95,1 [8C2A224E] [2FB854A1]
08 95,1 [DBEDF269] [C5732B3C]
09 94,7 [DCBFF876] [018F12D7]
10 94,7 [7FD0E153] [7EABD505]
11 94,6 [3BAD78DA] [91920E4A]
12 94,7 [9E989E9D] [C4E5B309]


01 Big Brother
02 '87 And Cry
03 'Heroes'
04 Sons Of The Silent Age
05 Time Will Crawl / Band Introduction
06 Young Americans
07 Beat Of Your Drum
08 The Jean Genie
09 Let's Dance
10 Fame
11 Time
12 Blue Jean
13 Modern Love

Exact Audio Copy V1.3 from 2. September 2016

EAC extraction logfile from 6. December 2018, 20:29

David Bowie / Glass Spider CD2

Used drive : PLEXTOR BD-R PX-B950SA Adapter: 1 ID: 1

Read mode : Secure
Utilize accurate stream : Yes
Defeat audio cache : Yes
Make use of C2 pointers : No

Read offset correction : 6
Overread into Lead-In and Lead-Out : No
Fill up missing offset samples with silence : Yes
Delete leading and trailing silent blocks : No
Null samples used in CRC calculations : Yes
Used interface : Native Win32 interface for Win NT & 2000

Used output format : Internal WAV Routines
Sample format : 44.100 Hz; 16 Bit; Stereo


TOC of the extracted CD

Track | Start | Length | Start sector | End sector
––––––––––––––––––––––––––––-
1 | 0:00.00 | 4:47.12 | 0 | 21536
2 | 4:47.12 | 4:07.50 | 21537 | 40111
3 | 8:54.62 | 5:10.11 | 40112 | 63372
4 | 14:04.73 | 3:10.02 | 63373 | 77624
5 | 17:15.00 | 5:23.22 | 77625 | 101871
6 | 22:38.22 | 5:06.51 | 101872 | 124872
7 | 27:44.73 | 4:37.38 | 124873 | 145685
8 | 32:22.36 | 5:23.30 | 145686 | 169940
9 | 37:45.66 | 5:01.63 | 169941 | 192578
10 | 42:47.54 | 7:05.14 | 192579 | 224467
11 | 49:52.68 | 5:11.45 | 224468 | 247837
12 | 55:04.38 | 3:26.59 | 247838 | 263346
13 | 58:31.22 | 4:53.24 | 263347 | 285345


Range status and errors

Selected range

Filename C:\Users\Alex\Desktop\ALLexxess\David Bowie\2018 Loving The Alien (11CD Box Set Parlophone Records)\1987 Glass Spider 2CD\CD2\David Bowie - Glass Spider CD2.wav

Peak level 98.0 %
Extraction speed 7.4 X
Range quality 100.0 %
Test CRC 314D8985
Copy CRC 314D8985
Copy OK

No errors occurred


AccurateRip summary

Track 1 accurately ripped (confidence 14) [E6AFEAA9] (AR v2)
Track 2 accurately ripped (confidence 14) [4074F8EF] (AR v2)
Track 3 accurately ripped (confidence 14) [3C7994AA] (AR v2)
Track 4 accurately ripped (confidence 14) [8F832D82] (AR v2)
Track 5 accurately ripped (confidence 14) [718D8A77] (AR v2)
Track 6 accurately ripped (confidence 14) [6CC94666] (AR v2)
Track 7 accurately ripped (confidence 14) [CA2DEBCC] (AR v2)
Track 8 accurately ripped (confidence 14) [79231A23] (AR v2)
Track 9 accurately ripped (confidence 14) [F2CE8D3D] (AR v2)
Track 10 accurately ripped (confidence 14) [C67E951E] (AR v2)
Track 11 accurately ripped (confidence 14) [90C71F6A] (AR v2)
Track 12 accurately ripped (confidence 14) [A25FA906] (AR v2)
Track 13 accurately ripped (confidence 14) [3772F47F] (AR v2)

All tracks accurately ripped

End of status report

–– CUETools DB Plugin V2.1.6

[CTDB TOCID: H02TUW4o9SMOCa81B4jEfYTAmhM-] found
Submit result: H02TUW4o9SMOCa81B4jEfYTAmhM- has been confirmed
Track | CTDB Status
1 | (66/66) Accurately ripped
2 | (66/66) Accurately ripped
3 | (66/66) Accurately ripped
4 | (66/66) Accurately ripped
5 | (66/66) Accurately ripped
6 | (66/66) Accurately ripped
7 | (66/66) Accurately ripped
8 | (66/66) Accurately ripped
9 | (66/66) Accurately ripped
10 | (66/66) Accurately ripped
11 | (66/66) Accurately ripped
12 | (66/66) Accurately ripped
13 | (66/66) Accurately ripped


==== Log checksum 01330F14D16E8E180D60C4B80434967741C642489AE25BA10DD56760228EA3FE ====


[CUETools log; Date: 13.12.2018 23:09:19; Version: 2.1.4]
[AccurateRip ID: 001de2c5-012db505-c60edc0d] found.
Track [ CRC | V2 ] Status
01 [7d3c0d51|e6afeaa9] (00+14/14) Accurately ripped
02 [a8eadfa7|4074f8ef] (00+14/14) Accurately ripped
03 [c75ea42e|3c7994aa] (00+14/14) Accurately ripped
04 [b5f5e84a|8f832d82] (00+14/14) Accurately ripped
05 [c045f2ab|718d8a77] (00+14/14) Accurately ripped
06 [162a5c93|6cc94666] (00+14/14) Accurately ripped
07 [1cfa868c|ca2debcc] (00+14/14) Accurately ripped
08 [e75449e0|79231a23] (00+14/14) Accurately ripped
09 [7e8fde9f|f2ce8d3d] (00+14/14) Accurately ripped
10 [ae8a0d17|c67e951e] (00+14/14) Accurately ripped
11 [70887df1|90c71f6a] (00+14/14) Accurately ripped
12 [b36cb9fc|a25fa906] (00+14/14) Accurately ripped
13 [f0d121ba|3772f47f] (00+14/14) Accurately ripped

Track Peak [ CRC32 ] [W/O NULL] [ LOG ]
– 98,0 [314D8985] [8D150B0E] CRC32
01 94,9 [0C19B430] [D7571AAA]
02 94,8 [718A8F0F] [3F627871]
03 94,7 [954F674B] [FCD46303]
04 94,6 [DAE1A05A] [ABBCC75D]
05 87,7 [FDED6B90] [AF47E358]
06 94,8 [0117F6E2] [643489FD]
07 95,7 [824BAAE4] [2A8F1C2D]
08 95,1 [71BFB4F1] [431427B3]
09 98,0 [11F4D1EA] [27D3B54C]
10 95,9 [5D5E6A25] [F3CD36F9]
11 94,7 [C731B96D] [34C272AC]
12 94,8 [599307C2] [B6813AE4]
13 89,4 [560EAA2E] [84C5DEFA]


David Bowie - Loving The Alien (1983-1988) [2018, 11CD Box Set] Re-up

Tracklist CD09 - 2018 Dance:

01 Shake It (Re-Mix aka Long Version)
02 Blue Jean (Extended Dance Mix)
03 Dancing With The Big Boys (Extended Dance Mix)
04 Tonight (Vocal Dance Mix)
05 Don't Look Down (Extended Dance Mix)
06 Loving The Alien (Extended Dub Mix)
07 Tumble And Twirl (Extended Dance Mix)
08 Underground (Extended Dance Mix)
09 Day-In Day-Out (Groucho Mix)
10 Time Will Crawl (Dance Crew Mix)
11 Shining Star (12'' Mix)
12 Never Let Me Down (Dub / Acapella)

Exact Audio Copy V1.3 from 2. September 2016

EAC extraction logfile from 6. December 2018, 19:48

David Bowie / Dance

Used drive : PLEXTOR BD-R PX-B950SA Adapter: 1 ID: 1

Read mode : Secure
Utilize accurate stream : Yes
Defeat audio cache : Yes
Make use of C2 pointers : No

Read offset correction : 6
Overread into Lead-In and Lead-Out : No
Fill up missing offset samples with silence : Yes
Delete leading and trailing silent blocks : No
Null samples used in CRC calculations : Yes
Used interface : Native Win32 interface for Win NT & 2000

Used output format : Internal WAV Routines
Sample format : 44.100 Hz; 16 Bit; Stereo


TOC of the extracted CD

Track | Start | Length | Start sector | End sector
––––––––––––––––––––––––––––-
1 | 0:00.00 | 5:21.60 | 0 | 24134
2 | 5:21.60 | 5:20.64 | 24135 | 48198
3 | 10:42.49 | 7:31.14 | 48199 | 82037
4 | 18:13.63 | 4:31.21 | 82038 | 102383
5 | 22:45.09 | 4:55.36 | 102384 | 124544
6 | 27:40.45 | 7:15.11 | 124545 | 157180
7 | 34:55.56 | 5:05.49 | 157181 | 180104
8 | 40:01.30 | 7:54.34 | 180105 | 215688
9 | 47:55.64 | 6:28.10 | 215689 | 244798
10 | 54:23.74 | 5:34.34 | 244799 | 269882
11 | 59:58.33 | 6:27.60 | 269883 | 298967
12 | 66:26.18 | 6:02.72 | 298968 | 326189


Range status and errors

Selected range

Filename C:\Users\Alex\Desktop\ALLexxess\David Bowie\2018 Loving The Alien (11CD Box Set Parlophone Records)\2018 Dance\David Bowie - Dance.wav

Peak level 97.7 %
Extraction speed 8.0 X
Range quality 99.9 %
Test CRC 72C8344B
Copy CRC 72C8344B
Copy OK

No errors occurred


AccurateRip summary

Track 1 accurately ripped (confidence 15) [ED62477E] (AR v2)
Track 2 accurately ripped (confidence 15) [A3DC1819] (AR v2)
Track 3 accurately ripped (confidence 15) [A2F0D42B] (AR v2)
Track 4 accurately ripped (confidence 15) [B1CA02D7] (AR v2)
Track 5 accurately ripped (confidence 15) [8DB01A91] (AR v2)
Track 6 accurately ripped (confidence 15) [206188DE] (AR v2)
Track 7 accurately ripped (confidence 15) [448E8243] (AR v2)
Track 8 accurately ripped (confidence 15) [75F54AAE] (AR v2)
Track 9 accurately ripped (confidence 15) [18E2CF21] (AR v2)
Track 10 accurately ripped (confidence 15) [BA6A1DBA] (AR v2)
Track 11 accurately ripped (confidence 15) [34AF5E45] (AR v2)
Track 12 accurately ripped (confidence 15) [F13CC028] (AR v2)

All tracks accurately ripped

End of status report

–– CUETools DB Plugin V2.1.6

[CTDB TOCID: Vh_GiRwfQeUWFZaOS6gFlFDqux8-] found
Submit result: Vh_GiRwfQeUWFZaOS6gFlFDqux8- has been confirmed
Track | CTDB Status
1 | (64/65) Accurately ripped
2 | (64/65) Accurately ripped
3 | (64/65) Accurately ripped
4 | (64/65) Accurately ripped
5 | (64/65) Accurately ripped
6 | (64/65) Accurately ripped
7 | (64/65) Accurately ripped
8 | (64/65) Accurately ripped
9 | (64/65) Accurately ripped
10 | (64/65) Accurately ripped
11 | (64/65) Accurately ripped
12 | (64/65) Accurately ripped


==== Log checksum F210B88475C1A64C76CAFD634837F5E3C701D556F01FED2187C017CD782F7C69 ====


[CUETools log; Date: 13.12.2018 23:16:55; Version: 2.1.4]
[AccurateRip ID: 001fa604-0129a86b-af10fd0c] found.
Track [ CRC | V2 ] Status
01 [15082aa2|ed62477e] (00+15/15) Accurately ripped
02 [1ecddcd5|a3dc1819] (00+15/15) Accurately ripped
03 [98637aa6|a2f0d42b] (00+15/15) Accurately ripped
04 [54f81891|b1ca02d7] (00+15/15) Accurately ripped
05 [ff50f452|8db01a91] (00+15/15) Accurately ripped
06 [569cf68a|206188de] (00+15/15) Accurately ripped
07 [52036207|448e8243] (00+15/15) Accurately ripped
08 [eaedd3ee|75f54aae] (00+15/15) Accurately ripped
09 [f480b1ab|18e2cf21] (00+15/15) Accurately ripped
10 [073d8ba6|ba6a1dba] (00+15/15) Accurately ripped
11 [f1607c5d|34af5e45] (00+15/15) Accurately ripped
12 [e9f7aa68|f13cc028] (00+15/15) Accurately ripped

Track Peak [ CRC32 ] [W/O NULL] [ LOG ]
– 97,7 [72C8344B] [52D48991] CRC32
01 97,7 [99BEE5B1] [B4930990]
02 97,7 [2AFBFFDC] [C238A9AE]
03 97,7 [30F74996] [7356FFE8]
04 97,7 [0ECFC922] [353C12DA]
05 97,7 [8C89FD90] [E1A8AD30]
06 97,7 [C18FA68F] [744FFE63]
07 97,7 [AEA9355E] [E64D1E54]
08 97,7 [ACB44FCA] [6E90381D]
09 97,7 [3C4C053A] [F7B0AEDE]
10 97,7 [4311032D] [A44289BD]
11 97,7 [3A618E8F] [5CB97C3A]
12 97,7 [0C5F8C29] [0956D082]


David Bowie - Loving The Alien (1983-1988) [2018, 11CD Box Set] Re-up

Tracklist CD10-11 - 2018 Re:Call 4 2CD:

01 Let's Dance (Single Version)
02 China Girl (Single Version)
03 Modern Love (Single Version)
04 This Is Not America (The Theme From 'The Falcon And The Snowman') - David Bowie / The Pat Metheny Group
05 Loving The Alien (Re-Mixed Version)
06 Don't Look Down (Re-Mixed Version)
07 Dancing In The Street (Clearmountain Mix) - David Bowie And Mick Jagger
08 Absolute Beginners
09 That's Motivation
10 Volare
11 Labyrinth Opening Titles / Underground
12 Magic Dance
13 As The World Falls Down
14 Within You
15 Underground

Exact Audio Copy V1.3 from 2. September 2016

EAC extraction logfile from 5. December 2018, 19:03

David Bowie / Re:Call 4 CD1

Used drive : PLEXTOR BD-R PX-B950SA Adapter: 1 ID: 1

Read mode : Secure
Utilize accurate stream : Yes
Defeat audio cache : Yes
Make use of C2 pointers : No

Read offset correction : 6
Overread into Lead-In and Lead-Out : No
Fill up missing offset samples with silence : Yes
Delete leading and trailing silent blocks : No
Null samples used in CRC calculations : Yes
Used interface : Native Win32 interface for Win NT & 2000

Used output format : Internal WAV Routines
Sample format : 44.100 Hz; 16 Bit; Stereo


TOC of the extracted CD

Track | Start | Length | Start sector | End sector
––––––––––––––––––––––––––––-
1 | 0:00.00 | 4:09.54 | 0 | 18728
2 | 4:09.54 | 4:17.28 | 18729 | 38031
3 | 8:27.07 | 3:59.33 | 38032 | 55989
4 | 12:26.40 | 3:51.34 | 55990 | 73348
5 | 16:17.74 | 4:43.46 | 73349 | 94619
6 | 21:01.45 | 4:06.02 | 94620 | 113071
7 | 25:07.47 | 3:11.45 | 113072 | 127441
8 | 28:19.17 | 8:04.18 | 127442 | 163759
9 | 36:23.35 | 4:19.03 | 163760 | 183187
10 | 40:42.38 | 3:15.55 | 183188 | 197867
11 | 43:58.18 | 3:20.18 | 197868 | 212885
12 | 47:18.36 | 4:14.25 | 212886 | 231960
13 | 51:32.61 | 4:51.06 | 231961 | 253791
14 | 56:23.67 | 3:29.69 | 253792 | 269535
15 | 59:53.61 | 5:57.39 | 269536 | 296349


Range status and errors

Selected range

Filename C:\Users\Alex\Desktop\ALLexxess\David Bowie\2018 Loving The Alien (11CD Box Set Parlophone Records)\2018 ReCall 4 2CD\CD1\David Bowie - ReCall 4 CD1.wav

Peak level 97.7 %
Extraction speed 7.5 X
Range quality 100.0 %
Test CRC 5354C0B6
Copy CRC 5354C0B6
Copy OK

No errors occurred


AccurateRip summary

Track 1 accurately ripped (confidence 16) [CDF68D9C] (AR v2)
Track 2 accurately ripped (confidence 16) [8AB3E36F] (AR v2)
Track 3 accurately ripped (confidence 16) [28E23A10] (AR v2)
Track 4 accurately ripped (confidence 16) [EDE08E4A] (AR v2)
Track 5 accurately ripped (confidence 16) [A1BFC82D] (AR v2)
Track 6 accurately ripped (confidence 16) [DCD33749] (AR v2)
Track 7 accurately ripped (confidence 16) [26ED7519] (AR v2)
Track 8 accurately ripped (confidence 16) [D0AD027B] (AR v2)
Track 9 accurately ripped (confidence 16) [7D7CD1E1] (AR v2)
Track 10 accurately ripped (confidence 16) [BA48713F] (AR v2)
Track 11 accurately ripped (confidence 16) [C9BA9018] (AR v2)
Track 12 accurately ripped (confidence 16) [FA9C2198] (AR v2)
Track 13 accurately ripped (confidence 16) [D88B80E7] (AR v2)
Track 14 accurately ripped (confidence 16) [582AAAAC] (AR v2)
Track 15 accurately ripped (confidence 16) [51E31DDA] (AR v2)

All tracks accurately ripped

End of status report

–– CUETools DB Plugin V2.1.6

[CTDB TOCID: y1Voyo4wN9Qmq2ZyHc_fyecYMj0-] found
Submit result: y1Voyo4wN9Qmq2ZyHc_fyecYMj0- has been confirmed
Track | CTDB Status
1 | (63/64) Accurately ripped
2 | (62/64) Accurately ripped
3 | (62/64) Accurately ripped
4 | (62/64) Accurately ripped
5 | (62/64) Accurately ripped
6 | (62/64) Accurately ripped
7 | (62/64) Accurately ripped
8 | (62/64) Accurately ripped
9 | (62/64) Accurately ripped
10 | (62/64) Accurately ripped
11 | (62/64) Accurately ripped
12 | (62/64) Accurately ripped
13 | (62/64) Accurately ripped
14 | (62/64) Accurately ripped
15 | (62/64) Accurately ripped


==== Log checksum EF4D75868C298E911566931D9AC09A59B22A49A73C5C9D30CF899B2FCF89D5AF ====


[CUETools log; Date: 13.12.2018 23:19:52; Version: 2.1.4]
[AccurateRip ID: 00238fcf-01948725-d90f6f0f] found.
Track [ CRC | V2 ] Status
01 [5d0980a7|cdf68d9c] (00+16/16) Accurately ripped
02 [61eeaf49|8ab3e36f] (00+16/16) Accurately ripped
03 [2aaf2837|28e23a10] (00+16/16) Accurately ripped
04 [1180cdd1|ede08e4a] (00+16/16) Accurately ripped
05 [c2356f95|a1bfc82d] (00+16/16) Accurately ripped
06 [051c8759|dcd33749] (00+16/16) Accurately ripped
07 [0cc40ed0|26ed7519] (00+16/16) Accurately ripped
08 [fffc74eb|d0ad027b] (00+16/16) Accurately ripped
09 [251fef30|7d7cd1e1] (00+16/16) Accurately ripped
10 [4aedc629|ba48713f] (00+16/16) Accurately ripped
11 [ef2f13be|c9ba9018] (00+16/16) Accurately ripped
12 [87b6c02c|fa9c2198] (00+16/16) Accurately ripped
13 [8a1d9f54|d88b80e7] (00+16/16) Accurately ripped
14 [90386b41|582aaaac] (00+16/16) Accurately ripped
15 [ab2c4ac9|51e31dda] (00+16/16) Accurately ripped

Track Peak [ CRC32 ] [W/O NULL] [ LOG ]
– 97,7 [5354C0B6] [BC1375FD] CRC32
01 97,7 [B172FC54] [CE9314AA]
02 97,7 [2A1D0CB9] [3D735B06]
03 97,7 [5D083A6C] [7B718BDD]
04 82,6 [7AC56F18] [F09C4615]
05 96,6 [D0510380] [013A6160]
06 97,7 [33E5A2A4] [26D95BA1]
07 92,0 [AE9EA122] [431EF9D4]
08 97,0 [1E3F632B] [D9B0E205]
09 97,0 [77F8D007] [773B091E]
10 83,8 [2914207A] [AFCC4740]
11 86,9 [A6E0C609] [3DE477BB]
12 65,4 [F79022C3] [178CA45A]
13 62,8 [AB81832E] [00B67966]
14 61,4 [B23BCC42] [BFEB41D4]
15 62,7 [AA7A9E8F] [B6A819B2]


01 When The Wind Blows (Single Version)
02 Day-In Day-Out (Single Version)
03 Julie
04 Beat Of Your Drum (Vinyl Album Edit)
05 Glass Spider (Vinyl Album Edit)
06 Shining Star (Makin' My Love) (Vinyl Album Edit)
07 New York's In Love (Vinyl Album Edit)
08 '87 And Cry (Vinyl Album Edit)
09 Bang Bang (Vinyl Album Edit)
10 Time Will Crawl (Single Version)
11 Girls (Extended Edit)
12 Never Let Me Down (7'' Remix)
13 Bang Bang (Live Promotional Mix)
14 Tonight / Live (with David Bowie) - Tina Turner
15 Let's Dance / Live (with David Bowie) - Tina Turner

Exact Audio Copy V1.3 from 2. September 2016

EAC extraction logfile from 5. December 2018, 18:31

David Bowie / Re:Call 4 CD2

Used drive : PLEXTOR BD-R PX-B950SA Adapter: 1 ID: 1

Read mode : Secure
Utilize accurate stream : Yes
Defeat audio cache : Yes
Make use of C2 pointers : No

Read offset correction : 6
Overread into Lead-In and Lead-Out : No
Fill up missing offset samples with silence : Yes
Delete leading and trailing silent blocks : No
Null samples used in CRC calculations : Yes
Used interface : Native Win32 interface for Win NT & 2000

Used output format : Internal WAV Routines
Sample format : 44.100 Hz; 16 Bit; Stereo


TOC of the extracted CD

Track | Start | Length | Start sector | End sector
––––––––––––––––––––––––––––-
1 | 0:00.00 | 3:35.00 | 0 | 16124
2 | 3:35.00 | 4:14.34 | 16125 | 35208
3 | 7:49.34 | 3:43.04 | 35209 | 51937
4 | 11:32.38 | 4:34.66 | 51938 | 72553
5 | 16:07.29 | 4:56.42 | 72554 | 94795
6 | 21:03.71 | 4:06.63 | 94796 | 113308
7 | 25:10.59 | 3:59.02 | 113309 | 131235
8 | 29:09.61 | 3:55.32 | 131236 | 148892
9 | 33:05.18 | 4:02.64 | 148893 | 167106
10 | 37:08.07 | 4:03.72 | 167107 | 185403
11 | 41:12.04 | 5:34.46 | 185404 | 210499
12 | 46:46.50 | 3:59.62 | 210500 | 228486
13 | 50:46.37 | 4:07.59 | 228487 | 247070
14 | 54:54.21 | 4:19.50 | 247071 | 266545
15 | 59:13.71 | 3:25.61 | 266546 | 281981


Range status and errors

Selected range

Filename C:\Users\Alex\Desktop\ALLexxess\David Bowie\2018 Loving The Alien (11CD Box Set Parlophone Records)\2018 ReCall 4 2CD\CD2\David Bowie - ReCall 4 CD2.wav

Peak level 96.6 %
Extraction speed 7.6 X
Range quality 100.0 %
Test CRC EBBEE7D5
Copy CRC EBBEE7D5
Copy OK

No errors occurred


AccurateRip summary

Track 1 accurately ripped (confidence 15) [949C1C6C] (AR v2)
Track 2 accurately ripped (confidence 15) [4F1D5243] (AR v2)
Track 3 accurately ripped (confidence 15) [475BFED4] (AR v2)
Track 4 accurately ripped (confidence 15) [7767819E] (AR v2)
Track 5 accurately ripped (confidence 15) [DA4CF303] (AR v2)
Track 6 accurately ripped (confidence 15) [E1A0015D] (AR v2)
Track 7 accurately ripped (confidence 15) [1C54DF23] (AR v2)
Track 8 accurately ripped (confidence 15) [4876B173] (AR v2)
Track 9 accurately ripped (confidence 15) [09F4F1CE] (AR v2)
Track 10 accurately ripped (confidence 15) [1D28632D] (AR v2)
Track 11 accurately ripped (confidence 15) [C7EFD2E2] (AR v2)
Track 12 accurately ripped (confidence 15) [7D773A3D] (AR v2)
Track 13 accurately ripped (confidence 15) [05001BF5] (AR v2)
Track 14 accurately ripped (confidence 15) [3DE6DF72] (AR v2)
Track 15 accurately ripped (confidence 15) [7443D79C] (AR v2)

All tracks accurately ripped

End of status report

–– CUETools DB Plugin V2.1.6

[CTDB TOCID: EGY0I_rd9qK6rI_rvN.7EB_4Crk-] found
Submit result: EGY0I_rd9qK6rI_rvN.7EB_4Crk- has been confirmed
Track | CTDB Status
1 | (63/64) Accurately ripped
2 | (63/64) Accurately ripped
3 | (63/64) Accurately ripped
4 | (63/64) Accurately ripped
5 | (63/64) Accurately ripped
6 | (63/64) Accurately ripped
7 | (63/64) Accurately ripped
8 | (63/64) Accurately ripped
9 | (63/64) Accurately ripped
10 | (63/64) Accurately ripped
11 | (63/64) Accurately ripped
12 | (63/64) Accurately ripped
13 | (63/64) Accurately ripped
14 | (63/64) Accurately ripped
15 | (63/64) Accurately ripped


==== Log checksum E706B2006DE725CABEBBC85871910152095E231FB96ED4AD42660B366E115BCD ====


[CUETools log; Date: 13.12.2018 23:23:34; Version: 2.1.4]
[AccurateRip ID: 00225995-01872ca5-e00eaf0f] found.
Track [ CRC | V2 ] Status
01 [31da6d38|949c1c6c] (00+15/15) Accurately ripped
02 [f6921d62|4f1d5243] (00+15/15) Accurately ripped
03 [691738e6|475bfed4] (00+15/15) Accurately ripped
04 [ebf4c031|7767819e] (00+15/15) Accurately ripped
05 [26d22ae3|da4cf303] (00+15/15) Accurately ripped
06 [967b9319|e1a0015d] (00+15/15) Accurately ripped
07 [7fc5f347|1c54df23] (00+15/15) Accurately ripped
08 [c461a56c|4876b173] (00+15/15) Accurately ripped
09 [9d6ea11b|09f4f1ce] (00+15/15) Accurately ripped
10 [41c765c2|1d28632d] (00+15/15) Accurately ripped
11 [c1f34a68|c7efd2e2] (00+15/15) Accurately ripped
12 [4179b0e4|7d773a3d] (00+15/15) Accurately ripped
13 [ba40327a|05001bf5] (00+15/15) Accurately ripped
14 [50a21dbc|3de6df72] (00+15/15) Accurately ripped
15 [cf17eef1|7443d79c] (00+15/15) Accurately ripped

Track Peak [ CRC32 ] [W/O NULL] [ LOG ]
– 96,6 [EBBEE7D5] [FBA18FAD] CRC32
01 96,6 [16B17239] [D81C63CE]
02 96,6 [F5811CEF] [C9BDE8E9]
03 96,6 [63BB8299] [DF99B3E0]
04 96,6 [25A0A0A0] [327E4BA3]
05 96,6 [8FC2F27C] [CBF79C54]
06 96,6 [0EF3AD2B] [D279F89B]
07 96,6 [DD28F538] [151070DF]
08 96,6 [B8181C32] [0EAC09C3]
09 96,6 [8EDA956A] [B8CF5BE4]
10 96,6 [C715F111] [5FB91782]
11 96,6 [42EAE379] [44E3A529]
12 96,6 [7B244235] [AB0AF08A]
13 96,6 [FBDD3E62] [CF2282E8]
14 85,3 [98F999B0] [303EBB88]
15 96,6 [4588EBFA] [DCBE8D4E]


All thanks go to ALLexxess

David Bowie in my Blog

Download David Bowie - Loving The Alien (1983-1988):