Subcategories

David Bowie - The Man Who Sold The World (1970) [EMI TOCP-95042, Japan]

Posted By: v3122
David Bowie - The Man Who Sold The World (1970) [EMI TOCP-95042, Japan]

David Bowie - The Man Who Sold The World (1970)
XLD | Flac(Image) + Cue + Log & MP3 CBR 320Kbps
2009 | EMI TOCP-95042 | ~ 287 or 99 Mb | Scans(jpg) -> 8.06 Mb
Rock, Experimental, Glam

Even though it contained no hits, The Man Who Sold the World, for most intents and purposes, was the beginning of David Bowie's classic period. Working with guitarist Mick Ronson and producer Tony Visconti for the second time Bowie developed a tight, twisted heavy guitar rock that appears simple on the surface but sounds more gnarled upon each listen. The mix is off-center, with the fuzz-bass dominating the compressed, razor-thin guitars and Bowie's strangled, affected voice. The sound of The Man Who Sold the World is odd, but the music itself is bizarre, with Bowie's weird, paranoid futuristic tales melded to Ronson's riffing and the band's relentless attack. Musically, there isn't much innovation on The Man Who Sold the World – it is almost all hard blues-rock or psychedelic folk-rock – but there's an unsettling edge to the band's performance, which makes the record one of Bowie's best albums.

by Stephen Thomas Erlewine, allmusic
David Bowie - The Man Who Sold The World (1970):

David Bowie - The Man Who Sold The World (1970) [EMI TOCP-95042, Japan]

Tracklist:

1. THE WIDTH OF A CIRCLE
2. ALL THE MADMEN
3. BLACK COUNTRY ROCK
4. AFTER ALL
5. RUNNING GUN BLUES
6. SAVIOUR MACHINE
7. SHE SHOOK ME COLD
8. THE MAN WHO SOLD THE WORLD
9. THE SUPERMEN

X Lossless Decoder version 20100302 (116.6)

XLD extraction logfile from 2010-03-09 19:40:14 +0500

David Bowie / The Man Who Sold The World

Used drive : OPTIARC DVD RW AD-5670S (revision 2AHH)

Use cdparanoia mode : YES (CDParanoia III 10.2 engine)
Disable audio cache : OK for the drive with cache less than 2750KB
Make use of C2 pointers : NO
Read offset correction : 48
Max retry count : 100

TOC of the extracted CD
Track | Start | Length | Start sector | End sector
––––––––––––––––––––––––––––-
1 | 00:00:00 | 08:08:58 | 0 | 36657
2 | 08:08:58 | 05:40:62 | 36658 | 62219
3 | 13:49:45 | 03:36:05 | 62220 | 78424
4 | 17:25:50 | 03:55:35 | 78425 | 96084
5 | 21:21:10 | 03:15:10 | 96085 | 110719
6 | 24:36:20 | 04:28:55 | 110720 | 130874
7 | 29:05:00 | 04:16:45 | 130875 | 150119
8 | 33:21:45 | 03:59:70 | 150120 | 168114
9 | 37:21:40 | 03:40:10 | 168115 | 184624


Track 01
Filename : /Users/gubarenko/Desktop/David Bowie - The Man Who Sold The World/01 - The Width Of A Circle.flac

Pre-gap length : 00:02:00

CRC32 hash (test run) : 5A732CDE
CRC32 hash : 5A732CDE
CRC32 hash (skip zero) : F992F730
AccurateRip signature : CE6DAA2C
->Accurately ripped! (confidence 1)
Statistics
Read error : 0
Skipped (treated as error) : 0
Edge jitter error (maybe fixed) : 0
Atom jitter error (maybe fixed) : 0
Drift error (maybe fixed) : 0
Dropped bytes error (maybe fixed) : 0
Duplicated bytes error (maybe fixed) : 0
Inconsistency in error sectors : 0

Track 02
Filename : /Users/gubarenko/Desktop/David Bowie - The Man Who Sold The World/02 - All The Madmen.flac

Pre-gap length : 00:02:34

CRC32 hash (test run) : D4CFB33B
CRC32 hash : D4CFB33B
CRC32 hash (skip zero) : 33BC2D49
AccurateRip signature : 927E4458
->Accurately ripped! (confidence 1)
Statistics
Read error : 0
Skipped (treated as error) : 0
Edge jitter error (maybe fixed) : 0
Atom jitter error (maybe fixed) : 0
Drift error (maybe fixed) : 0
Dropped bytes error (maybe fixed) : 0
Duplicated bytes error (maybe fixed) : 0
Inconsistency in error sectors : 0

Track 03
Filename : /Users/gubarenko/Desktop/David Bowie - The Man Who Sold The World/03 - Black Country Rock.flac

Pre-gap length : 00:01:66

CRC32 hash (test run) : 8BE0647D
CRC32 hash : 8BE0647D
CRC32 hash (skip zero) : 9FFB05E9
AccurateRip signature : D57D8417
->Accurately ripped! (confidence 1)
Statistics
Read error : 0
Skipped (treated as error) : 0
Edge jitter error (maybe fixed) : 0
Atom jitter error (maybe fixed) : 0
Drift error (maybe fixed) : 0
Dropped bytes error (maybe fixed) : 0
Duplicated bytes error (maybe fixed) : 0
Inconsistency in error sectors : 0

Track 04
Filename : /Users/gubarenko/Desktop/David Bowie - The Man Who Sold The World/04 - After All.flac

Pre-gap length : 00:01:24

CRC32 hash (test run) : A0743D28
CRC32 hash : A0743D28
CRC32 hash (skip zero) : 1F19743C
AccurateRip signature : D1AF2694
->Accurately ripped! (confidence 1)
Statistics
Read error : 0
Skipped (treated as error) : 0
Edge jitter error (maybe fixed) : 0
Atom jitter error (maybe fixed) : 0
Drift error (maybe fixed) : 0
Dropped bytes error (maybe fixed) : 0
Duplicated bytes error (maybe fixed) : 0
Inconsistency in error sectors : 0

Track 05
Filename : /Users/gubarenko/Desktop/David Bowie - The Man Who Sold The World/05 - Running Gun Blues.flac

Pre-gap length : 00:02:09

CRC32 hash (test run) : B1460D23
CRC32 hash : B1460D23
CRC32 hash (skip zero) : 40A0CA16
AccurateRip signature : 8EEC0914
->Accurately ripped! (confidence 1)
Statistics
Read error : 0
Skipped (treated as error) : 0
Edge jitter error (maybe fixed) : 0
Atom jitter error (maybe fixed) : 0
Drift error (maybe fixed) : 0
Dropped bytes error (maybe fixed) : 0
Duplicated bytes error (maybe fixed) : 0
Inconsistency in error sectors : 0

Track 06
Filename : /Users/gubarenko/Desktop/David Bowie - The Man Who Sold The World/06 - Saviour Machines.flac

Pre-gap length : 00:02:14

CRC32 hash (test run) : 60FEDBF1
CRC32 hash : 60FEDBF1
CRC32 hash (skip zero) : C9FEC0C2
AccurateRip signature : 6B279CE3
->Accurately ripped! (confidence 1)
Statistics
Read error : 0
Skipped (treated as error) : 0
Edge jitter error (maybe fixed) : 0
Atom jitter error (maybe fixed) : 0
Drift error (maybe fixed) : 0
Dropped bytes error (maybe fixed) : 0
Duplicated bytes error (maybe fixed) : 0
Inconsistency in error sectors : 0

Track 07
Filename : /Users/gubarenko/Desktop/David Bowie - The Man Who Sold The World/07 - She Shook Me Cold.flac

Pre-gap length : 00:02:36

CRC32 hash (test run) : 13E8B37D
CRC32 hash : 13E8B37D
CRC32 hash (skip zero) : 23DD5246
AccurateRip signature : C2EC772D
->Accurately ripped! (confidence 1)
Statistics
Read error : 0
Skipped (treated as error) : 0
Edge jitter error (maybe fixed) : 0
Atom jitter error (maybe fixed) : 0
Drift error (maybe fixed) : 0
Dropped bytes error (maybe fixed) : 0
Duplicated bytes error (maybe fixed) : 0
Inconsistency in error sectors : 0

Track 08
Filename : /Users/gubarenko/Desktop/David Bowie - The Man Who Sold The World/08 - The Man Who Sold The World.flac

Pre-gap length : 00:02:54

CRC32 hash (test run) : C562D4ED
CRC32 hash : C562D4ED
CRC32 hash (skip zero) : 0E0BB336
AccurateRip signature : 36D5ED59
->Accurately ripped! (confidence 1)
Statistics
Read error : 0
Skipped (treated as error) : 0
Edge jitter error (maybe fixed) : 0
Atom jitter error (maybe fixed) : 0
Drift error (maybe fixed) : 0
Dropped bytes error (maybe fixed) : 0
Duplicated bytes error (maybe fixed) : 0
Inconsistency in error sectors : 0

Track 09
Filename : /Users/gubarenko/Desktop/David Bowie - The Man Who Sold The World/09 - The Superman.flac

Pre-gap length : 00:02:11

CRC32 hash (test run) : 3097B15A
CRC32 hash : 3097B15A
CRC32 hash (skip zero) : 826A9628
AccurateRip signature : 731C5C20
->Accurately ripped! (confidence 1)
Statistics
Read error : 0
Skipped (treated as error) : 0
Edge jitter error (maybe fixed) : 0
Atom jitter error (maybe fixed) : 0
Drift error (maybe fixed) : 0
Dropped bytes error (maybe fixed) : 0
Duplicated bytes error (maybe fixed) : 0
Inconsistency in error sectors : 0

No errors occurred

End of status report


[CUETools log; Date: 03.06.2018 19:13:10; Version: 2.1.5]
[AccurateRip ID: 000f87f3-006dc8a8-6c099d09] found.
Track [ CRC | V2 ] Status
01 [ce6daa2c|08fd9dd8] (2+6/8) Accurately ripped
02 [927e4458|41dc780a] (2+6/8) Accurately ripped
03 [d57d8417|ca0a3d51] (2+6/8) Accurately ripped
04 [d1af2694|f5e9ae9f] (2+6/8) Accurately ripped
05 [8eec0914|4e285a18] (2+6/8) Accurately ripped
06 [6b279ce3|a359b422] (2+6/8) Accurately ripped
07 [c2ec772d|1de10c6d] (2+6/8) Accurately ripped
08 [36d5ed59|86d5de7a] (2+6/8) Accurately ripped
09 [731c5c20|a52a871e] (2+6/8) Accurately ripped
Offsetted by 6:
01 [914e3484] (0/8) No match (V2 was not tested)
02 [c833c8b2] (0/8) No match (V2 was not tested)
03 [ae0a7a91] (0/8) No match (V2 was not tested)
04 [01d2e2a6] (0/8) No match (V2 was not tested)
05 [b4e14b20] (0/8) No match (V2 was not tested)
06 [5d9c2d65] (0/8) No match (V2 was not tested)
07 [d3e3e411] (0/8) No match (V2 was not tested)
08 [3da4cc3c] (0/8) No match (V2 was not tested)
09 [bc699e43] (0/8) No match (V2 was not tested)

Track Peak [ CRC32 ] [W/O NULL]
– 99,4 [335CB1BC] [D28384CF]
01 95,2 [5A732CDE] [F992F730]
02 99,4 [D4CFB33B] [33BC2D49]
03 94,7 [8BE0647D] [9FFB05E9]
04 87,0 [A0743D28] [1F19743C]
05 98,8 [B1460D23] [40A0CA16]
06 90,2 [60FEDBF1] [C9FEC0C2]
07 96,4 [13E8B37D] [23DD5246]
08 91,6 [C562D4ED] [0E0BB336]
09 93,9 [3097B15A] [826A9628]


David Bowie - The Man Who Sold The World (1970) [EMI TOCP-95042, Japan]

All thanks go to the original releaser

David Bowie or David Bowie in my Blog

Download David Bowie - The Man Who Sold The World (1970):