Subcategories

David Gilmour - Live at Pompeii (2017)

Posted By: v3122
David Gilmour - Live at Pompeii (2017)

David Gilmour - Live at Pompeii (2017)
2xBlu-ray: MPEG-4 AVC, 1080p, 23,976 fps, 16:9, High Profile 4.1
LPCM 2.0, 96 kHz, 4608 kbps, 24-bit / DTS-HD MA 5.1, 96 kHz, 6917 kbps, 24-bit
Prog Rock, Documentary | 02:39:41 + 03:17:06 | ~ 81.84 Gb

Live At Pompeii is the project from David Gilmour, and follows his critically acclaimed studio album Rattle That Lock from September of 2015. Live at Pompeii is available in multiple formats: a 2 CD live album, a standard DVD and Blu-Ray concert film, a Deluxe Boxset including the 2 CD live album and 1 Blu-Ray of the entire live concert and bonus content, and a special 4 LP Vinyl package. Live At Pompeii is also available digitally.

Following the release of Rattle That Lock in 2015, David Gilmour set out to play a series of concerts in historic venues across the world. On July 7th and 8th, 2016, David Gilmour performed two spectacular shows at the legendary Pompeii Amphitheatre in the shadow of Mount Vesuvius, 45 years after he first played there for Adrian Maben's classic film Pink Floyd Live at Pompeii. The concerts were the first-ever rock performances played to an audience in the ancient Roman amphitheatre, which was built in 90 BC and entombed in ash when Vesuvius erupted in AD 79. David Gilmour is the only performer to play to an audience in the arena since the time of the gladiators, almost 2,000 years ago.

Speaking about the Pompeii shows David Gilmour commented 'It's a magical place and coming back and seeing the stage and the arena was quite overwhelming. It's a place of ghosts…'.

The concert performance film, David Gilmour Live at Pompeii, was shot in 4k by director Gavin Elder and includes highlights from both shows. The concert is a spectacular audio-visual experience, featuring the famous huge circular cyclorama screen as well as lasers, pyrotechnics and stellar performances from an all-star band. The film includes songs from throughout David's career including the title tracks of his two most recent No. 1 solo albums: Rattle That Lock and On An Island. Also included are other solo and Pink Floyd classics such as 'Wish You Were Here,' 'Comfortably Numb' and 'One Of These Days,' the only song that was also performed by the band in 1971. Both concerts also saw extraordinary performances of 'The Great Gig In The Sky' from The Dark Side Of The Moon, which David rarely plays as a solo artist.

~amazon
David Gilmour - Live at Pompeii (2017)


David Gilmour - Live at Pompeii (2017):

Tracklist BD1:

Part 1
1. 5 A.M. 3.54
2. Rattle That Lock 4.40
3. Faces Of Stone 6.01
4. What Do You Want From Me 4.34
5. The Blue 6.30
6. The Great Gig In The Sky 6.01
7. A Boat Lies Waiting 4.55
8. Wish You Were Here 5.18
9. Money 8.12
10. In Any Tongue 8.02
11. High Hopes 9.58

Part 2
12. One Of These Days 6.35
13. Shine On You Crazy Diamond 12.37
14. Fat Old Sun 5.58
15. Coming Back To Life 7.16
16. On An Island 7.08
17. Today 6.34
18. Sorrow 10.49
19. Run Like Hell 7.15
20. Time / Breathe (In The Air) (reprise) 6.45
21. Comfortably Numb 9.41

Documebtary:
- Pompeii Then And Now Doc 7.17

Disc Title: DAVID_GILMOUR_LIVEATPOMPEII_D1
Disc Size: 42 224 598 161 bytes
Protection: AACS
BD-Java: No
BDInfo: 0.5.8

Notes:

BDINFO HOME:
Cinema Squid
http://www.cinemasquid.com/blu-ray/tools/bdinfo

INCLUDES FORUMS REPORT FOR:
AVS Forum Blu-ray Audio and Video Specifications Thread
http://www.avsforum.com/avs-vb/showthread.php?t=1155731

WARNING: Report is incomplete because: Scan has not been run.

********************
PLAYLIST: 00001.MPLS
********************

<–- BEGIN FORUMS PASTE –->
                                                                                                                Total   Video                                             
Title                                                           Codec   Length  Movie Size      Disc Size       Bitrate Bitrate Main Audio Track                          Secondary Audio Track
-----                                                           ------  ------- --------------  --------------  ------- ------- ------------------                        ---------------------
00001.MPLS                                                      AVC     1:24:10 0               42 224 598 161  0,00    0,00    LPCM 2.0 4608Kbps (96kHz/24-bit)          DTS-HD Master 5.1 (96kHz/24-bit)


DISC INFO:

Disc Title:     DAVID_GILMOUR_LIVEATPOMPEII_D1
Disc Size:      42 224 598 161 bytes
Protection:     AACS
BD-Java:        No
BDInfo:         0.5.8

PLAYLIST REPORT:

Name:                   00001.MPLS
Length:                 1:24:10.295 (h:m:s.ms)
Size:                   0 bytes
Total Bitrate:          0,00 Mbps

VIDEO:

Codec                   Bitrate             Description     
-----                   -------             -----------     
MPEG-4 AVC Video        0 kbps              1080p / 23,976 fps / 16:9 / High Profile 4.1

AUDIO:

Codec                           Language        Bitrate         Description     
-----                           --------        -------         -----------     
LPCM Audio                      English         4608 kbps       2.0 / 96 kHz / 4608 kbps / 24-bit
DTS-HD Master Audio             English         0 kbps          5.1 / 96 kHz / 24-bit (DTS Core: 5.1 / 48 kHz / 1509 kbps / 24-bit)

FILES:

Name            Time In         Length          Size            Total Bitrate   
----            -------         ------          ----            -------------   
00001.M2TS      0:00:00.000     1:24:10.295     0               0               

CHAPTERS:

Number          Time In         Length          Avg Video Rate  Max 1-Sec Rate  Max 1-Sec Time  Max 5-Sec Rate  Max 5-Sec Time  Max 10Sec Rate  Max 10Sec Time  Avg Frame Size  Max Frame Size  Max Frame Time  
------          -------         ------          --------------  --------------  --------------  --------------  --------------  --------------  --------------  --------------  --------------  --------------  
1               0:00:00.000     0:06:35.395     0 kbps          0 kbps          00:00:00.000    0 kbps          00:00:00.000    0 kbps          00:00:00.000    0 bytes         0 bytes         00:00:00.000    
2               0:06:35.395     0:12:38.132     0 kbps          0 kbps          00:00:00.000    0 kbps          00:00:00.000    0 kbps          00:00:00.000    0 bytes         0 bytes         00:00:00.000    
3               0:19:13.527     0:05:58.358     0 kbps          0 kbps          00:00:00.000    0 kbps          00:00:00.000    0 kbps          00:00:00.000    0 bytes         0 bytes         00:00:00.000    
4               0:25:11.885     0:07:17.186     0 kbps          0 kbps          00:00:00.000    0 kbps          00:00:00.000    0 kbps          00:00:00.000    0 bytes         0 bytes         00:00:00.000    
5               0:32:29.072     0:07:08.469     0 kbps          0 kbps          00:00:00.000    0 kbps          00:00:00.000    0 kbps          00:00:00.000    0 bytes         0 bytes         00:00:00.000    
6               0:39:37.541     0:06:34.560     0 kbps          0 kbps          00:00:00.000    0 kbps          00:00:00.000    0 kbps          00:00:00.000    0 bytes         0 bytes         00:00:00.000    
7               0:46:12.102     0:10:49.648     0 kbps          0 kbps          00:00:00.000    0 kbps          00:00:00.000    0 kbps          00:00:00.000    0 bytes         0 bytes         00:00:00.000    
8               0:57:01.751     0:07:16.018     0 kbps          0 kbps          00:00:00.000    0 kbps          00:00:00.000    0 kbps          00:00:00.000    0 bytes         0 bytes         00:00:00.000    
9               1:04:17.770     0:06:45.947     0 kbps          0 kbps          00:00:00.000    0 kbps          00:00:00.000    0 kbps          00:00:00.000    0 bytes         0 bytes         00:00:00.000    
10              1:11:03.717     0:09:41.872     0 kbps          0 kbps          00:00:00.000    0 kbps          00:00:00.000    0 kbps          00:00:00.000    0 bytes         0 bytes         00:00:00.000    
11              1:20:45.590     0:03:24.704     0 kbps          0 kbps          00:00:00.000    0 kbps          00:00:00.000    0 kbps          00:00:00.000    0 bytes         0 bytes         00:00:00.000    

STREAM DIAGNOSTICS:

File            PID             Type            Codec           Language                Seconds                 Bitrate                 Bytes           Packets         
----            ---             ----            -----           --------                --------------          --------------          -------------   -----           
00001.M2TS      4113 (0x1011)   0x1B            AVC                                     0                       0                       0               0               
00001.M2TS      4352 (0x1100)   0x80            LPCM            eng (English)           0                       0                       0               0               
00001.M2TS      4353 (0x1101)   0x86            DTS-HD MA       eng (English)           0                       0                       0               0               

<–– END FORUMS PASTE ––>

QUICK SUMMARY:

Disc Title: DAVID_GILMOUR_LIVEATPOMPEII_D1
Disc Size: 42 224 598 161 bytes
Protection: AACS
BD-Java: No
Playlist: 00001.MPLS
Size: 0 bytes
Length: 1:24:10.295
Total Bitrate: 0,00 Mbps
Video: MPEG-4 AVC Video / 0 kbps / 1080p / 23,976 fps / 16:9 / High Profile 4.1
Audio: English / LPCM Audio / 2.0 / 96 kHz / 4608 kbps / 24-bit
Audio: English / DTS-HD Master Audio / 5.1 / 96 kHz / 24-bit (DTS Core: 5.1 / 48 kHz / 1509 kbps / 24-bit)


********************
PLAYLIST: 00000.MPLS
********************

<–- BEGIN FORUMS PASTE –->
                                                                                                                Total   Video                                             
Title                                                           Codec   Length  Movie Size      Disc Size       Bitrate Bitrate Main Audio Track                          Secondary Audio Track
-----                                                           ------  ------- --------------  --------------  ------- ------- ------------------                        ---------------------
00000.MPLS                                                      AVC     1:08:13 0               42 224 598 161  0,00    0,00    LPCM 2.0 4608Kbps (96kHz/24-bit)          DTS-HD Master 5.1 (96kHz/24-bit)


DISC INFO:

Disc Title:     DAVID_GILMOUR_LIVEATPOMPEII_D1
Disc Size:      42 224 598 161 bytes
Protection:     AACS
BD-Java:        No
BDInfo:         0.5.8

PLAYLIST REPORT:

Name:                   00000.MPLS
Length:                 1:08:13.255 (h:m:s.ms)
Size:                   0 bytes
Total Bitrate:          0,00 Mbps

VIDEO:

Codec                   Bitrate             Description     
-----                   -------             -----------     
MPEG-4 AVC Video        0 kbps              1080p / 23,976 fps / 16:9 / High Profile 4.1

AUDIO:

Codec                           Language        Bitrate         Description     
-----                           --------        -------         -----------     
LPCM Audio                      English         4608 kbps       2.0 / 96 kHz / 4608 kbps / 24-bit
DTS-HD Master Audio             English         0 kbps          5.1 / 96 kHz / 24-bit (DTS Core: 5.1 / 48 kHz / 1509 kbps / 24-bit)

FILES:

Name            Time In         Length          Size            Total Bitrate   
----            -------         ------          ----            -------------   
00000.M2TS      0:00:00.000     1:08:13.255     0               0               

CHAPTERS:

Number          Time In         Length          Avg Video Rate  Max 1-Sec Rate  Max 1-Sec Time  Max 5-Sec Rate  Max 5-Sec Time  Max 10Sec Rate  Max 10Sec Time  Avg Frame Size  Max Frame Size  Max Frame Time  
------          -------         ------          --------------  --------------  --------------  --------------  --------------  --------------  --------------  --------------  --------------  --------------  
1               0:00:00.000     0:03:12.859     0 kbps          0 kbps          00:00:00.000    0 kbps          00:00:00.000    0 kbps          00:00:00.000    0 bytes         0 bytes         00:00:00.000    
2               0:03:12.859     0:05:21.654     0 kbps          0 kbps          00:00:00.000    0 kbps          00:00:00.000    0 kbps          00:00:00.000    0 bytes         0 bytes         00:00:00.000    
3               0:08:34.513     0:06:01.694     0 kbps          0 kbps          00:00:00.000    0 kbps          00:00:00.000    0 kbps          00:00:00.000    0 bytes         0 bytes         00:00:00.000    
4               0:14:36.208     0:04:34.482     0 kbps          0 kbps          00:00:00.000    0 kbps          00:00:00.000    0 kbps          00:00:00.000    0 bytes         0 bytes         00:00:00.000    
5               0:19:10.691     0:06:30.598     0 kbps          0 kbps          00:00:00.000    0 kbps          00:00:00.000    0 kbps          00:00:00.000    0 bytes         0 bytes         00:00:00.000    
6               0:25:41.289     0:06:02.153     0 kbps          0 kbps          00:00:00.000    0 kbps          00:00:00.000    0 kbps          00:00:00.000    0 bytes         0 bytes         00:00:00.000    
7               0:31:43.443     0:04:56.129     0 kbps          0 kbps          00:00:00.000    0 kbps          00:00:00.000    0 kbps          00:00:00.000    0 bytes         0 bytes         00:00:00.000    
8               0:36:39.572     0:05:18.359     0 kbps          0 kbps          00:00:00.000    0 kbps          00:00:00.000    0 kbps          00:00:00.000    0 bytes         0 bytes         00:00:00.000    
9               0:41:57.932     0:08:13.075     0 kbps          0 kbps          00:00:00.000    0 kbps          00:00:00.000    0 kbps          00:00:00.000    0 bytes         0 bytes         00:00:00.000    
10              0:50:11.008     0:08:03.357     0 kbps          0 kbps          00:00:00.000    0 kbps          00:00:00.000    0 kbps          00:00:00.000    0 bytes         0 bytes         00:00:00.000    
11              0:58:14.365     0:09:58.889     0 kbps          0 kbps          00:00:00.000    0 kbps          00:00:00.000    0 kbps          00:00:00.000    0 bytes         0 bytes         00:00:00.000    

STREAM DIAGNOSTICS:

File            PID             Type            Codec           Language                Seconds                 Bitrate                 Bytes           Packets         
----            ---             ----            -----           --------                --------------          --------------          -------------   -----           
00000.M2TS      4113 (0x1011)   0x1B            AVC                                     0                       0                       0               0               
00000.M2TS      4352 (0x1100)   0x80            LPCM            eng (English)           0                       0                       0               0               
00000.M2TS      4353 (0x1101)   0x86            DTS-HD MA       eng (English)           0                       0                       0               0               

<–– END FORUMS PASTE ––>

QUICK SUMMARY:

Disc Title: DAVID_GILMOUR_LIVEATPOMPEII_D1
Disc Size: 42 224 598 161 bytes
Protection: AACS
BD-Java: No
Playlist: 00000.MPLS
Size: 0 bytes
Length: 1:08:13.255
Total Bitrate: 0,00 Mbps
Video: MPEG-4 AVC Video / 0 kbps / 1080p / 23,976 fps / 16:9 / High Profile 4.1
Audio: English / LPCM Audio / 2.0 / 96 kHz / 4608 kbps / 24-bit
Audio: English / DTS-HD Master Audio / 5.1 / 96 kHz / 24-bit (DTS Core: 5.1 / 48 kHz / 1509 kbps / 24-bit)


********************
PLAYLIST: 00002.MPLS
********************

<–- BEGIN FORUMS PASTE –->
                                                                                                                Total   Video                                             
Title                                                           Codec   Length  Movie Size      Disc Size       Bitrate Bitrate Main Audio Track                          Secondary Audio Track
-----                                                           ------  ------- --------------  --------------  ------- ------- ------------------                        ---------------------
00002.MPLS                                                      AVC     0:07:16 0               42 224 598 161  0,00    0,00    LPCM 2.0 2304Kbps (48kHz/24-bit)          


DISC INFO:

Disc Title:     DAVID_GILMOUR_LIVEATPOMPEII_D1
Disc Size:      42 224 598 161 bytes
Protection:     AACS
BD-Java:        No
BDInfo:         0.5.8

PLAYLIST REPORT:

Name:                   00002.MPLS
Length:                 0:07:16.894 (h:m:s.ms)
Size:                   0 bytes
Total Bitrate:          0,00 Mbps

VIDEO:

Codec                   Bitrate             Description     
-----                   -------             -----------     
MPEG-4 AVC Video        0 kbps              1080p / 23,976 fps / 16:9 / High Profile 4.1

AUDIO:

Codec                           Language        Bitrate         Description     
-----                           --------        -------         -----------     
LPCM Audio                      English         2304 kbps       2.0 / 48 kHz / 2304 kbps / 24-bit

SUBTITLES:

Codec                           Language        Bitrate         Description     
-----                           --------        -------         -----------     
Presentation Graphics           English         0,000 kbps                      
Presentation Graphics           French          0,000 kbps                      
Presentation Graphics           German          0,000 kbps                      
Presentation Graphics           Italian         0,000 kbps                      
Presentation Graphics           Spanish         0,000 kbps                      
Presentation Graphics           Dutch           0,000 kbps                      
Presentation Graphics           Portuguese      0,000 kbps                      
Presentation Graphics           Polish          0,000 kbps                      
Presentation Graphics           Chinese         0,000 kbps                      
Presentation Graphics           Chinese         0,000 kbps                      

FILES:

Name            Time In         Length          Size            Total Bitrate   
----            -------         ------          ----            -------------   
00002.M2TS      0:00:00.000     0:07:16.894     0               0               

CHAPTERS:

Number          Time In         Length          Avg Video Rate  Max 1-Sec Rate  Max 1-Sec Time  Max 5-Sec Rate  Max 5-Sec Time  Max 10Sec Rate  Max 10Sec Time  Avg Frame Size  Max Frame Size  Max Frame Time  
------          -------         ------          --------------  --------------  --------------  --------------  --------------  --------------  --------------  --------------  --------------  --------------  
1               0:00:00.000     0:07:16.894     0 kbps          0 kbps          00:00:00.000    0 kbps          00:00:00.000    0 kbps          00:00:00.000    0 bytes         0 bytes         00:00:00.000    

STREAM DIAGNOSTICS:

File            PID             Type            Codec           Language                Seconds                 Bitrate                 Bytes           Packets         
----            ---             ----            -----           --------                --------------          --------------          -------------   -----           
00002.M2TS      4113 (0x1011)   0x1B            AVC                                     0                       0                       0               0               
00002.M2TS      4352 (0x1100)   0x80            LPCM            eng (English)           0                       0                       0               0               
00002.M2TS      4608 (0x1200)   0x90            PGS             eng (English)           0                       0                       0               0               
00002.M2TS      4609 (0x1201)   0x90            PGS             fra (French)            0                       0                       0               0               
00002.M2TS      4610 (0x1202)   0x90            PGS             deu (German)            0                       0                       0               0               
00002.M2TS      4611 (0x1203)   0x90            PGS             ita (Italian)           0                       0                       0               0               
00002.M2TS      4612 (0x1204)   0x90            PGS             spa (Spanish)           0                       0                       0               0               
00002.M2TS      4613 (0x1205)   0x90            PGS             nld (Dutch)             0                       0                       0               0               
00002.M2TS      4614 (0x1206)   0x90            PGS             por (Portuguese)        0                       0                       0               0               
00002.M2TS      4615 (0x1207)   0x90            PGS             pol (Polish)            0                       0                       0               0               
00002.M2TS      4616 (0x1208)   0x90            PGS             zho (Chinese)           0                       0                       0               0               
00002.M2TS      4617 (0x1209)   0x90            PGS             zho (Chinese)           0                       0                       0               0               

<–– END FORUMS PASTE ––>

QUICK SUMMARY:

Disc Title: DAVID_GILMOUR_LIVEATPOMPEII_D1
Disc Size: 42 224 598 161 bytes
Protection: AACS
BD-Java: No
Playlist: 00002.MPLS
Size: 0 bytes
Length: 0:07:16.894
Total Bitrate: 0,00 Mbps
Video: MPEG-4 AVC Video / 0 kbps / 1080p / 23,976 fps / 16:9 / High Profile 4.1
Audio: English / LPCM Audio / 2.0 / 48 kHz / 2304 kbps / 24-bit
Subtitle: English / 0,000 kbps
Subtitle: French / 0,000 kbps
Subtitle: German / 0,000 kbps
Subtitle: Italian / 0,000 kbps
Subtitle: Spanish / 0,000 kbps
Subtitle: Dutch / 0,000 kbps
Subtitle: Portuguese / 0,000 kbps
Subtitle: Polish / 0,000 kbps
Subtitle: Chinese / 0,000 kbps
Subtitle: Chinese / 0,000 kbps


********************
PLAYLIST: 00003.MPLS
********************

<–- BEGIN FORUMS PASTE –->
                                                                                                                Total   Video                                             
Title                                                           Codec   Length  Movie Size      Disc Size       Bitrate Bitrate Main Audio Track                          Secondary Audio Track
-----                                                           ------  ------- --------------  --------------  ------- ------- ------------------                        ---------------------
00003.MPLS                                                      AVC     0:06:05 0               42 224 598 161  0,00    0,00    LPCM 2.0 4608Kbps (96kHz/24-bit)          


DISC INFO:

Disc Title:     DAVID_GILMOUR_LIVEATPOMPEII_D1
Disc Size:      42 224 598 161 bytes
Protection:     AACS
BD-Java:        No
BDInfo:         0.5.8

PLAYLIST REPORT:

Name:                   00003.MPLS
Length:                 0:06:05.365 (h:m:s.ms)
Size:                   0 bytes
Total Bitrate:          0,00 Mbps

VIDEO:

Codec                   Bitrate             Description     
-----                   -------             -----------     
MPEG-4 AVC Video        0 kbps              1080p / 23,976 fps / 16:9 / High Profile 4.1

AUDIO:

Codec                           Language        Bitrate         Description     
-----                           --------        -------         -----------     
LPCM Audio                      English         4608 kbps       2.0 / 96 kHz / 4608 kbps / 24-bit

FILES:

Name            Time In         Length          Size            Total Bitrate   
----            -------         ------          ----            -------------   
00007.M2TS      0:00:00.000     0:06:05.365     0               0               

CHAPTERS:

Number          Time In         Length          Avg Video Rate  Max 1-Sec Rate  Max 1-Sec Time  Max 5-Sec Rate  Max 5-Sec Time  Max 10Sec Rate  Max 10Sec Time  Avg Frame Size  Max Frame Size  Max Frame Time  
------          -------         ------          --------------  --------------  --------------  --------------  --------------  --------------  --------------  --------------  --------------  --------------  
1               0:00:00.000     0:06:05.365     0 kbps          0 kbps          00:00:00.000    0 kbps          00:00:00.000    0 kbps          00:00:00.000    0 bytes         0 bytes         00:00:00.000    

STREAM DIAGNOSTICS:

File            PID             Type            Codec           Language                Seconds                 Bitrate                 Bytes           Packets         
----            ---             ----            -----           --------                --------------          --------------          -------------   -----           
00007.M2TS      4113 (0x1011)   0x1B            AVC                                     0                       0                       0               0               
00007.M2TS      4352 (0x1100)   0x80            LPCM            eng (English)           0                       0                       0               0               

<–– END FORUMS PASTE ––>

QUICK SUMMARY:

Disc Title: DAVID_GILMOUR_LIVEATPOMPEII_D1
Disc Size: 42 224 598 161 bytes
Protection: AACS
BD-Java: No
Playlist: 00003.MPLS
Size: 0 bytes
Length: 0:06:05.365
Total Bitrate: 0,00 Mbps
Video: MPEG-4 AVC Video / 0 kbps / 1080p / 23,976 fps / 16:9 / High Profile 4.1
Audio: English / LPCM Audio / 2.0 / 96 kHz / 4608 kbps / 24-bit



Tracklist BD2:

South America December 2015
1. Astronomy Domine 5.14
2. Us And Them 7.51
3. Today 6.53
4. Time / Breathe (In The Air) (reprise) 6.41
5. Comfortably Numb (Jon Carin – vocal) 9.00

Wroclaw, Poland June 2016 – with Orchestra
6. 5 A.M. 3.01
7. Rattle That Lock 5.25
8. Dancing Right In Front Of Me 6.18
9. The Girl In The Yellow Dress (with Leszek Możdżer) 7.08
10. In Any Tongue 7.56

Documebtary:
- Gavin Elder: Europe 2015 12.45
- Gavin Elder: South America 2015 15.00
- Gavin Elder: North America 2016 15.25
- Gavin Elder: Europe 2016 17.00
- BBC documentary ‘David Gilmour: Wider Horizons’ 72.00

Disc Title: DAVID_GILMOUR_LIVEATPOMPEII_D2
Disc Size: 41 461 009 223 bytes
Protection: AACS
BD-Java: No
BDInfo: 0.5.8

Notes:

BDINFO HOME:
Cinema Squid
http://www.cinemasquid.com/blu-ray/tools/bdinfo

INCLUDES FORUMS REPORT FOR:
AVS Forum Blu-ray Audio and Video Specifications Thread
http://www.avsforum.com/avs-vb/showthread.php?t=1155731

WARNING: Report is incomplete because: Scan has not been run.

********************
PLAYLIST: 00007.MPLS
********************

<–- BEGIN FORUMS PASTE –->
                                                                                                                Total   Video                                             
Title                                                           Codec   Length  Movie Size      Disc Size       Bitrate Bitrate Main Audio Track                          Secondary Audio Track
-----                                                           ------  ------- --------------  --------------  ------- ------- ------------------                        ---------------------
00007.MPLS                                                      AVC     1:11:35 0               41 461 009 223  0,00    0,00    LPCM 2.0 2304Kbps (48kHz/24-bit)          


DISC INFO:

Disc Title:     DAVID_GILMOUR_LIVEATPOMPEII_D2
Disc Size:      41 461 009 223 bytes
Protection:     AACS
BD-Java:        No
BDInfo:         0.5.8

PLAYLIST REPORT:

Name:                   00007.MPLS
Length:                 1:11:35.082 (h:m:s.ms)
Size:                   0 bytes
Total Bitrate:          0,00 Mbps

VIDEO:

Codec                   Bitrate             Description     
-----                   -------             -----------     
MPEG-4 AVC Video        0 kbps              1080p / 23,976 fps / 16:9 / High Profile 4.1

AUDIO:

Codec                           Language        Bitrate         Description     
-----                           --------        -------         -----------     
LPCM Audio                      English         2304 kbps       2.0 / 48 kHz / 2304 kbps / 24-bit

SUBTITLES:

Codec                           Language        Bitrate         Description     
-----                           --------        -------         -----------     
Presentation Graphics           English         0,000 kbps                      
Presentation Graphics           French          0,000 kbps                      
Presentation Graphics           German          0,000 kbps                      
Presentation Graphics           Italian         0,000 kbps                      
Presentation Graphics           Spanish         0,000 kbps                      
Presentation Graphics           Dutch           0,000 kbps                      
Presentation Graphics           Portuguese      0,000 kbps                      
Presentation Graphics           Polish          0,000 kbps                      
Presentation Graphics           Chinese         0,000 kbps                      
Presentation Graphics           Chinese         0,000 kbps                      

FILES:

Name            Time In         Length          Size            Total Bitrate   
----            -------         ------          ----            -------------   
00007.M2TS      0:00:00.000     1:11:35.082     0               0               

CHAPTERS:

Number          Time In         Length          Avg Video Rate  Max 1-Sec Rate  Max 1-Sec Time  Max 5-Sec Rate  Max 5-Sec Time  Max 10Sec Rate  Max 10Sec Time  Avg Frame Size  Max Frame Size  Max Frame Time  
------          -------         ------          --------------  --------------  --------------  --------------  --------------  --------------  --------------  --------------  --------------  --------------  
1               0:00:00.000     0:12:04.306     0 kbps          0 kbps          00:00:00.000    0 kbps          00:00:00.000    0 kbps          00:00:00.000    0 bytes         0 bytes         00:00:00.000    
2               0:12:04.306     0:10:07.690     0 kbps          0 kbps          00:00:00.000    0 kbps          00:00:00.000    0 kbps          00:00:00.000    0 bytes         0 bytes         00:00:00.000    
3               0:22:11.997     0:10:56.447     0 kbps          0 kbps          00:00:00.000    0 kbps          00:00:00.000    0 kbps          00:00:00.000    0 bytes         0 bytes         00:00:00.000    
4               0:33:08.444     0:10:34.008     0 kbps          0 kbps          00:00:00.000    0 kbps          00:00:00.000    0 kbps          00:00:00.000    0 bytes         0 bytes         00:00:00.000    
5               0:43:42.453     0:10:59.617     0 kbps          0 kbps          00:00:00.000    0 kbps          00:00:00.000    0 kbps          00:00:00.000    0 bytes         0 bytes         00:00:00.000    
6               0:54:42.070     0:16:53.011     0 kbps          0 kbps          00:00:00.000    0 kbps          00:00:00.000    0 kbps          00:00:00.000    0 bytes         0 bytes         00:00:00.000    

STREAM DIAGNOSTICS:

File            PID             Type            Codec           Language                Seconds                 Bitrate                 Bytes           Packets         
----            ---             ----            -----           --------                --------------          --------------          -------------   -----           
00007.M2TS      4113 (0x1011)   0x1B            AVC                                     0                       0                       0               0               
00007.M2TS      4352 (0x1100)   0x80            LPCM            eng (English)           0                       0                       0               0               
00007.M2TS      4608 (0x1200)   0x90            PGS             eng (English)           0                       0                       0               0               
00007.M2TS      4609 (0x1201)   0x90            PGS             fra (French)            0                       0                       0               0               
00007.M2TS      4610 (0x1202)   0x90            PGS             deu (German)            0                       0                       0               0               
00007.M2TS      4611 (0x1203)   0x90            PGS             ita (Italian)           0                       0                       0               0               
00007.M2TS      4612 (0x1204)   0x90            PGS             spa (Spanish)           0                       0                       0               0               
00007.M2TS      4613 (0x1205)   0x90            PGS             nld (Dutch)             0                       0                       0               0               
00007.M2TS      4614 (0x1206)   0x90            PGS             por (Portuguese)        0                       0                       0               0               
00007.M2TS      4615 (0x1207)   0x90            PGS             pol (Polish)            0                       0                       0               0               
00007.M2TS      4616 (0x1208)   0x90            PGS             zho (Chinese)           0                       0                       0               0               
00007.M2TS      4617 (0x1209)   0x90            PGS             zho (Chinese)           0                       0                       0               0               

<–– END FORUMS PASTE ––>

QUICK SUMMARY:

Disc Title: DAVID_GILMOUR_LIVEATPOMPEII_D2
Disc Size: 41 461 009 223 bytes
Protection: AACS
BD-Java: No
Playlist: 00007.MPLS
Size: 0 bytes
Length: 1:11:35.082
Total Bitrate: 0,00 Mbps
Video: MPEG-4 AVC Video / 0 kbps / 1080p / 23,976 fps / 16:9 / High Profile 4.1
Audio: English / LPCM Audio / 2.0 / 48 kHz / 2304 kbps / 24-bit
Subtitle: English / 0,000 kbps
Subtitle: French / 0,000 kbps
Subtitle: German / 0,000 kbps
Subtitle: Italian / 0,000 kbps
Subtitle: Spanish / 0,000 kbps
Subtitle: Dutch / 0,000 kbps
Subtitle: Portuguese / 0,000 kbps
Subtitle: Polish / 0,000 kbps
Subtitle: Chinese / 0,000 kbps
Subtitle: Chinese / 0,000 kbps


********************
PLAYLIST: 00000.MPLS
********************

<–- BEGIN FORUMS PASTE –->
                                                                                                                Total   Video                                             
Title                                                           Codec   Length  Movie Size      Disc Size       Bitrate Bitrate Main Audio Track                          Secondary Audio Track
-----                                                           ------  ------- --------------  --------------  ------- ------- ------------------                        ---------------------
00000.MPLS                                                      AVC     0:35:38 0               41 461 009 223  0,00    0,00    LPCM 2.0 4608Kbps (96kHz/24-bit)          DTS-HD Master 5.1 (96kHz/24-bit)


DISC INFO:

Disc Title:     DAVID_GILMOUR_LIVEATPOMPEII_D2
Disc Size:      41 461 009 223 bytes
Protection:     AACS
BD-Java:        No
BDInfo:         0.5.8

PLAYLIST REPORT:

Name:                   00000.MPLS
Length:                 0:35:38.928 (h:m:s.ms)
Size:                   0 bytes
Total Bitrate:          0,00 Mbps

VIDEO:

Codec                   Bitrate             Description     
-----                   -------             -----------     
MPEG-4 AVC Video        0 kbps              1080p / 23,976 fps / 16:9 / High Profile 4.1

AUDIO:

Codec                           Language        Bitrate         Description     
-----                           --------        -------         -----------     
LPCM Audio                      English         4608 kbps       2.0 / 96 kHz / 4608 kbps / 24-bit
DTS-HD Master Audio             English         0 kbps          5.1 / 96 kHz / 24-bit (DTS Core: 5.1 / 48 kHz / 1509 kbps / 24-bit)

FILES:

Name            Time In         Length          Size            Total Bitrate   
----            -------         ------          ----            -------------   
00000.M2TS      0:00:00.000     0:35:38.928     0               0               

CHAPTERS:

Number          Time In         Length          Avg Video Rate  Max 1-Sec Rate  Max 1-Sec Time  Max 5-Sec Rate  Max 5-Sec Time  Max 10Sec Rate  Max 10Sec Time  Avg Frame Size  Max Frame Size  Max Frame Time  
------          -------         ------          --------------  --------------  --------------  --------------  --------------  --------------  --------------  --------------  --------------  --------------  
1               0:00:00.000     0:05:19.277     0 kbps          0 kbps          00:00:00.000    0 kbps          00:00:00.000    0 kbps          00:00:00.000    0 bytes         0 bytes         00:00:00.000    
2               0:05:19.277     0:07:49.802     0 kbps          0 kbps          00:00:00.000    0 kbps          00:00:00.000    0 kbps          00:00:00.000    0 bytes         0 bytes         00:00:00.000    
3               0:13:09.079     0:06:49.492     0 kbps          0 kbps          00:00:00.000    0 kbps          00:00:00.000    0 kbps          00:00:00.000    0 bytes         0 bytes         00:00:00.000    
4               0:19:58.572     0:06:42.402     0 kbps          0 kbps          00:00:00.000    0 kbps          00:00:00.000    0 kbps          00:00:00.000    0 bytes         0 bytes         00:00:00.000    
5               0:26:40.974     0:08:57.954     0 kbps          0 kbps          00:00:00.000    0 kbps          00:00:00.000    0 kbps          00:00:00.000    0 bytes         0 bytes         00:00:00.000    

STREAM DIAGNOSTICS:

File            PID             Type            Codec           Language                Seconds                 Bitrate                 Bytes           Packets         
----            ---             ----            -----           --------                --------------          --------------          -------------   -----           
00000.M2TS      4113 (0x1011)   0x1B            AVC                                     0                       0                       0               0               
00000.M2TS      4352 (0x1100)   0x80            LPCM            eng (English)           0                       0                       0               0               
00000.M2TS      4353 (0x1101)   0x86            DTS-HD MA       eng (English)           0                       0                       0               0               

<–– END FORUMS PASTE ––>

QUICK SUMMARY:

Disc Title: DAVID_GILMOUR_LIVEATPOMPEII_D2
Disc Size: 41 461 009 223 bytes
Protection: AACS
BD-Java: No
Playlist: 00000.MPLS
Size: 0 bytes
Length: 0:35:38.928
Total Bitrate: 0,00 Mbps
Video: MPEG-4 AVC Video / 0 kbps / 1080p / 23,976 fps / 16:9 / High Profile 4.1
Audio: English / LPCM Audio / 2.0 / 96 kHz / 4608 kbps / 24-bit
Audio: English / DTS-HD Master Audio / 5.1 / 96 kHz / 24-bit (DTS Core: 5.1 / 48 kHz / 1509 kbps / 24-bit)


********************
PLAYLIST: 00001.MPLS
********************

<–- BEGIN FORUMS PASTE –->
                                                                                                                Total   Video                                             
Title                                                           Codec   Length  Movie Size      Disc Size       Bitrate Bitrate Main Audio Track                          Secondary Audio Track
-----                                                           ------  ------- --------------  --------------  ------- ------- ------------------                        ---------------------
00001.MPLS                                                      AVC     0:29:43 0               41 461 009 223  0,00    0,00    LPCM 2.0 4608Kbps (96kHz/24-bit)          DTS-HD Master 5.1 (96kHz/24-bit)


DISC INFO:

Disc Title:     DAVID_GILMOUR_LIVEATPOMPEII_D2
Disc Size:      41 461 009 223 bytes
Protection:     AACS
BD-Java:        No
BDInfo:         0.5.8

PLAYLIST REPORT:

Name:                   00001.MPLS
Length:                 0:29:43.698 (h:m:s.ms)
Size:                   0 bytes
Total Bitrate:          0,00 Mbps

VIDEO:

Codec                   Bitrate             Description     
-----                   -------             -----------     
MPEG-4 AVC Video        0 kbps              1080p / 23,976 fps / 16:9 / High Profile 4.1

AUDIO:

Codec                           Language        Bitrate         Description     
-----                           --------        -------         -----------     
LPCM Audio                      English         4608 kbps       2.0 / 96 kHz / 4608 kbps / 24-bit
DTS-HD Master Audio             English         0 kbps          5.1 / 96 kHz / 24-bit (DTS Core: 5.1 / 48 kHz / 1509 kbps / 24-bit)

SUBTITLES:

Codec                           Language        Bitrate         Description     
-----                           --------        -------         -----------     
Presentation Graphics           English         0,000 kbps                      
Presentation Graphics           French          0,000 kbps                      
Presentation Graphics           German          0,000 kbps                      
Presentation Graphics           Italian         0,000 kbps                      
Presentation Graphics           Spanish         0,000 kbps                      
Presentation Graphics           Dutch           0,000 kbps                      
Presentation Graphics           Portuguese      0,000 kbps                      
Presentation Graphics           Polish          0,000 kbps                      
Presentation Graphics           Chinese         0,000 kbps                      
Presentation Graphics           Chinese         0,000 kbps                      

FILES:

Name            Time In         Length          Size            Total Bitrate   
----            -------         ------          ----            -------------   
00001.M2TS      0:00:00.000     0:29:43.698     0               0               

CHAPTERS:

Number          Time In         Length          Avg Video Rate  Max 1-Sec Rate  Max 1-Sec Time  Max 5-Sec Rate  Max 5-Sec Time  Max 10Sec Rate  Max 10Sec Time  Avg Frame Size  Max Frame Size  Max Frame Time  
------          -------         ------          --------------  --------------  --------------  --------------  --------------  --------------  --------------  --------------  --------------  --------------  
1               0:00:00.000     0:03:02.682     0 kbps          0 kbps          00:00:00.000    0 kbps          00:00:00.000    0 kbps          00:00:00.000    0 bytes         0 bytes         00:00:00.000    
2               0:03:02.682     0:05:24.115     0 kbps          0 kbps          00:00:00.000    0 kbps          00:00:00.000    0 kbps          00:00:00.000    0 bytes         0 bytes         00:00:00.000    
3               0:08:26.797     0:06:50.910     0 kbps          0 kbps          00:00:00.000    0 kbps          00:00:00.000    0 kbps          00:00:00.000    0 bytes         0 bytes         00:00:00.000    
4               0:15:17.708     0:06:40.775     0 kbps          0 kbps          00:00:00.000    0 kbps          00:00:00.000    0 kbps          00:00:00.000    0 bytes         0 bytes         00:00:00.000    
5               0:21:58.483     0:07:03.297     0 kbps          0 kbps          00:00:00.000    0 kbps          00:00:00.000    0 kbps          00:00:00.000    0 bytes         0 bytes         00:00:00.000    
6               0:29:01.781     0:00:41.916     0 kbps          0 kbps          00:00:00.000    0 kbps          00:00:00.000    0 kbps          00:00:00.000    0 bytes         0 bytes         00:00:00.000    

STREAM DIAGNOSTICS:

File            PID             Type            Codec           Language                Seconds                 Bitrate                 Bytes           Packets         
----            ---             ----            -----           --------                --------------          --------------          -------------   -----           
00001.M2TS      4113 (0x1011)   0x1B            AVC                                     0                       0                       0               0               
00001.M2TS      4352 (0x1100)   0x80            LPCM            eng (English)           0                       0                       0               0               
00001.M2TS      4353 (0x1101)   0x86            DTS-HD MA       eng (English)           0                       0                       0               0               
00001.M2TS      4608 (0x1200)   0x90            PGS             eng (English)           0                       0                       0               0               
00001.M2TS      4609 (0x1201)   0x90            PGS             fra (French)            0                       0                       0               0               
00001.M2TS      4610 (0x1202)   0x90            PGS             deu (German)            0                       0                       0               0               
00001.M2TS      4611 (0x1203)   0x90            PGS             ita (Italian)           0                       0                       0               0               
00001.M2TS      4612 (0x1204)   0x90            PGS             spa (Spanish)           0                       0                       0               0               
00001.M2TS      4613 (0x1205)   0x90            PGS             nld (Dutch)             0                       0                       0               0               
00001.M2TS      4614 (0x1206)   0x90            PGS             por (Portuguese)        0                       0                       0               0               
00001.M2TS      4615 (0x1207)   0x90            PGS             pol (Polish)            0                       0                       0               0               
00001.M2TS      4616 (0x1208)   0x90            PGS             zho (Chinese)           0                       0                       0               0               
00001.M2TS      4617 (0x1209)   0x90            PGS             zho (Chinese)           0                       0                       0               0               

<–– END FORUMS PASTE ––>

QUICK SUMMARY:

Disc Title: DAVID_GILMOUR_LIVEATPOMPEII_D2
Disc Size: 41 461 009 223 bytes
Protection: AACS
BD-Java: No
Playlist: 00001.MPLS
Size: 0 bytes
Length: 0:29:43.698
Total Bitrate: 0,00 Mbps
Video: MPEG-4 AVC Video / 0 kbps / 1080p / 23,976 fps / 16:9 / High Profile 4.1
Audio: English / LPCM Audio / 2.0 / 96 kHz / 4608 kbps / 24-bit
Audio: English / DTS-HD Master Audio / 5.1 / 96 kHz / 24-bit (DTS Core: 5.1 / 48 kHz / 1509 kbps / 24-bit)
Subtitle: English / 0,000 kbps
Subtitle: French / 0,000 kbps
Subtitle: German / 0,000 kbps
Subtitle: Italian / 0,000 kbps
Subtitle: Spanish / 0,000 kbps
Subtitle: Dutch / 0,000 kbps
Subtitle: Portuguese / 0,000 kbps
Subtitle: Polish / 0,000 kbps
Subtitle: Chinese / 0,000 kbps
Subtitle: Chinese / 0,000 kbps


********************
PLAYLIST: 00006.MPLS
********************

<–- BEGIN FORUMS PASTE –->
                                                                                                                Total   Video                                             
Title                                                           Codec   Length  Movie Size      Disc Size       Bitrate Bitrate Main Audio Track                          Secondary Audio Track
-----                                                           ------  ------- --------------  --------------  ------- ------- ------------------                        ---------------------
00006.MPLS                                                      AVC     0:16:57 0               41 461 009 223  0,00    0,00    LPCM 2.0 2304Kbps (48kHz/24-bit)          


DISC INFO:

Disc Title:     DAVID_GILMOUR_LIVEATPOMPEII_D2
Disc Size:      41 461 009 223 bytes
Protection:     AACS
BD-Java:        No
BDInfo:         0.5.8

PLAYLIST REPORT:

Name:                   00006.MPLS
Length:                 0:16:57.558 (h:m:s.ms)
Size:                   0 bytes
Total Bitrate:          0,00 Mbps

VIDEO:

Codec                   Bitrate             Description     
-----                   -------             -----------     
MPEG-4 AVC Video        0 kbps              1080p / 23,976 fps / 16:9 / High Profile 4.1

AUDIO:

Codec                           Language        Bitrate         Description     
-----                           --------        -------         -----------     
LPCM Audio                      English         2304 kbps       2.0 / 48 kHz / 2304 kbps / 24-bit

SUBTITLES:

Codec                           Language        Bitrate         Description     
-----                           --------        -------         -----------     
Presentation Graphics           English         0,000 kbps                      
Presentation Graphics           French          0,000 kbps                      
Presentation Graphics           German          0,000 kbps                      
Presentation Graphics           Italian         0,000 kbps                      
Presentation Graphics           Spanish         0,000 kbps                      
Presentation Graphics           Dutch           0,000 kbps                      
Presentation Graphics           Portuguese      0,000 kbps                      
Presentation Graphics           Polish          0,000 kbps                      
Presentation Graphics           Chinese         0,000 kbps                      
Presentation Graphics           Chinese         0,000 kbps                      

FILES:

Name            Time In         Length          Size            Total Bitrate   
----            -------         ------          ----            -------------   
00006.M2TS      0:00:00.000     0:16:57.558     0               0               

CHAPTERS:

Number          Time In         Length          Avg Video Rate  Max 1-Sec Rate  Max 1-Sec Time  Max 5-Sec Rate  Max 5-Sec Time  Max 10Sec Rate  Max 10Sec Time  Avg Frame Size  Max Frame Size  Max Frame Time  
------          -------         ------          --------------  --------------  --------------  --------------  --------------  --------------  --------------  --------------  --------------  --------------  
1               0:00:00.000     0:16:57.558     0 kbps          0 kbps          00:00:00.000    0 kbps          00:00:00.000    0 kbps          00:00:00.000    0 bytes         0 bytes         00:00:00.000    

STREAM DIAGNOSTICS:

File            PID             Type            Codec           Language                Seconds                 Bitrate                 Bytes           Packets         
----            ---             ----            -----           --------                --------------          --------------          -------------   -----           
00006.M2TS      4113 (0x1011)   0x1B            AVC                                     0                       0                       0               0               
00006.M2TS      4352 (0x1100)   0x80            LPCM            eng (English)           0                       0                       0               0               
00006.M2TS      4608 (0x1200)   0x90            PGS             eng (English)           0                       0                       0               0               
00006.M2TS      4609 (0x1201)   0x90            PGS             fra (French)            0                       0                       0               0               
00006.M2TS      4610 (0x1202)   0x90            PGS             deu (German)            0                       0                       0               0               
00006.M2TS      4611 (0x1203)   0x90            PGS             ita (Italian)           0                       0                       0               0               
00006.M2TS      4612 (0x1204)   0x90            PGS             spa (Spanish)           0                       0                       0               0               
00006.M2TS      4613 (0x1205)   0x90            PGS             nld (Dutch)             0                       0                       0               0               
00006.M2TS      4614 (0x1206)   0x90            PGS             por (Portuguese)        0                       0                       0               0               
00006.M2TS      4615 (0x1207)   0x90            PGS             pol (Polish)            0                       0                       0               0               
00006.M2TS      4616 (0x1208)   0x90            PGS             zho (Chinese)           0                       0                       0               0               
00006.M2TS      4617 (0x1209)   0x90            PGS             zho (Chinese)           0                       0                       0               0               

<–– END FORUMS PASTE ––>

QUICK SUMMARY:

Disc Title: DAVID_GILMOUR_LIVEATPOMPEII_D2
Disc Size: 41 461 009 223 bytes
Protection: AACS
BD-Java: No
Playlist: 00006.MPLS
Size: 0 bytes
Length: 0:16:57.558
Total Bitrate: 0,00 Mbps
Video: MPEG-4 AVC Video / 0 kbps / 1080p / 23,976 fps / 16:9 / High Profile 4.1
Audio: English / LPCM Audio / 2.0 / 48 kHz / 2304 kbps / 24-bit
Subtitle: English / 0,000 kbps
Subtitle: French / 0,000 kbps
Subtitle: German / 0,000 kbps
Subtitle: Italian / 0,000 kbps
Subtitle: Spanish / 0,000 kbps
Subtitle: Dutch / 0,000 kbps
Subtitle: Portuguese / 0,000 kbps
Subtitle: Polish / 0,000 kbps
Subtitle: Chinese / 0,000 kbps
Subtitle: Chinese / 0,000 kbps


********************
PLAYLIST: 00005.MPLS
********************

<–- BEGIN FORUMS PASTE –->
                                                                                                                Total   Video                                             
Title                                                           Codec   Length  Movie Size      Disc Size       Bitrate Bitrate Main Audio Track                          Secondary Audio Track
-----                                                           ------  ------- --------------  --------------  ------- ------- ------------------                        ---------------------
00005.MPLS                                                      AVC     0:15:27 0               41 461 009 223  0,00    0,00    LPCM 2.0 2304Kbps (48kHz/24-bit)          


DISC INFO:

Disc Title:     DAVID_GILMOUR_LIVEATPOMPEII_D2
Disc Size:      41 461 009 223 bytes
Protection:     AACS
BD-Java:        No
BDInfo:         0.5.8

PLAYLIST REPORT:

Name:                   00005.MPLS
Length:                 0:15:27.176 (h:m:s.ms)
Size:                   0 bytes
Total Bitrate:          0,00 Mbps

VIDEO:

Codec                   Bitrate             Description     
-----                   -------             -----------     
MPEG-4 AVC Video        0 kbps              1080p / 23,976 fps / 16:9 / High Profile 4.1

AUDIO:

Codec                           Language        Bitrate         Description     
-----                           --------        -------         -----------     
LPCM Audio                      English         2304 kbps       2.0 / 48 kHz / 2304 kbps / 24-bit

SUBTITLES:

Codec                           Language        Bitrate         Description     
-----                           --------        -------         -----------     
Presentation Graphics           English         0,000 kbps                      
Presentation Graphics           French          0,000 kbps                      
Presentation Graphics           German          0,000 kbps                      
Presentation Graphics           Italian         0,000 kbps                      
Presentation Graphics           Spanish         0,000 kbps                      
Presentation Graphics           Dutch           0,000 kbps                      
Presentation Graphics           Portuguese      0,000 kbps                      
Presentation Graphics           Polish          0,000 kbps                      
Presentation Graphics           Chinese         0,000 kbps                      
Presentation Graphics           Chinese         0,000 kbps                      

FILES:

Name            Time In         Length          Size            Total Bitrate   
----            -------         ------          ----            -------------   
00005.M2TS      0:00:00.000     0:15:27.176     0               0               

CHAPTERS:

Number          Time In         Length          Avg Video Rate  Max 1-Sec Rate  Max 1-Sec Time  Max 5-Sec Rate  Max 5-Sec Time  Max 10Sec Rate  Max 10Sec Time  Avg Frame Size  Max Frame Size  Max Frame Time  
------          -------         ------          --------------  --------------  --------------  --------------  --------------  --------------  --------------  --------------  --------------  --------------  
1               0:00:00.000     0:15:27.176     0 kbps          0 kbps          00:00:00.000    0 kbps          00:00:00.000    0 kbps          00:00:00.000    0 bytes         0 bytes         00:00:00.000    

STREAM DIAGNOSTICS:

File            PID             Type            Codec           Language                Seconds                 Bitrate                 Bytes           Packets         
----            ---             ----            -----           --------                --------------          --------------          -------------   -----           
00005.M2TS      4113 (0x1011)   0x1B            AVC                                     0                       0                       0               0   			  		 	 	  		 	    	 			   		  	   		  	   		 	    	 			   		  	   		   	  		 		   	 			   		   	  		 	 	  		 	 				             
00005.M2TS      4352 (0x1100)   0x80            LPCM            eng (English)           0                       0                       0               0               
00005.M2TS      4608 (0x1200)   0x90            PGS             eng (English)           0                       0                       0               0               
00005.M2TS      4609 (0x1201)   0x90            PGS             fra (French)            0                       0                       0               0               
00005.M2TS      4610 (0x1202)   0x90            PGS             deu (German)            0                       0                       0               0               
00005.M2TS      4611 (0x1203)   0x90            PGS             ita (Italian)           0                       0                       0               0               
00005.M2TS      4612 (0x1204)   0x90            PGS             spa (Spanish)           0                       0                       0               0               
00005.M2TS      4613 (0x1205)   0x90            PGS             nld (Dutch)             0                       0                       0               0               
00005.M2TS      4614 (0x1206)   0x90            PGS             por (Portuguese)        0                       0                       0               0               
00005.M2TS      4615 (0x1207)   0x90            PGS             pol (Polish)            0                       0                       0               0               
00005.M2TS      4616 (0x1208)   0x90            PGS             zho (Chinese)           0                       0                       0               0               
00005.M2TS      4617 (0x1209)   0x90            PGS             zho (Chinese)           0                       0                       0               0               

<–– END FORUMS PASTE ––>

QUICK SUMMARY:

Disc Title: DAVID_GILMOUR_LIVEATPOMPEII_D2
Disc Size: 41 461 009 223 bytes
Protection: AACS
BD-Java: No
Playlist: 00005.MPLS
Size: 0 bytes
Length: 0:15:27.176
Total Bitrate: 0,00 Mbps
Video: MPEG-4 AVC Video / 0 kbps / 1080p / 23,976 fps / 16:9 / High Profile 4.1
Audio: English / LPCM Audio / 2.0 / 48 kHz / 2304 kbps / 24-bit
Subtitle: English / 0,000 kbps
Subtitle: French / 0,000 kbps
Subtitle: German / 0,000 kbps
Subtitle: Italian / 0,000 kbps
Subtitle: Spanish / 0,000 kbps
Subtitle: Dutch / 0,000 kbps
Subtitle: Portuguese / 0,000 kbps
Subtitle: Polish / 0,000 kbps
Subtitle: Chinese / 0,000 kbps
Subtitle: Chinese / 0,000 kbps


********************
PLAYLIST: 00004.MPLS
********************

<–- BEGIN FORUMS PASTE –->
                                                                                                                Total   Video                                             
Title                                                           Codec   Length  Movie Size      Disc Size       Bitrate Bitrate Main Audio Track                          Secondary Audio Track
-----                                                           ------  ------- --------------  --------------  ------- ------- ------------------                        ---------------------
00004.MPLS                                                      AVC     0:14:58 0               41 461 009 223  0,00    0,00    LPCM 2.0 2304Kbps (48kHz/24-bit)          


DISC INFO:

Disc Title:     DAVID_GILMOUR_LIVEATPOMPEII_D2
Disc Size:      41 461 009 223 bytes
Protection:     AACS
BD-Java:        No
BDInfo:         0.5.8

PLAYLIST REPORT:

Name:                   00004.MPLS
Length:                 0:14:58.647 (h:m:s.ms)
Size:                   0 bytes
Total Bitrate:          0,00 Mbps

VIDEO:

Codec                   Bitrate             Description     
-----                   -------             -----------     
MPEG-4 AVC Video        0 kbps              1080p / 23,976 fps / 16:9 / High Profile 4.1

AUDIO:

Codec                           Language        Bitrate         Description     
-----                           --------        -------         -----------     
LPCM Audio                      English         2304 kbps       2.0 / 48 kHz / 2304 kbps / 24-bit

SUBTITLES:

Codec                           Language        Bitrate         Description     
-----                           --------        -------         -----------     
Presentation Graphics           English         0,000 kbps                      
Presentation Graphics           French          0,000 kbps                      
Presentation Graphics           German          0,000 kbps                      
Presentation Graphics           Italian         0,000 kbps                      
Presentation Graphics           Spanish         0,000 kbps                      
Presentation Graphics           Dutch           0,000 kbps                      
Presentation Graphics           Portuguese      0,000 kbps                      
Presentation Graphics           Polish          0,000 kbps                      
Presentation Graphics           Chinese         0,000 kbps                      
Presentation Graphics           Chinese         0,000 kbps                      

FILES:

Name            Time In         Length          Size            Total Bitrate   
----            -------         ------          ----            -------------   
00004.M2TS      0:00:00.000     0:14:58.647     0               0               

CHAPTERS:

Number          Time In         Length          Avg Video Rate  Max 1-Sec Rate  Max 1-Sec Time  Max 5-Sec Rate  Max 5-Sec Time  Max 10Sec Rate  Max 10Sec Time  Avg Frame Size  Max Frame Size  Max Frame Time  
------          -------         ------          --------------  --------------  --------------  --------------  --------------  --------------  --------------  --------------  --------------  --------------  
1               0:00:00.000     0:14:58.647     0 kbps          0 kbps          00:00:00.000    0 kbps          00:00:00.000    0 kbps          00:00:00.000    0 bytes         0 bytes         00:00:00.000    

STREAM DIAGNOSTICS:

File            PID             Type            Codec           Language                Seconds                 Bitrate                 Bytes           Packets         
----            ---             ----            -----           --------                --------------          --------------          -------------   -----           
00004.M2TS      4113 (0x1011)   0x1B            AVC                                     0                       0                       0               0               
00004.M2TS      4352 (0x1100)   0x80            LPCM            eng (English)           0                       0                       0               0               
00004.M2TS      4608 (0x1200)   0x90            PGS             eng (English)           0                       0                       0               0               
00004.M2TS      4609 (0x1201)   0x90            PGS             fra (French)            0                       0                       0               0               
00004.M2TS      4610 (0x1202)   0x90            PGS             deu (German)            0                       0                       0               0               
00004.M2TS      4611 (0x1203)   0x90            PGS             ita (Italian)           0                       0                       0               0               
00004.M2TS      4612 (0x1204)   0x90            PGS             spa (Spanish)           0                       0                       0               0               
00004.M2TS      4613 (0x1205)   0x90            PGS             nld (Dutch)             0                       0                       0               0               
00004.M2TS      4614 (0x1206)   0x90            PGS             por (Portuguese)        0                       0                       0               0               
00004.M2TS      4615 (0x1207)   0x90            PGS             pol (Polish)            0                       0                       0               0               
00004.M2TS      4616 (0x1208)   0x90            PGS             zho (Chinese)           0                       0                       0               0               
00004.M2TS      4617 (0x1209)   0x90            PGS             zho (Chinese)           0                       0                       0               0               

<–– END FORUMS PASTE ––>

QUICK SUMMARY:

Disc Title: DAVID_GILMOUR_LIVEATPOMPEII_D2
Disc Size: 41 461 009 223 bytes
Protection: AACS
BD-Java: No
Playlist: 00004.MPLS
Size: 0 bytes
Length: 0:14:58.647
Total Bitrate: 0,00 Mbps
Video: MPEG-4 AVC Video / 0 kbps / 1080p / 23,976 fps / 16:9 / High Profile 4.1
Audio: English / LPCM Audio / 2.0 / 48 kHz / 2304 kbps / 24-bit
Subtitle: English / 0,000 kbps
Subtitle: French / 0,000 kbps
Subtitle: German / 0,000 kbps
Subtitle: Italian / 0,000 kbps
Subtitle: Spanish / 0,000 kbps
Subtitle: Dutch / 0,000 kbps
Subtitle: Portuguese / 0,000 kbps
Subtitle: Polish / 0,000 kbps
Subtitle: Chinese / 0,000 kbps
Subtitle: Chinese / 0,000 kbps


********************
PLAYLIST: 00003.MPLS
********************

<–- BEGIN FORUMS PASTE –->
                                                                                                                Total   Video                                             
Title                                                           Codec   Length  Movie Size      Disc Size       Bitrate Bitrate Main Audio Track                          Secondary Audio Track
-----                                                           ------  ------- --------------  --------------  ------- ------- ------------------                        ---------------------
00003.MPLS                                                      AVC     0:12:33 0               41 461 009 223  0,00    0,00    LPCM 2.0 2304Kbps (48kHz/24-bit)          


DISC INFO:

Disc Title:     DAVID_GILMOUR_LIVEATPOMPEII_D2
Disc Size:      41 461 009 223 bytes
Protection:     AACS
BD-Java:        No
BDInfo:         0.5.8

PLAYLIST REPORT:

Name:                   00003.MPLS
Length:                 0:12:33.252 (h:m:s.ms)
Size:                   0 bytes
Total Bitrate:          0,00 Mbps

VIDEO:

Codec                   Bitrate             Description     
-----                   -------             -----------     
MPEG-4 AVC Video        0 kbps              1080p / 23,976 fps / 16:9 / High Profile 4.1

AUDIO:

Codec                           Language        Bitrate         Description     
-----                           --------        -------         -----------     
LPCM Audio                      English         2304 kbps       2.0 / 48 kHz / 2304 kbps / 24-bit

SUBTITLES:

Codec                           Language        Bitrate         Description     
-----                           --------        -------         -----------     
Presentation Graphics           English         0,000 kbps                      
Presentation Graphics           French          0,000 kbps                      
Presentation Graphics           German          0,000 kbps                      
Presentation Graphics           Italian         0,000 kbps                      
Presentation Graphics           Spanish         0,000 kbps                      
Presentation Graphics           Dutch           0,000 kbps                      
Presentation Graphics           Portuguese      0,000 kbps                      
Presentation Graphics           Polish          0,000 kbps                      
Presentation Graphics           Chinese         0,000 kbps                      
Presentation Graphics           Chinese         0,000 kbps                      

FILES:

Name            Time In         Length          Size            Total Bitrate   
----            -------         ------          ----            -------------   
00003.M2TS      0:00:00.000     0:12:33.252     0               0               

CHAPTERS:

Number          Time In         Length          Avg Video Rate  Max 1-Sec Rate  Max 1-Sec Time  Max 5-Sec Rate  Max 5-Sec Time  Max 10Sec Rate  Max 10Sec Time  Avg Frame Size  Max Frame Size  Max Frame Time  
------          -------         ------          --------------  --------------  --------------  --------------  --------------  --------------  --------------  --------------  --------------  --------------  
1               0:00:00.000     0:12:33.252     0 kbps          0 kbps          00:00:00.000    0 kbps          00:00:00.000    0 kbps          00:00:00.000    0 bytes         0 bytes         00:00:00.000    

STREAM DIAGNOSTICS:

File            PID             Type            Codec           Language                Seconds                 Bitrate                 Bytes           Packets         
----            ---             ----            -----           --------                --------------          --------------          -------------   -----           
00003.M2TS      4113 (0x1011)   0x1B            AVC                                     0                       0                       0               0               
00003.M2TS      4352 (0x1100)   0x80            LPCM            eng (English)           0                       0                       0               0               
00003.M2TS      4608 (0x1200)   0x90            PGS             eng (English)           0                       0                       0               0               
00003.M2TS      4609 (0x1201)   0x90            PGS             fra (French)            0                       0                       0               0               
00003.M2TS      4610 (0x1202)   0x90            PGS             deu (German)            0                       0                       0               0               
00003.M2TS      4611 (0x1203)   0x90            PGS             ita (Italian)           0                       0                       0               0               
00003.M2TS      4612 (0x1204)   0x90            PGS             spa (Spanish)           0                       0                       0               0               
00003.M2TS      4613 (0x1205)   0x90            PGS             nld (Dutch)             0                       0                       0               0               
00003.M2TS      4614 (0x1206)   0x90            PGS             por (Portuguese)        0                       0                       0               0               
00003.M2TS      4615 (0x1207)   0x90            PGS             pol (Polish)            0                       0                       0               0               
00003.M2TS      4616 (0x1208)   0x90            PGS             zho (Chinese)           0                       0                       0               0               
00003.M2TS      4617 (0x1209)   0x90            PGS             zho (Chinese)           0                       0                       0               0               

<–– END FORUMS PASTE ––>

QUICK SUMMARY:

Disc Title: DAVID_GILMOUR_LIVEATPOMPEII_D2
Disc Size: 41 461 009 223 bytes
Protection: AACS
BD-Java: No
Playlist: 00003.MPLS
Size: 0 bytes
Length: 0:12:33.252
Total Bitrate: 0,00 Mbps
Video: MPEG-4 AVC Video / 0 kbps / 1080p / 23,976 fps / 16:9 / High Profile 4.1
Audio: English / LPCM Audio / 2.0 / 48 kHz / 2304 kbps / 24-bit
Subtitle: English / 0,000 kbps
Subtitle: French / 0,000 kbps
Subtitle: German / 0,000 kbps
Subtitle: Italian / 0,000 kbps
Subtitle: Spanish / 0,000 kbps
Subtitle: Dutch / 0,000 kbps
Subtitle: Portuguese / 0,000 kbps
Subtitle: Polish / 0,000 kbps
Subtitle: Chinese / 0,000 kbps
Subtitle: Chinese / 0,000 kbps


********************
PLAYLIST: 00008.MPLS
********************

<–- BEGIN FORUMS PASTE –->
                                                                                                                Total   Video                                             
Title                                                           Codec   Length  Movie Size      Disc Size       Bitrate Bitrate Main Audio Track                          Secondary Audio Track
-----                                                           ------  ------- --------------  --------------  ------- ------- ------------------                        ---------------------
00008.MPLS                                                      AVC     0:08:24 0               41 461 009 223  0,00    0,00    LPCM 2.0 4608Kbps (96kHz/24-bit)          


DISC INFO:

Disc Title:     DAVID_GILMOUR_LIVEATPOMPEII_D2
Disc Size:      41 461 009 223 bytes
Protection:     AACS
BD-Java:        No
BDInfo:         0.5.8

PLAYLIST REPORT:

Name:                   00008.MPLS
Length:                 0:08:24.962 (h:m:s.ms)
Size:                   0 bytes
Total Bitrate:          0,00 Mbps

VIDEO:

Codec                   Bitrate             Description     
-----                   -------             -----------     
MPEG-4 AVC Video        0 kbps              1080p / 23,976 fps / 16:9 / High Profile 4.1

AUDIO:

Codec                           Language        Bitrate         Description     
-----                           --------        -------         -----------     
LPCM Audio                      English         4608 kbps       2.0 / 96 kHz / 4608 kbps / 24-bit

FILES:

Name            Time In         Length          Size            Total Bitrate   
----            -------         ------          ----            -------------   
00008.M2TS      0:00:00.000     0:08:24.962     0               0               

CHAPTERS:

Number          Time In         Length          Avg Video Rate  Max 1-Sec Rate  Max 1-Sec Time  Max 5-Sec Rate  Max 5-Sec Time  Max 10Sec Rate  Max 10Sec Time  Avg Frame Size  Max Frame Size  Max Frame Time  
------          -------         ------          --------------  --------------  --------------  --------------  --------------  --------------  --------------  --------------  --------------  --------------  
1               0:00:00.000     0:08:24.962     0 kbps          0 kbps          00:00:00.000    0 kbps          00:00:00.000    0 kbps          00:00:00.000    0 bytes         0 bytes         00:00:00.000    

STREAM DIAGNOSTICS:

File            PID             Type            Codec           Language                Seconds                 Bitrate                 Bytes           Packets         
----            ---             ----            -----           --------                --------------          --------------          -------------   -----           
00008.M2TS      4113 (0x1011)   0x1B            AVC                                     0                       0                       0               0               
00008.M2TS      4352 (0x1100)   0x80            LPCM            eng (English)           0                       0                       0               0               

<–– END FORUMS PASTE ––>

QUICK SUMMARY:

Disc Title: DAVID_GILMOUR_LIVEATPOMPEII_D2
Disc Size: 41 461 009 223 bytes
Protection: AACS
BD-Java: No
Playlist: 00008.MPLS
Size: 0 bytes
Length: 0:08:24.962
Total Bitrate: 0,00 Mbps
Video: MPEG-4 AVC Video / 0 kbps / 1080p / 23,976 fps / 16:9 / High Profile 4.1
Audio: English / LPCM Audio / 2.0 / 96 kHz / 4608 kbps / 24-bit



David Gilmour - Live at Pompeii (2017)

David Gilmour - Live at Pompeii (2017)

David Gilmour - Live at Pompeii (2017)

David Gilmour - Live at Pompeii (2017)

David Gilmour - Live at Pompeii (2017)

David Gilmour - Live at Pompeii (2017)

All thanks go to the original releaser

David Gilmour or David Gilmour in my Blog

Download David Gilmour - Live at Pompeii (2017):