Subcategories

David Guetta - Nothing But the Beat (2011) Re-up

Posted By: v3122
David Guetta - Nothing But the Beat (2011) Re-up

David Guetta - Nothing But the Beat (2011)
2CD | House / Dance | EAC Rip | Flac(Image) + Cue + Log & MP3 CBR 320Kbps
EMI, 5099908389428 | CIS | ~ 746 or 260 Mb
Scans (JPG) -> 26 Mb

Since his name-making production on the Black Eyed Peas' "I Gotta Feeling," French house-music titan David Guetta has become a go-to guy for pop stars looking to navigate the increasingly techno-fied Top 40. Artists from 50 Cent to Rihanna have rung his studio bell. But Guetta always seemed hungry to be more than just a name on other people’s records: In the video for his current hit "Where Them Girls At," he DJs on an L.A. rooftop, turning pedestrians into party people – it's like an E’ed-up version of U2's "Where the Streets Have No Name."

If Guetta’s fifth album doesn't convince you that he's the Bono of the four-on-the-floor beat, it does show how good he is at making Eurohouse's thumping trounce and jet-engine synth whoosh feel like natural elements in the hip-hop, R&B and even rock continuum. The best tracks here work a surefire formula: Rapper lubricates the throbbing verse, R&B star pretties up the sweeping ballad-big chorus. On "Little Bad Girl," Ludacris swaggers while Taio Cruz croons about a sexy club rat. Elsewhere, Usher gets lonely over Coldplay-style guitar ("Without U"), and Nicki Minaj demolishes the club ("All the girls in the back of me/This ain’t football, why the fuck they wanna tackle me," she raps on "Where Them Girls At"). The epic momentis "Nothing Really Matters," featuring Will.i.am; it's the album’s gushiest melody, turning an ode to partying your problems away into a call to escapist togetherness. Guetta and Will.i.am jell so well because they share a vision: dancefloor cheese as the glue of humanity.

By Jon Dolan, Rollingstone

David Guetta - Nothing But the Beat (2011) Re-up

Давид Гетта: от клубов до мировой сцены

Музыкант родился в Париже, одном из самых романтичных городов, в котором творческие личности со всего мира могут чувствовать себя, как дома. Давид Гетта связал себя с искусством уже в юном возрасте: в семнадцать лет он начал крутить пластинки в клубах и уже в скором времени перешел с чужих композиций на свои собственные. Электронная музыка, а именно хаус, стала для него самым настоящим образом жизни. Пластинки ди-джея были востребованы, его песни звучали на вечеринках, а самого Давида стали приглашать на самые громкие события в мире электронной музыки. В 2004 году Гетта снискал себе мировое признание, представив меломанам супер-хит The World Is Mine, ставший если не самым главным хаус-треком десятилетия, то одной из самых узнаваемых электронных композиций, это уж точно. На каждом новом лонгплее диджея были все новые хиты. Это стало своего рода традицией для Давида – радовать слушателей, а заодно и покорять всевозможные хит-парады. Что ж, в 2011 году свет увидела его новая пластинка Nothing but the Beat, которая должна продолжить добрую традицию.

Nothing But The Beat и немного больше

Гетта прекрасно знает, что такое клубная жизнь. Неоновый свет, виниловые пластинки и, конечно же, танцполы. Но кто сказал, что у вас не может быть своей собственной вечеринки? Все, что понадобится, это акустическая система и один из альбомов Давида. Но, как известно, в клубах любят самые свежие треки, поэтому особое внимание сейчас приковано к пластинке Nothing but the Beat. Командная работа всегда интересна и на нее, как правило, возлагают большие надежды. Шутка ли, в записи Nothing but the Beat приняли участие такие профессионалы, как Flo Rida, Snoop Dogg, Ашер, will.i.am и многие другие. Открывает лонгплей уже хорошо известная слушателям песня Where Them Girls At, выпущенная ранее в качестве сингла. За ней следует Little Bad Girl, записанная вместе с Тайо Крузом и Лудакрисом. Примечательно, что абсолютно в каждом треке Nothing But The Beat отметился какой-нибудь именитый музыкант, причем Гетта работал с очень разноплановыми исполнителями. Рэперы, певцы и певицы внесли свой вклад в запись. И, как ни странно, каждая композиция получила индивидуальность. Однако альбом слушается буквально на одном дыхании – электронная музыка настолько многогранна, что способна объединить разные направления даже в рамках одной пластинки. Особенно, если управляет всем действом сам Гетта.

Танцевальный коктейль

Давид Гетта знает нужные ноты, способные расшевелить любую вечеринку. Его зажигательные композиции не раз создавали праздничную атмосферу в клубах в самых разных уголках нашей планеты. Когда-то Давид начал карьеру, как простой диджей одного из Парижских клубов. Прошло не так много времени, и он теперь по праву считается одним из самых прогрессивных композиторов в мире электронной музыки. Baby When the Light, Love Is Gone, One Love – вот лишь немногие из тех хитов, которые помогли диджею добиться своего почетного титула. В 2011 году он представил меломанам новую порцию хитов: Sweat, Crank It Up и массу других. Кажется, что у Давида есть еще множество идей, которых хватит на несколько лонгплеев вперед. Что ж, время покажет, а пока будем наслаждаться энергетикой Nothing But The Beat – альбом действительно получился традиционно мощным..

~ muzobzor
David Guetta - Nothing But the Beat (2011):

David Guetta - Nothing But the Beat (2011) Re-up

Tracklist CD1:

1. Where Them Girls At (Feat. Flo Rida & Nicki Minaj) 3:30
2. Litlle Bad Girl (Feat. Taio Cruz & Ludacris) 3:10
3. Turn On Me (Feat. Nicki Minaj) 3:19
4. Sweat (Snoop Dogg Vs.David Guetta) 3:16
5. Without You (Feat. Usher) 3:28
6. Nothing Really Matters (Feat. Will.I.Am) 3:39
7. I Can Only Imagine (Feat. Chris Brown & Lil Wayne) 3:29
8. Crank It Up (Feat. Akon) 3:12
9. I Just Wanna Fuck (Ft. Timbaland & Dev) 3:23
10. Night Of Your Live 3:41
11. Repeat (Feat. Jessie J) 4:26
12. Titanium (Feat. Sia) 4:04

Exact Audio Copy V1.0 beta 2 from 29. April 2011

EAC extraction logfile from 20. September 2011, 15:58

David Guetta / Nothing But The Beat

Used drive : ASUS DRW-2014L1T Adapter: 2 ID: 0

Read mode : Secure
Utilize accurate stream : Yes
Defeat audio cache : Yes
Make use of C2 pointers : No

Read offset correction : 6
Overread into Lead-In and Lead-Out : No
Fill up missing offset samples with silence : Yes
Delete leading and trailing silent blocks : No
Null samples used in CRC calculations : Yes
Used interface : Native Win32 interface for Win NT & 2000

Used output format : User Defined Encoder
Selected bitrate : 768 kBit/s
Quality : High
Add ID3 tag : No
Command line compressor : I:\Program Files\Exact Audio Copy\FLAC\FLAC.EXE
Additional command line options : -V -8 -T "Date=%year%" -T "Genre=%genre%" %source%


TOC of the extracted CD

Track | Start | Length | Start sector | End sector
––––––––––––––––––––––––––––-
1 | 0:00.00 | 3:30.03 | 0 | 15752
2 | 3:30.03 | 3:10.72 | 15753 | 30074
3 | 6:41.00 | 3:19.50 | 30075 | 45049
4 | 10:00.50 | 3:16.12 | 45050 | 59761
5 | 13:16.62 | 3:28.09 | 59762 | 75370
6 | 16:44.71 | 3:39.61 | 75371 | 91856
7 | 20:24.57 | 3:29.38 | 91857 | 107569
8 | 23:54.20 | 3:12.49 | 107570 | 122018
9 | 27:06.69 | 3:23.33 | 122019 | 137276
10 | 30:30.27 | 3:41.70 | 137277 | 153921
11 | 34:12.22 | 3:26.20 | 153922 | 169391
12 | 37:38.42 | 4:05.09 | 169392 | 187775


Range status and errors

Selected range

Filename D:\EAC\By v3122\David Guetta - Nothing But The Beat.wav

Peak level 100.0 %
Extraction speed 7.8 X
Range quality 100.0 %
Test CRC 2E753A9F
Copy CRC 2E753A9F
Copy OK

No errors occurred


AccurateRip summary

Track 1 not present in database
Track 2 not present in database
Track 3 not present in database
Track 4 not present in database
Track 5 not present in database
Track 6 not present in database
Track 7 not present in database
Track 8 not present in database
Track 9 not present in database
Track 10 not present in database
Track 11 not present in database
Track 12 not present in database

None of the tracks are present in the AccurateRip database

End of status report

==== Log checksum CD457E3084335FF8EB395148D81CDCAB6B148EE1AAA6473C142810B670EC2486 ====

AUDIOCHECKER v2.0 beta (build 457) - by Dester - opdester@freemail.hu
~~~~~~~~~~~~~~~~~~~~~~~~~~~~~~~~~~
-=== DO NOT EDIT THIS FILE! ===-

Path: …\David Guetta - 2011 - Nothing But The Beat - CD1

1 -=- David Guetta - Nothing But The Beat.flac -=- CDDA (100%)

23913156

[Verification date: 20.09.2011 20:46:23]
[Disc ID: 00123f30-00aad022-8209c70c]
Disk not present in database.

Track [ CRC32 ] [W/O NULL] [ LOG ]
– [2E753A9F] [C5417385] CRC32
01 [D678E0BC] [D1473C2C]
02 [D4D2D6B8] [C49055D9]
03 [ABC77400] [6E0500BA]
04 [04D93BC1] [0B3FA351]
05 [0C51BE3B] [312E4056]
06 [94944C9A] [6A699CF5]
07 [E07FDE8D] [40078DB8]
08 [959E3B1A] [6E23C99A]
09 [555BA0FD] [FFC5746C]
10 [7F584731] [43641BE3]
11 [D2741C7E] [9CA68603]
12 [A23BF0F1] [CDBC1237]

David Guetta - Nothing But the Beat (2011) Re-up

Tracklist CD2:

01. The Alphabeat
02. Lunar
03. Sunshine
04. Little Bad Girl (Instrumental edit)
05. Metro Music
06. Toy Story
07. The Future
08. Dreams
09. Paris
10. Glasgow

Exact Audio Copy V1.0 beta 2 from 29. April 2011

EAC extraction logfile from 20. September 2011, 16:24

David Guetta / Nothing But The Beat

Used drive : ASUS DRW-2014L1T Adapter: 2 ID: 0

Read mode : Secure
Utilize accurate stream : Yes
Defeat audio cache : Yes
Make use of C2 pointers : No

Read offset correction : 6
Overread into Lead-In and Lead-Out : No
Fill up missing offset samples with silence : Yes
Delete leading and trailing silent blocks : No
Null samples used in CRC calculations : Yes
Used interface : Native Win32 interface for Win NT & 2000

Used output format : User Defined Encoder
Selected bitrate : 768 kBit/s
Quality : High
Add ID3 tag : No
Command line compressor : I:\Program Files\Exact Audio Copy\FLAC\FLAC.EXE
Additional command line options : -V -8 -T "Date=%year%" -T "Genre=%genre%" %source%


TOC of the extracted CD

Track | Start | Length | Start sector | End sector
––––––––––––––––––––––––––––-
1 | 0:00.00 | 4:29.04 | 0 | 20178
2 | 4:29.04 | 5:16.63 | 20179 | 43941
3 | 9:45.67 | 6:00.70 | 43942 | 71011
4 | 15:46.62 | 4:02.70 | 71012 | 89231
5 | 19:49.57 | 4:13.24 | 89232 | 108230
6 | 24:03.06 | 3:45.15 | 108231 | 125120
7 | 27:48.21 | 4:16.65 | 125121 | 144385
8 | 32:05.11 | 4:49.14 | 144386 | 166074
9 | 36:54.25 | 4:40.45 | 166075 | 187119
10 | 41:34.70 | 5:13.53 | 187120 | 210647


Range status and errors

Selected range

Filename D:\EAC\By v3122\David Guetta - Nothing But The Beat - CD2\David Guetta - Nothing But The Beat.wav

Peak level 100.0 %
Extraction speed 8.0 X
Range quality 100.0 %
Test CRC B5B55CD2
Copy CRC B5B55CD2
Copy OK

No errors occurred


AccurateRip summary

Track 1 not present in database
Track 2 not present in database
Track 3 not present in database
Track 4 not present in database
Track 5 not present in database
Track 6 not present in database
Track 7 not present in database
Track 8 not present in database
Track 9 not present in database
Track 10 not present in database

None of the tracks are present in the AccurateRip database

End of status report

==== Log checksum 21D71E1C586F6E450A30429ACFE85F2626CFC7E68B13751527E79EB631DC8A25 ====

AUDIOCHECKER v2.0 beta (build 457) - by Dester - opdester@freemail.hu
~~~~~~~~~~~~~~~~~~~~~~~~~~~~~~~~~~
-=== DO NOT EDIT THIS FILE! ===-

Path: …\David Guetta - 2011 - Nothing But The Beat - CD2

1 -=- David Guetta - Nothing But The Beat.flac -=- CDDA (100%)

23913156

[Verification date: 20.09.2011 20:47:36]
[Disc ID: 0011ca7a-008d6235-900af80a]
Disk not present in database.

Track [ CRC32 ] [W/O NULL] [ LOG ]
– [B5B55CD2] [9516AA8D] CRC32
01 [58CD8708] [8CED8082]
02 [C022F58B] [4BCA62F8]
03 [71DA7470] [C4E2DF46]
04 [14E3D2FC] [274F1BF6]
05 [8D95F785] [B317C1B5]
06 [BE437194] [1A28F7EB]
07 [2B8624F7] [F5F51390]
08 [E4F2FA42] [48386794]
09 [871EDD60] [F64EBB7D]
10 [8514E53B] [76ADBBFA]

David Guetta - Nothing But the Beat (2011) Re-up

Download David Guetta - Nothing But the Beat (2011):