Subcategories

David Sanborn - Only Everything (2010) {Decca}

Posted By: tiburon
David Sanborn - Only Everything (2010) {Decca}

David Sanborn - Only Everything (2010) {Decca}
EAC 0.99pb5 | FLAC tracks level 8 | Cue+Log+M3U | Full Scans 300dpi | 298MB + 5% Recovery
MP3 CBR 320 Kbps | 123MB + 5% Recovery
Genre: Jazz

Only Everything, David Sanborn’s second album for Decca, feels like part two of his debut for the label, 2008’s Here & Gone. That set was a tribute to Ray Charles and Hank Crawford – the alto saxophonist who played with Charles in the '50s and early '60s, and influenced Sanborn tremendously. That set featured loads of vocals and tightly arranged tunes that were indicative of the performances of Charles' bands. Only Everything delves into more of that territory, but this time, Sanborn reflects more heavily on Crawford and David “Fathead” Newman, another legendary Charles ace from roughly the same period.
Track List
01. The Peeper 3:43
02. Only Everything (For Genevieve) 8:01
03. Hard Times 5:01
04. Let The Good Times Roll (featuring Joss Stone) 3:04
05. Baby Won't You Please Come Home 8:02
06. You've Changed 6:03
07. Hallelujah, I Love Her So (featuring James Taylor) 3:58
08. Blues In The Night 7:52

musicians
David Sanborn - Selmer saxophones, Valdoren Reeds
Steve Gadd - drums
Bob Malach - tenor sax
Joey De Francesco - Hammond B3
Frank Basile - baritone sax
Mike Davis - bass trombone
Tony Kadleck - trumpet
James Taylor - vocals on track 7
Joss Stone - vocals on track 4

Recorded and mixed at the Legacy Recording Studios,NYC

Produced by Phil Ramone


––––––––––––––––––––––––––––––––––––––––
Analyzed: David Sanborn / Only Everything
––––––––––––––––––––––––––––––––––––––––

DR Peak RMS Duration Track
––––––––––––––––––––––––––––––––––––––––
DR10 -0.01 dB -13.37 dB 3:44 01-The Peeper
DR12 -0.01 dB -14.76 dB 8:03 02-Only Everything (for Genevieve)
DR10 -0.06 dB -12.28 dB 5:02 03-Hard Times
DR9 -0.47 dB -11.88 dB 3:05 04-Let The Good Times Roll (Featuring Joss Stone)
DR11 -0.54 dB -13.50 dB 8:02 05-Baby Won t You Please Come Home
DR11 -0.32 dB -14.45 dB 6:03 06-You've Changed
DR10 -0.30 dB -12.68 dB 3:58 07-Hallelujah, I Love Her So (featuring James Taylor)
DR12 -0.52 dB -14.58 dB 7:52 08-Blues In The Night
––––––––––––––––––––––––––––––––––––––––

Number of tracks: 8
Official DR value: DR11

Samplerate: 44100 Hz
Channels: 2
Bits per sample: 16
Bitrate: 832 kbps
Codec: FLAC
================================================================================

David Sanborn - Only Everything (2010) {Decca}
David Sanborn - Only Everything (2010) {Decca}
David Sanborn - Only Everything (2010) {Decca}