Subcategories

David Surkamp – Dancing On The Edge Of A Teacup: The Pavlov's Dog Trinity Sessions (2007)

Posted By: uff
David Surkamp – Dancing On The Edge Of A Teacup: The Pavlov's Dog Trinity Sessions (2007)

David Surkamp – Dancing On The Edge Of A Teacup: The Pavlov's Dog Trinity Sessions (2007)
Rock | 1cd | EAC Rip | Flac + Cue + Log | covers
Rockville 4018996212570 | rel: 2007 | 330Mb

Solo album from the voice of Pavlov’s Dog, David Surkamp, ‘Dancing On The Edge Of A Teacup’, Surkamp is ably supported by longtime friend Billy Costello on drums and keys and by his wife Sara on bass. As ever, Surkamp’s music is unclassifiable. It soars through the pigeon holes, stopping momentarily at a select few, then moves on. There’s a clear connection to the sixties throughout. On the face of it, opener, ‘Looking For My Shadow’ is an energetic, melodic progressive rock workout. But it’s as much an ode to Grace Slick, vocalist with the legendary Jefferson Airplane, an artist who gave Surkamp much encouragement at the start of his career. Surkamp emphasises the salute by lyrically echoing the ‘Airplane’s druggy / Alice In Wonderland hit, ‘White Rabbit’.
The beautiful ‘Hard Again’ has a lilting melody, massed female bgvs and a huge Spector like wall of sound. Similarly, ‘Highlife Bunting’ is an acoustic stroll through a slender melody into a sweet chorus. The song’s folky, dreamy feel is given bite by a cutting electric guitar solo. It becomes clear that Surkamp now favours huge musical landscapes, into which he paints his snapshots of life, few of them well defined but all of them alluring and a joy to experience. Surkamp’s wife, Sara, is an expressive vocalist. Her husky, sultry voice is just right for “Wrong”s mysterious lyrics and big production. Inevitably, David joins in, but she could have handled the song on her own. It would have been a welcome counterpoint. The clanging, chiming ‘Losing My Piano’ gets close to being album standout. There’s a heavy sense of foreboding hanging over this song — a darkly hued, stream of consciousness song, articulating a fear of losing someone’s love. ~revelationz

Track listing
1. Looking For My Shadow 3:31
2. Hard Again 3:47
3. Losing My Piano 6:15
4. Highlife Bunting 4:32
5. Wrong 4:34
6. Ghost Barres 7:13
7. Life In Imperfect Times 3:37
8. On Of These Days 3:24


Exact Audio Copy V0.99 prebeta 3 from 28. July 2007

EAC extraction logfile from 20. March 2008, 2:27

David Surkamp / Dancing On The Edge Of A Teacup

Used drive : Optiarc DVD RW AD-7191S Adapter: 3 ID: 0

Read mode : Secure
Utilize accurate stream : Yes
Defeat audio cache : Yes
Make use of C2 pointers : No

Read offset correction : 6
Overread into Lead-In and Lead-Out : No
Fill up missing offset samples with silence : Yes
Delete leading and trailing silent blocks : No
Null samples used in CRC calculations : Yes
Used interface : Installed external ASPI interface

Used output format : Internal WAV Routines
Sample format : 44.100 Hz; 16 Bit; Stereo


TOC of the extracted CD

Track | Start | Length | Start sector | End sector
––––––––––––––––––––––––––––-
1 | 0:00.00 | 3:30.61 | 0 | 15810
2 | 3:30.61 | 3:46.51 | 15811 | 32811
3 | 7:17.37 | 6:15.35 | 32812 | 60971
4 | 13:32.72 | 4:32.32 | 60972 | 81403
5 | 18:05.29 | 4:33.63 | 81404 | 101941
6 | 22:39.17 | 7:13.35 | 101942 | 134451
7 | 29:52.52 | 3:36.47 | 134452 | 150698
8 | 33:29.24 | 3:24.00 | 150699 | 165998


Range status and errors

Selected range

Filename D:\dog\David\Dancing On The Edge Of A Teacup.wav

Peak level 98.9 %
Range quality 100.0 %
Copy CRC 9921066D
Copy OK

No errors occurred


AccurateRip summary

Track 1 not present in database
Track 2 not present in database
Track 3 not present in database
Track 4 not present in database
Track 5 not present in database
Track 6 not present in database
Track 7 not present in database
Track 8 not present in database

None of the tracks are present in the AccurateRip database

End of status report



[CUETools log; Date: 2014.01.03. 12:09:41; Version: 2.1.4]
[CTDB TOCID: z0QjwXoRyTdpGQ67a2hK1ZPKAFM-] found.
Track | CTDB Status
1 | (1/1) Accurately ripped
2 | (1/1) Accurately ripped
3 | (1/1) Accurately ripped
4 | (1/1) Accurately ripped
5 | (1/1) Accurately ripped
6 | (1/1) Accurately ripped
7 | (1/1) Accurately ripped
8 | (1/1) Accurately ripped
[AccurateRip ID: 000b5a9b-004ccd96-5808a508] found.
Track [ CRC | V2 ] Status
01 [94ab1d3a|bceac0e4] (3+2/5) Accurately ripped
02 [d4715ae4|ca35d359] (3+2/5) Accurately ripped
03 [3667409d|0f9d82fb] (3+2/5) Accurately ripped
04 [a989ed94|cc8cca83] (3+2/5) Accurately ripped
05 [753132cc|62ffd314] (3+2/5) Accurately ripped
06 [33280103|5657ed53] (3+2/5) Accurately ripped
07 [08a77512|e2a0dce2] (3+2/5) Accurately ripped
08 [9359abd7|20feb92c] (3+2/5) Accurately ripped

Track Peak [ CRC32 ] [W/O NULL] [ LOG ]
– 98,9 [9921066D] [DA02D4DD] CRC32
01 98,8 [D1FDAC1E] [6A024B50]
02 98,9 [BF0027C5] [924E8C18]
03 98,9 [00EC7060] [98ADE032]
04 98,9 [4F238042] [4AF841FE]
05 98,9 [B6F320D8] [65F32AD4]
06 98,9 [A9FE2446] [D8A98E1B]
07 98,9 [D9D8D7B1] [0F211207]
08 98,9 [FE18CD09] [113CCEEA]


original uploader unknown, found in my archive