Subcategories

De-Phazz - Detunized Gravity (1997) {2002, Limited Edition} Re-Up

Posted By: popsakov
De-Phazz - Detunized Gravity (1997) {2002, Limited Edition} Re-Up

De-Phazz - Detunized Gravity (1997) {2002, Limited Edition}
2CD | EAC Rip | FLAC (Img) + Cue + Log ~ 743 Mb | MP3 CBR320 ~ 257 Mb
Scans Included | RAR 5% Recovery
Acid Jazz / Future Jazz / Funk / Electronic / Downtempo / Lounge
Mole Listening Pearls #MOLE CD 007L-2

The prolific and long-running De-Phazz (also known as DePhazz) is a contemporary lounge project led by Peter "Pit" Baumgartner, a German-Austrian producer who has surrounded himself with a shifting cast of collaborators that includes vocalists Barbara Lahr, Karl Frierson, and Pat Appleton. Beginning with Detunized Gravity (1997), Baumgartner and company have explored various forms of lounge music, much of it balancing samples with live instrumentation, with innumerable cross-sections of vintage jazz and soul, easy listening, and Latin music. By employing the sounds of classic percussion and jazz instruments such as the trumpet and sax, De Phazz successfully create smooth electro-groove music with an unmissable swinging jazz theme. De Phazz is a unique sound that you must check out. This Limited Edition including bonus CD featuring eight additional songs and alternative versions.

***************

De-Phazz - Detunized Gravity (1997) {2002, Limited Edition} Re-Up

Track List CD1:

01. Roses [07:03]
02. Between 2 Thieves [05:28]
03. Homesick Inc. [04:05]
04. Lovechild [04:51]
05. Cut the Jazz [05:12]
06. Little Company [05:48]
07. Nameless Life [05:31]
08. Good Boy [06:11]
09. Lullaby [05:00]
10. Hero Dead & Gone [03:59]
11. No Jive [04:35]
12. Detunized Gravity [03:46]
13. Free Drift [06:20]

Exact Audio Copy V0.99 prebeta 5 from 4. May 2009

Отчёт EAC об извлечении, выполненном 4. августа 2009, 22:36

De-Phazz / Detunized Gravity

Дисковод: TSSTcorpCDDVDW TS-L632H Adapter: 2 ID: 0

Режим чтения : Достоверность
Использование точного потока : Да
Отключение кэша аудио : Да
Использование указателей C2 : Нет

Коррекция смещения при чтении : 6
Способность читать области Lead-in и Lead-out : Нет
Заполнение пропущенных сэмплов тишиной : Да
Удаление блоков с тишиной в начале и конце : Нет
При вычислениях CRC использовались нулевые сэмплы : Да
Интерфейс : Встроенный Win32-интерфейс для Win NT/2000

Выходной формат : Пользовательский кодировщик
Выбранный битрейт : 1024 kBit/s
Качество : Высокий
Добавление ID3-тэга : Нет
Утилита сжатия : C:\Program Files\Exact Audio Copy\Flac\flac.exe
Дополнительные параметры : -8 -V %s -o %d


TOC извлечённого CD

Трек | Старт | Длительность | Начальный сектор | Конечный сектор
––––––––––––––––––––––––––––––––––-
1 | 0:00.00 | 7:03.09 | 0 | 31733
2 | 7:03.09 | 5:28.59 | 31734 | 56392
3 | 12:31.68 | 4:04.65 | 56393 | 74757
4 | 16:36.58 | 4:50.54 | 74758 | 96561
5 | 21:27.37 | 5:12.17 | 96562 | 119978
6 | 26:39.54 | 5:47.39 | 119979 | 146042
7 | 32:27.18 | 5:30.66 | 146043 | 170858
8 | 37:58.09 | 6:11.20 | 170859 | 198703
9 | 44:09.29 | 4:59.67 | 198704 | 221195
10 | 49:09.21 | 3:59.21 | 221196 | 239141
11 | 53:08.42 | 4:35.10 | 239142 | 259776
12 | 57:43.52 | 3:46.02 | 259777 | 276728
13 | 61:29.54 | 6:19.71 | 276729 | 305224


Характеристики диапазона извлечения и сообщения об ошибках

Выбранный диапазон

Имя файла C:\Music\De-Phazz - Detuized Gravity\[CD#1]\De-Phazz - Detunized Gravity.wav

Пиковый уровень 100.0 %
Качество диапазона 100.0 %
CRC теста 1B0B304E
CRC копии 1B0B304E
Копирование… OK

Ошибок не произошло


AccurateRip: сводка

Трек 1 точность не определена (достоверность 10) [6D1BB6D0], AccurateRip вернул [33F41EBE]
Трек 2 точность не определена (достоверность 10) [88F91E00], AccurateRip вернул [7573A798]
Трек 3 точность не определена (достоверность 10) [A1E4779A], AccurateRip вернул [08FAC252]
Трек 4 точность не определена (достоверность 10) [3F97593E], AccurateRip вернул [1C4E1DFE]
Трек 5 точность не определена (достоверность 10) [86B0630D], AccurateRip вернул [CDCE1765]
Трек 6 точность не определена (достоверность 10) [B180F7C5], AccurateRip вернул [0E0463ED]
Трек 7 точность не определена (достоверность 10) [43BA719A], AccurateRip вернул [72C9C4F2]
Трек 8 точность не определена (достоверность 10) [E76F4394], AccurateRip вернул [11D33264]
Трек 9 точность не определена (достоверность 10) [3F73AF58], AccurateRip вернул [16D1D9A0]
Трек 10 точность не определена (достоверность 10) [A5AED11F], AccurateRip вернул [22A6B027]
Трек 11 точность не определена (достоверность 10) [9B4E569D], AccurateRip вернул [E691350D]
Трек 12 точность не определена (достоверность 10) [E42ECEA3], AccurateRip вернул [AE9F996B]
Трек 13 точность не определена (достоверность 10) [43C7FBFB], AccurateRip вернул [26397B83]

Ни один трек не прошёл проверки на точность
В вашей базе может быть иной вариант штамповки диска

Конец отчёта

De-Phazz - Detunized Gravity (1997) {2002, Limited Edition} Re-Up

Track List CD2:

01. Good Boy (live) [05:04]
02. Riddim Wize [04:57]
03. Nameless Life (RePoetry) [05:18]
04. Hero Dead And Gone (original album mix) [04:56]
05. No Jive (ripped version) [04:26]
06. Hero Dead And Gone (discotheque remix) [05:09]
07. Good Boy (ManMachineMan remix) [07:26]

Exact Audio Copy V0.99 prebeta 5 from 4. May 2009

Отчёт EAC об извлечении, выполненном 5. августа 2009, 0:04

De-Phazz / Detunized Gravity (Bonus CD)

Дисковод: TSSTcorpCDDVDW TS-L632H Adapter: 2 ID: 0

Режим чтения : Достоверность
Использование точного потока : Да
Отключение кэша аудио : Да
Использование указателей C2 : Нет

Коррекция смещения при чтении : 6
Способность читать области Lead-in и Lead-out : Нет
Заполнение пропущенных сэмплов тишиной : Да
Удаление блоков с тишиной в начале и конце : Нет
При вычислениях CRC использовались нулевые сэмплы : Да
Интерфейс : Встроенный Win32-интерфейс для Win NT/2000

Выходной формат : Пользовательский кодировщик
Выбранный битрейт : 1024 kBit/s
Качество : Высокий
Добавление ID3-тэга : Нет
Утилита сжатия : C:\Program Files\Exact Audio Copy\Flac\flac.exe
Дополнительные параметры : -8 -V %s -o %d


TOC извлечённого CD

Трек | Старт | Длительность | Начальный сектор | Конечный сектор
––––––––––––––––––––––––––––––––––-
1 | 0:00.00 | 5:04.03 | 0 | 22802
2 | 5:04.03 | 4:57.11 | 22803 | 45088
3 | 10:01.14 | 5:18.32 | 45089 | 68970
4 | 15:19.46 | 4:55.32 | 68971 | 91127
5 | 20:15.03 | 4:26.70 | 91128 | 111147
6 | 24:41.73 | 5:08.06 | 111148 | 134253
7 | 29:50.04 | 7:26.00 | 134254 | 167703


Характеристики диапазона извлечения и сообщения об ошибках

Выбранный диапазон

Имя файла C:\Music\De-Phazz - Detuized Gravity\[CD#2]\De-Phazz - Detunized Gravity (Bonus CD).wav

Пиковый уровень 100.0 %
Качество диапазона 100.0 %
CRC теста 9525C79A
CRC копии 9525C79A
Копирование… OK

Ошибок не произошло


AccurateRip: сводка

Трек 1 нет в базе данных
Трек 2 нет в базе данных
Трек 3 нет в базе данных
Трек 4 нет в базе данных
Трек 5 нет в базе данных
Трек 6 нет в базе данных
Трек 7 нет в базе данных

Ни одного трека нет в базе AccurateRip

Конец отчёта

De-Phazz - Detunized Gravity (1997) {2002, Limited Edition} Re-Up

All thanks go to the original ripper(s) …

>>> "De-Phazz" in my Blog <<<

Download from icerbox.com: