Subcategories

De-Phazz - No Jive (2002)

Posted By: popsakov
De-Phazz - No Jive (2002)

De-Phazz - No Jive (2002)
EAC Rip | FLAC (Tracks) + Cue + m3u + Log ~ 470 Mb | MP3 CBR320 ~ 167 Mb
Scans Included | RAR 5% Recovery
Future Jazz / Acid Jazz / Lounge / Funk / Electronic / Trip Hop / Downtempo
BMG Berlin Music GmbH #V220

The prolific and long-running De-Phazz (also known as DePhazz) is a contemporary lounge project led by Peter "Pit" Baumgartner, a German-Austrian producer who has surrounded himself with a shifting cast of collaborators that includes vocalists Barbara Lahr, Karl Frierson, and Pat Appleton. Beginning with Detunized Gravity (1997), Baumgartner and company have explored various forms of lounge music, much of it balancing samples with live instrumentation, with innumerable cross-sections of vintage jazz and soul, easy listening, and Latin music.

***************

De-Phazz - No Jive (2002)

Track List:

01. Squeeze The Trigger [0:02:44.71]
02. Cut The Jazz [0:05:11.19]
03. Between 2 Thieves [0:05:26.73]
04. Jazz Music [0:03:36.31]
05. Roses [0:07:02.20]
06. Jim The Jinn [0:03:22.58]
07. No Jive [0:04:34.21]
08. Saw It On The Radio [0:01:48.10]
09. Godsdog [0:03:18.37]
10. Loves Labours Lost [0:05:26.42]
11. Better Now [0:02:58.61]
12. Heatfixer [0:03:32.66]
13. Cafe Coca [0:04:42.49]
14. Hero Dead & Gone [0:05:08.58]
15. Information [0:04:10.22]
16. Down With You [0:04:46.73]

Exact Audio Copy V1.0 beta 3 from 29. August 2011

Отчёт EAC об извлечении, выполненном 25. июля 2015, 0:17

De-Phazz / No Jive

Дисковод: ASUS DRW-1814BLT Adapter: 4 ID: 0

Режим чтения : Достоверность
Использование точного потока : Да
Отключение кэша аудио : Да
Использование указателей C2 : Нет

Коррекция смещения при чтении : 6
Способность читать области Lead-in и Lead-out : Нет
Заполнение пропущенных сэмплов тишиной : Да
Удаление блоков с тишиной в начале и конце : Нет
При вычислениях CRC использовались нулевые сэмплы : Да
Интерфейс : Встроенный Win32-интерфейс для Win NT/2000
Обработка зазоров : Добавлено к предыдущему треку

Выходной формат : Пользовательский кодировщик
Выбранный битрейт : 128 kBit/s
Качество : Высокий
Добавление ID3-тега : Нет
Утилита сжатия : C:\Program Files\Exact Audio Copy\Flac\flac.exe
Дополнительные параметры : -V -8 -T "Genre=%genre%" -T "Artist=%artist%" -T "Title=%title%" -T "Album=%albumtitle%" -T "Date=%year%" -T "Tracknumber=%tracknr%" -T "Comment=EAC1.0b2 FLAC -8" %source%


TOC извлечённого CD

Трек | Старт | Длительность | Начальный сектор | Конечный сектор
––––––––––––––––––––––––––––––––––-
1 | 0:00.00 | 2:44.71 | 0 | 12370
2 | 2:44.71 | 5:11.19 | 12371 | 35714
3 | 7:56.15 | 5:26.73 | 35715 | 60237
4 | 13:23.13 | 3:36.31 | 60238 | 76468
5 | 16:59.44 | 7:02.20 | 76469 | 108138
6 | 24:01.64 | 3:22.58 | 108139 | 123346
7 | 27:24.47 | 4:34.21 | 123347 | 143917
8 | 31:58.68 | 1:48.10 | 143918 | 152027
9 | 33:47.03 | 3:18.37 | 152028 | 166914
10 | 37:05.40 | 5:26.42 | 166915 | 191406
11 | 42:32.07 | 2:58.61 | 191407 | 204817
12 | 45:30.68 | 3:32.66 | 204818 | 220783
13 | 49:03.59 | 4:42.49 | 220784 | 241982
14 | 53:46.33 | 5:08.58 | 241983 | 265140
15 | 58:55.16 | 4:10.22 | 265141 | 283912
16 | 63:05.38 | 4:46.73 | 283913 | 305435


Трек 1

Имя файла R:\Раздача 50\De-Phazz - 2002 - No Jive\01 Squeeze The Trigger.wav

Длина предзазора 0:00:02.00

Пиковый уровень 96.6 %
Скорость извлечения 5.2 X
Качество трека 100.0 %
CRC теста B8478C1F
CRC копии B8478C1F
Трек не обнаружен в базе AccurateRip
Копирование… OK

Трек 2

Имя файла R:\Раздача 50\De-Phazz - 2002 - No Jive\02 Cut The Jazz.wav

Длина предзазора 0:00:01.00

Пиковый уровень 96.6 %
Скорость извлечения 6.4 X
Качество трека 100.0 %
CRC теста E12C09B4
CRC копии E12C09B4
Трек не обнаружен в базе AccurateRip
Копирование… OK

Трек 3

Имя файла R:\Раздача 50\De-Phazz - 2002 - No Jive\03 Between 2 Thieves.wav

Длина предзазора 0:00:01.00

Пиковый уровень 96.6 %
Скорость извлечения 5.5 X
Качество трека 99.9 %
CRC теста 57CE68E0
CRC копии 57CE68E0
Трек не обнаружен в базе AccurateRip
Копирование… OK

Трек 4

Имя файла R:\Раздача 50\De-Phazz - 2002 - No Jive\04 Jazz Music.wav

Длина предзазора 0:00:01.00

Пиковый уровень 96.6 %
Скорость извлечения 6.2 X
Качество трека 100.0 %
CRC теста 38157930
CRC копии 38157930
Трек не обнаружен в базе AccurateRip
Копирование… OK

Трек 5

Имя файла R:\Раздача 50\De-Phazz - 2002 - No Jive\05 Roses.wav

Длина предзазора 0:00:01.00

Пиковый уровень 96.6 %
Скорость извлечения 6.7 X
Качество трека 99.9 %
CRC теста C9E2E683
CRC копии C9E2E683
Трек не обнаружен в базе AccurateRip
Копирование… OK

Трек 6

Имя файла R:\Раздача 50\De-Phazz - 2002 - No Jive\06 Jim The Jinn.wav

Длина предзазора 0:00:01.00

Пиковый уровень 100.0 %
Скорость извлечения 7.0 X
Качество трека 100.0 %
CRC теста F22E372A
CRC копии F22E372A
Трек не обнаружен в базе AccurateRip
Копирование… OK

Трек 7

Имя файла R:\Раздача 50\De-Phazz - 2002 - No Jive\07 No Jive.wav

Длина предзазора 0:00:01.00

Пиковый уровень 96.6 %
Скорость извлечения 8.9 X
Качество трека 100.0 %
CRC теста 45A606BD
CRC копии 45A606BD
Трек не обнаружен в базе AccurateRip
Копирование… OK

Трек 8

Имя файла R:\Раздача 50\De-Phazz - 2002 - No Jive\08 Saw It On The Radio.wav

Длина предзазора 0:00:01.00

Пиковый уровень 100.0 %
Скорость извлечения 7.6 X
Качество трека 100.0 %
CRC теста 42B276D7
CRC копии 42B276D7
Трек не обнаружен в базе AccurateRip
Копирование… OK

Трек 9

Имя файла R:\Раздача 50\De-Phazz - 2002 - No Jive\09 Godsdog.wav

Длина предзазора 0:00:01.00

Пиковый уровень 96.6 %
Скорость извлечения 9.0 X
Качество трека 100.0 %
CRC теста 8B4C97DE
CRC копии 8B4C97DE
Трек не обнаружен в базе AccurateRip
Копирование… OK

Трек 10

Имя файла R:\Раздача 50\De-Phazz - 2002 - No Jive\10 Loves Labours Lost.wav

Длина предзазора 0:00:01.00

Пиковый уровень 100.0 %
Скорость извлечения 9.5 X
Качество трека 100.0 %
CRC теста 4C31C1A3
CRC копии 4C31C1A3
Трек не обнаружен в базе AccurateRip
Копирование… OK

Трек 11

Имя файла R:\Раздача 50\De-Phazz - 2002 - No Jive\11 Better Now.wav

Длина предзазора 0:00:01.00

Пиковый уровень 100.0 %
Скорость извлечения 9.3 X
Качество трека 100.0 %
CRC теста 4B854578
CRC копии 4B854578
Трек не обнаружен в базе AccurateRip
Копирование… OK

Трек 12

Имя файла R:\Раздача 50\De-Phazz - 2002 - No Jive\12 Heatfixer.wav

Длина предзазора 0:00:01.00

Пиковый уровень 100.0 %
Скорость извлечения 9.5 X
Качество трека 100.0 %
CRC теста F633A6A5
CRC копии F633A6A5
Трек не обнаружен в базе AccurateRip
Копирование… OK

Трек 13

Имя файла R:\Раздача 50\De-Phazz - 2002 - No Jive\13 Cafe Coca.wav

Длина предзазора 0:00:01.00

Пиковый уровень 96.6 %
Скорость извлечения 9.1 X
Качество трека 100.0 %
CRC теста 2C5520F7
CRC копии 2C5520F7
Трек не обнаружен в базе AccurateRip
Копирование… OK

Трек 14

Имя файла R:\Раздача 50\De-Phazz - 2002 - No Jive\14 Hero Dead & Gone.wav

Длина предзазора 0:00:01.00

Пиковый уровень 96.6 %
Скорость извлечения 8.5 X
Качество трека 99.9 %
CRC теста 3256F8B5
CRC копии 3256F8B5
Трек не обнаружен в базе AccurateRip
Копирование… OK

Трек 15

Имя файла R:\Раздача 50\De-Phazz - 2002 - No Jive\15 Information.wav

Длина предзазора 0:00:01.00

Пиковый уровень 96.6 %
Скорость извлечения 8.4 X
Качество трека 99.9 %
CRC теста 5BA439D9
CRC копии 5BA439D9
Трек не обнаружен в базе AccurateRip
Копирование… OK

Трек 16

Имя файла R:\Раздача 50\De-Phazz - 2002 - No Jive\16 Down With You.wav

Длина предзазора 0:00:01.00

Пиковый уровень 96.6 %
Скорость извлечения 9.8 X
Качество трека 100.0 %
CRC теста BFC6A571
CRC копии BFC6A571
Трек не обнаружен в базе AccurateRip
Копирование… OK


Ни одного трека нет в базе AccurateRip

Ошибок не произошло

Конец отчёта

==== Контрольная сумма отчёта 8C94003A299C0869D19485573E1D71EF29AAEAB1720D3E6A3B7C13E4283C98EC ====

[CUETools log; Date: 23.04.2019 10:23:22; Version: 2.1.6]
[CTDB TOCID: 9YXd0gk5CwEWEC.VLwe.0_gohPc-] disk not present in database.
[AccurateRip ID: 00278f6e-01d8dd08-e20fe810] disk not present in database.

Track Peak [ CRC32 ] [W/O NULL] [ LOG ]
– 100,0 [89F3F1FD] [CF84DED7]
01 96,6 [B8478C1F] [30B0838E] CRC32
02 96,6 [E12C09B4] [14A91FD3] CRC32
03 96,6 [57CE68E0] [54A7C39F] CRC32
04 96,6 [38157930] [7B25983B] CRC32
05 96,6 [C9E2E683] [86CBD1AB] CRC32
06 100,0 [F22E372A] [76FB758E] CRC32
07 96,6 [45A606BD] [B15BF12E] CRC32
08 100,0 [42B276D7] [973FCFC7] CRC32
09 96,6 [8B4C97DE] [36B57031] CRC32
10 100,0 [4C31C1A3] [756C1A98] CRC32
11 100,0 [4B854578] [F01396F4] CRC32
12 100,0 [F633A6A5] [8F23AA7B] CRC32
13 96,6 [2C5520F7] [C6096666] CRC32
14 96,6 [3256F8B5] [D8A0FFBE] CRC32
15 96,6 [5BA439D9] [732D4905] CRC32
16 96,6 [BFC6A571] [744E9731] CRC32

De-Phazz - No Jive (2002)

All thanks go to the original ripper(s) …

>>> De-Phazz in my Blog <<<

Download from icerbox.com: