Subcategories

De-Phazz - Plastic Love Memory (2002)

Posted By: popsakov
De-Phazz - Plastic Love Memory (2002)

De-Phazz - Plastic Love Memory (2002)
EAC Rip | FLAC (Img) + Cue + Log ~ 459 Mb | MP3 CBR320 ~ 167 Mb
Scans Included | RAR 5% Recovery
Future Jazz / Acid Jazz / Jazz-Dance / Lounge / Trip Hop / Electronic / Downtempo
Edel Records #0146642ERE

The prolific and long-running De-Phazz (also known as DePhazz) is a contemporary lounge project led by Peter "Pit" Baumgartner, a German-Austrian producer who has surrounded himself with a shifting cast of collaborators that includes vocalists Barbara Lahr, Karl Frierson, and Pat Appleton. Beginning with Detunized Gravity (1997), Baumgartner and company have explored various forms of lounge music, much of it balancing samples with live instrumentation, with innumerable cross-sections of vintage jazz and soul, easy listening, and Latin music. By employing the sounds of classic percussion and jazz instruments such as the trumpet and sax, De Phazz successfully create smooth electro-groove music with an unmissable swinging jazz theme. De Phazz is a unique sound that you must check out.

***************

De-Phazz - Plastic Love Memory (2002)

Track List:

01. Love Set You Going [de-phazz vs. Lahr mix] [5:10]
02. Nameless Life [RaPoetry] [5:14]
03. The Mambo Craze [swing mix] [3:14]
04. Riddim Wize [4:53]
05. Hero Dead And Gone [reversed mix] [4:36]
06. Downtown Tazacorte [2:26]
07. Jazz Music [strings] [3:33]
08. Radio Sol [1:43]
09. Plastic Love Memory [no. nine] [4:37]
10. Good Boy [Stepin' Nerve mix] [5:54]
11. Drop Down Low [3:46]
12. No Jive [ripped version] [4:31]
13. Good Boy [ManMachineMan rmx] [7:25]
14. Hero Dead And Gone [discotheque mix] [4:55]
15. The Mambo Craze [Ur Craze rmx] [3:34]

EAC extraction logfile from 22. August 2007, 16:33 for CD
de-Phazz / Plastic Love Memory

Used drive : TOSHIBA CD/DVDW SDR5472C Adapter: 1 ID: 0
Read mode : Secure with NO C2, accurate stream, disable cache
Read offset correction : 116
Overread into Lead-In and Lead-Out : No

Used output format : Internal WAV Routines
44.100 Hz; 16 Bit; Stereo

Other options :
Fill up missing offset samples with silence : Yes
Delete leading and trailing silent blocks : No
Native Win32 interface for Win NT & 2000


Range status and errors
Selected range
Filename I:\SID\de-Phazz\de-Phazz - Plastic Love Memory\de-Phazz - Plastic Love Memory.wav

Peak level 100.0 %
Range quality 100.0 %
CRC 12C5F6AA
Copy OK

No errors occured

End of status report

[CUETools log; Date: 14.04.2019 10:17:27; Version: 2.1.6]
[CTDB TOCID: Lyp1PCy8xM2MguQ4_FxBMt5vqJk-] found.
Track | CTDB Status
1 | (130/132) Accurately ripped
2 | (129/132) Accurately ripped
3 | (128/132) Accurately ripped
4 | (130/132) Accurately ripped
5 | (130/132) Accurately ripped
6 | (130/132) Accurately ripped
7 | (130/132) Accurately ripped
8 | (130/132) Accurately ripped
9 | (130/132) Accurately ripped
10 | (130/132) Accurately ripped
11 | (129/132) Accurately ripped
12 | (130/132) Accurately ripped
13 | (130/132) Accurately ripped
14 | (129/132) Accurately ripped
15 | ( 3/132) Accurately ripped, or (86/132) differs in 47994 samples @03:32:05-03:32:69,03:33:04, or (38/132) differs in 47994 samples @03:32:05-03:32:69,03:33:04
[AccurateRip ID: 00232c59-018d607a-d60f5a0f] found.
Track [ CRC | V2 ] Status
01 [b8ee7810|0f0264c6] (00+00/33) No match
02 [0a35edef|0f2157ee] (00+00/32) No match
03 [cec475b2|8f3a615f] (00+00/32) No match
04 [ca716711|e6fbbd51] (00+00/32) No match
05 [9ae19f34|102bc8c5] (00+00/32) No match
06 [1cdb60e3|a41d8a88] (00+00/32) No match
07 [4b9f8d11|cbd2bbb4] (00+00/32) No match
08 [b3ebf12c|28d0c98f] (00+00/32) No match
09 [fc89e48e|3dda1929] (00+00/32) No match
10 [7c46057b|0692de57] (00+00/32) No match
11 [3f9a37d7|ed31a1f2] (00+00/32) No match
12 [961091d0|1712d213] (00+00/32) No match
13 [c880e541|b5fc6c5b] (00+00/32) No match
14 [60af937c|5e405e77] (00+00/32) No match
15 [240fb264|01b49c2a] (00+00/33) No match
Offsetted by 22:
01 [94515e38] (06/33) Accurately ripped
02 [303baf3d] (06/32) Accurately ripped
03 [c8bb9351] (06/32) Accurately ripped
04 [1ef7c984] (06/32) Accurately ripped
05 [b203d22c] (06/32) Accurately ripped
06 [ac6dd9e9] (06/32) Accurately ripped
07 [f6330f8f] (06/32) Accurately ripped
08 [66c952dc] (06/32) Accurately ripped
09 [301d6865] (06/32) Accurately ripped
10 [18314967] (06/32) Accurately ripped
11 [cc520851] (06/32) Accurately ripped
12 [2203c5a5] (06/32) Accurately ripped
13 [7e03b5fb] (06/32) Accurately ripped
14 [cdb64aa0] (06/32) Accurately ripped
15 [6f5ca5b4] (06/33) Accurately ripped
Offsetted by 1984:
01 [c41efd85] (00/33) No match (V2 was not tested)
02 [f5edfac2] (00/32) No match (V2 was not tested)
03 [db71058b] (00/32) No match (V2 was not tested)
04 [ed71d3b9] (00/32) No match (V2 was not tested)
05 [52a31b21] (00/32) No match (V2 was not tested)
06 [da3be9e6] (00/32) No match (V2 was not tested)
07 [947a17e2] (00/32) No match (V2 was not tested)
08 [c068e987] (00/32) No match (V2 was not tested)
09 [4e818adf] (00/32) No match (V2 was not tested)
10 [0f296ca8] (00/32) No match (V2 was not tested)
11 [589c8eaa] (00/32) No match (V2 was not tested)
12 [da6ce1e2] (00/32) No match (V2 was not tested)
13 [16960f81] (00/32) No match (V2 was not tested)
14 [f76a45fc] (00/32) No match (V2 was not tested)
15 [c213f464] (00/33) No match (V2 was not tested)
Offsetted by 2002:
01 [71ce5a49] (06/33) Accurately ripped
02 [7c5becf7] (06/32) Accurately ripped
03 [97368a6e] (06/32) Accurately ripped
04 [4c33a480] (06/32) Accurately ripped
05 [a91b7575] (06/32) Accurately ripped
06 [d2642d10] (06/32) Accurately ripped
07 [e6e5bff1] (06/32) Accurately ripped
08 [85cdcd27] (06/32) Accurately ripped
09 [faf88104] (06/32) Accurately ripped
10 [44f855b7] (06/32) Accurately ripped
11 [ba441d63] (06/32) Accurately ripped
12 [b105b7bf] (06/32) Accurately ripped
13 [4e01175f] (06/32) Accurately ripped
14 [2212ad48] (06/32) Accurately ripped
15 [e86a2fd4] (00/33) No match (V2 was not tested)
Offsetted by 2606:
01 [d008762b] (00/33) No match
02 [7d49c6fc] (00/32) No match
03 [61a54ad0] (00/32) No match
04 [b2578e81] (00/32) No match
05 [620b3141] (00/32) No match
06 [b051e41c] (00/32) No match
07 [5bac6378] (00/32) No match
08 [eefb19d2] (00/32) No match
09 [324f5fbd] (00/32) No match
10 [962a2e88] (00/32) No match
11 [1f546765] (00/32) No match
12 [25966cbf] (00/32) No match
13 [ae089123] (00/32) No match (V2 was not tested)
14 [47b3c5b0] (00/32) No match
15 [b5f0a4f4] (00/33) No match
Offsetted by 2648:
01 [b04e99a6] (06/33) Accurately ripped
02 [d4bf8b20] (06/32) Accurately ripped
03 [5c41fb1d] (06/32) Accurately ripped
04 [a158135d] (06/32) Accurately ripped
05 [d5738352] (06/32) Accurately ripped
06 [021e62d4] (06/32) Accurately ripped
07 [d9b14758] (06/32) Accurately ripped
08 [37ae26eb] (06/32) Accurately ripped
09 [42714832] (06/32) Accurately ripped
10 [1f1af66d] (06/32) Accurately ripped
11 [953f1bd2] (06/32) Accurately ripped
12 [4cb8ab80] (06/32) Accurately ripped
13 [da024e29] (06/32) Accurately ripped
14 [00920c0c] (06/32) Accurately ripped
15 [ba0f2fa4] (00/33) No match (V2 was not tested)

Track Peak [ CRC32 ] [W/O NULL] [ LOG ]
– 100,0 [12C5F6AA] [DDCB8A38] CRC32
01 85,0 [7AE7525E] [81ED8A79]
02 100,0 [95E6A63E] [CFE26605]
03 100,0 [B8D7A292] [5896DFE0]
04 96,8 [349947B2] [C9C68AF6]
05 100,0 [2886F13E] [01F5198C]
06 96,5 [6C2A71CD] [17197335]
07 96,6 [97B64B84] [976AF940]
08 96,6 [49B5A7E4] [298D0B86]
09 96,6 [D017F1FA] [83C10A05]
10 81,3 [1D602D4B] [8D0E1461]
11 96,6 [498AB952] [92C95C10]
12 94,4 [80803902] [D67902DB]
13 99,9 [CF468B78] [6B7FECFB]
14 100,0 [B4C84A35] [4C76A9A1]
15 99,9 [E5539859] [EDDA412A]

De-Phazz - Plastic Love Memory (2002)

All thanks go to the original ripper(s) …

>>> "De-Phazz" in my Blog <<<

Download from icerbox.com: