Subcategories

Dean Martin - A Winter Romance (1959) {1989, Reissue}

Posted By: popsakov
Dean Martin - A Winter Romance (1959) {1989, Reissue}

Dean Martin - A Winter Romance (1959) {1989, Reissue}
EAC Rip | FLAC (Img) + Cue + Log ~ 188 Mb | MP3 CBR320 ~ 87 Mb
Full Scans (PNG, 400 dpi) ~ 109 Mb | RAR 5% Recovery
Jazz, Pop, Vocal, Standards | Capitol Records #CDP 7 93115 2

A Winter Romance is perhaps best described as a "seasonal" album rather than a Christmas or holiday release, despite the inclusion of such familiar fare as "White Christmas" and "Winter Wonderland." Dean Martin has also included such standards as "The Things We Did Last Summer" and "June in January," as well as some specially written material such as Sammy Cahn and Ken Lane's title song and "It Won't Cool Off." Nevertheless, with its lush strings, well-scrubbed vocal choruses, and buoyant mood, this collection has an appropriately festive feel. Martin does a competent job, even having fun here and there when the song allows him to present his take on a similar baritone (Bing Crosby on "White Christmas"; Vaughn Monroe on "Let It Snow! Let It Snow! Let It Snow!"), or when the subject matter strays to something more comfortably suggestive like "Baby, It's Cold Outside" (performed with a female vocal chorus instead of a single female duet partner). All of which is to say that Martin makes the best of the situation without doing anything special with it. Some reissues add one track, "Christmas Blues," recorded in 1953.
~ William Ruhlmann, All Music

***************

Dean Martin - A Winter Romance (1959) {1989, Reissue}

Dean Martin - A Winter Romance (1959) {1989, Reissue}

Track List:

01. A Winter Romance [3:02]
02. Let It Snow! Let It Snow! Let It Snow! [1:58]
03. The Things We Did Last Summer [3:42]
04. I've Got My Love To Keep Me Warm [2:45]
05. June In January [2:48]
06. Canadian Sunset [3:21]
07. Winter Wonderland [1:55]
08. Out In The Cold Again [3:39]
09. Baby, It's Cold Outside [2:39]
10. Rudolph The Red-Nosed Reindeer [2:18]
11. White Christmas [2:31]
12. It Won't Cool Off [2:30]
13. The Christmas Blues (1953-Bonus) [2:54]

Exact Audio Copy V1.0 beta 3 from 29. August 2011

EAC extraction logfile from 22. December 2017, 19:35

Dean Martin / A Winter Romance

Used drive : PIONEER BD-RW BDR-TD03 Adapter: 0 ID: 1

Read mode : Secure
Utilize accurate stream : Yes
Defeat audio cache : Yes
Make use of C2 pointers : No

Read offset correction : 667
Overread into Lead-In and Lead-Out : No
Fill up missing offset samples with silence : Yes
Delete leading and trailing silent blocks : No
Null samples used in CRC calculations : Yes
Used interface : Native Win32 interface for Win NT & 2000

Used output format : User Defined Encoder
Selected bitrate : 768 kBit/s
Quality : High
Add ID3 tag : No
Command line compressor : C:\Program Files (x86)\Exact Audio Copy\FLAC\FLAC.EXE
Additional command line options : -6 -V -T "ARTIST=%artist%" -T "TITLE=%title%" -T "ALBUM=%albumtitle%" -T "DATE=%year%" -T "TRACKNUMBER=%tracknr%" -T "GENRE=%genre%" -T "COMMENT=%comment%" -T "BAND=%albuminterpret%" -T "ALBUMARTIST=%albuminterpret%" -T "COMPOSER=%composer%" %haslyrics%–tag-from-file=LYRICS="%lyricsfile%"%haslyrics% -T "DISCNUMBER=%cdnumber%" -T "TOTALDISCS=%totalcds%" -T "TOTALTRACKS=%numtracks%" %hascover%–picture="%coverfile%"%hascover% %source% -o %dest%


TOC of the extracted CD

Track | Start | Length | Start sector | End sector
––––––––––––––––––––––––––––-
1 | 0:00.00 | 3:01.50 | 0 | 13624
2 | 3:01.50 | 1:58.32 | 13625 | 22506
3 | 5:00.07 | 3:42.08 | 22507 | 39164
4 | 8:42.15 | 2:44.72 | 39165 | 51536
5 | 11:27.12 | 2:48.35 | 51537 | 64171
6 | 14:15.47 | 3:21.30 | 64172 | 79276
7 | 17:37.02 | 1:55.20 | 79277 | 87921
8 | 19:32.22 | 3:39.30 | 87922 | 104376
9 | 23:11.52 | 2:38.65 | 104377 | 116291
10 | 25:50.42 | 2:17.45 | 116292 | 126611
11 | 28:08.12 | 2:31.23 | 126612 | 137959
12 | 30:39.35 | 2:29.72 | 137960 | 149206
13 | 33:09.32 | 2:54.00 | 149207 | 162256


Range status and errors

Selected range

Filename C:\Users\Deris\Desktop\MartiWint\Dean Martin - A Winter Romance.wav

Peak level 94.8 %
Extraction speed 4.3 X
Range quality 100.0 %
Test CRC 24EFAAEE
Copy CRC 24EFAAEE
Copy OK

No errors occurred


AccurateRip summary

Track 1 accurately ripped (confidence 8) [B937135A] (AR v2)
Track 2 accurately ripped (confidence 8) [CCF766D3] (AR v2)
Track 3 accurately ripped (confidence 8) [FA43F54F] (AR v2)
Track 4 accurately ripped (confidence 8) [A49FF9A1] (AR v2)
Track 5 accurately ripped (confidence 7) [EBA89B4B] (AR v2)
Track 6 accurately ripped (confidence 8) [BF5B31F1] (AR v2)
Track 7 accurately ripped (confidence 8) [546EDAB8] (AR v2)
Track 8 accurately ripped (confidence 8) [781A071B] (AR v2)
Track 9 accurately ripped (confidence 8) [CFDF7092] (AR v2)
Track 10 accurately ripped (confidence 8) [EC35B219] (AR v2)
Track 11 accurately ripped (confidence 8) [549D4048] (AR v2)
Track 12 accurately ripped (confidence 7) [BED2D5B6] (AR v2)
Track 13 accurately ripped (confidence 8) [0E1FBEEF] (AR v2)

All tracks accurately ripped

End of status report

–– CUETools DB Plugin V2.1.3

[CTDB TOCID: CGteG0rCJ219g4hYhrJdkd5XYK0-] found, Submit result: CGteG0rCJ219g4hYhrJdkd5XYK0- has been confirmed
[80f0cbcd] (21/24) No match
[93821d9a] (03/24) Accurately ripped


==== Log checksum 9BF8CC60EB7CD1B4DA0B8F47957A7DEDCD3BAA0CEFE15DD2A183F020588B33D1 ====

foobar2000 1.3.16 / Dynamic Range Meter 1.1.1
log date: 2017-12-26 21:52:57

––––––––––––––––––––––––––––––––––––––––
Analyzed: Dean Martin / A Winter Romance
––––––––––––––––––––––––––––––––––––––––

DR Peak RMS Duration Track
––––––––––––––––––––––––––––––––––––––––
DR13 -1.42 dB -18.33 dB 3:02 01-A Winter Romance
DR13 -1.44 dB -18.26 dB 1:58 02-Let It Snow! Let It Snow! Let It Snow!
DR12 -3.64 dB -19.22 dB 3:42 03-The Things We Did Last Summer
DR13 -0.46 dB -18.02 dB 2:45 04-I've Got My Love To Keep Me Warm
DR13 -2.40 dB -20.15 dB 2:48 05-June In January
DR12 -4.08 dB -19.90 dB 3:21 06-Canadian Sunset
DR11 -3.59 dB -18.75 dB 1:55 07-Winter Wonderland
DR12 -0.92 dB -17.50 dB 3:39 08-Out In The Cold Again
DR14 -0.61 dB -19.05 dB 2:39 09-Baby, It's Cold Outside
DR13 -1.37 dB -17.10 dB 2:18 10-Rudolph The Red-Nosed Reindeer
DR12 -4.74 dB -20.52 dB 2:31 11-White Christmas
DR13 -1.07 dB -17.24 dB 2:30 12-It Won't Cool Off
DR14 -1.76 dB -18.86 dB 2:54 13-The Christmas Blues (1953-Bonus)
––––––––––––––––––––––––––––––––––––––––

Number of tracks: 13
Official DR value: DR13

Samplerate: 44100 Hz
Channels: 2
Bits per sample: 16
Bitrate: 696 kbps
Codec: FLAC
================================================================================

[CUETools log; Date: 26.12.2017 21:52:57; Version: 2.1.5]
[CTDB TOCID: CGteG0rCJ219g4hYhrJdkd5XYK0-] found.
Track | CTDB Status
1 | (25/25) Accurately ripped
2 | (25/25) Accurately ripped
3 | (25/25) Accurately ripped
4 | (25/25) Accurately ripped
5 | (25/25) Accurately ripped
6 | (25/25) Accurately ripped
7 | (25/25) Accurately ripped
8 | (25/25) Accurately ripped
9 | (25/25) Accurately ripped
10 | (25/25) Accurately ripped
11 | (25/25) Accurately ripped
12 | (25/25) Accurately ripped
13 | ( 4/25) Accurately ripped
[AccurateRip ID: 00119f5e-00afb1ce-b408730d] found.
Track [ CRC | V2 ] Status
01 [5d0b77f4|b937135a] (00+08/23) Accurately ripped
02 [7b91f685|ccf766d3] (00+08/23) Accurately ripped
03 [ab5508d3|fa43f54f] (00+08/23) Accurately ripped
04 [d2fad0b5|a49ff9a1] (00+08/23) Accurately ripped
05 [cae00cd2|eba89b4b] (00+07/22) Accurately ripped
06 [f2d5b775|bf5b31f1] (00+08/23) Accurately ripped
07 [3215dde0|546edab8] (00+08/23) Accurately ripped
08 [04e08481|781a071b] (00+08/23) Accurately ripped
09 [a856a4fe|cfdf7092] (00+08/23) Accurately ripped
10 [8184c8fb|ec35b219] (00+08/23) Accurately ripped
11 [9ee6d2de|549d4048] (00+08/23) Accurately ripped
12 [a359750d|bed2d5b6] (00+07/22) Accurately ripped
13 [1f78ec87|0e1fbeef] (00+08/23) Accurately ripped
Offsetted by -1634:
01 [1976711a] (00/23) No match (V2 was not tested)
02 [6ad3be9b] (00/23) No match (V2 was not tested)
03 [7ca774df] (00/23) No match (V2 was not tested)
04 [073e6435] (00/23) No match (V2 was not tested)
05 [15d6d1f0] (00/22) No match (V2 was not tested)
06 [18973853] (00/23) No match (V2 was not tested)
07 [515c1456] (00/23) No match (V2 was not tested)
08 [38fddf13] (00/23) No match (V2 was not tested)
09 [dbe4c796] (00/23) No match (V2 was not tested)
10 [735dcf07] (00/23) No match (V2 was not tested)
11 [90d4fdfe] (00/23) No match (V2 was not tested)
12 [5e6d5755] (00/22) No match (V2 was not tested)
13 [525ecc57] (00/23) No match (V2 was not tested)
Offsetted by -1089:
01 [604227b7] (00/23) No match (V2 was not tested)
02 [7d1a1540] (00/23) No match (V2 was not tested)
03 [fa34b339] (00/23) No match (V2 was not tested)
04 [8439b675] (00/23) No match (V2 was not tested)
05 [031a4a51] (00/22) No match (V2 was not tested)
06 [6c0970d4] (00/23) No match (V2 was not tested)
07 [3c1e46cb] (00/23) No match (V2 was not tested)
08 [3c22245a] (00/23) No match (V2 was not tested)
09 [dbc6730a] (00/23) No match (V2 was not tested)
10 [15b29061] (00/23) No match (V2 was not tested)
11 [5c7f216e] (00/23) No match (V2 was not tested)
12 [d36af071] (00/22) No match (V2 was not tested)
13 [4f7e8aef] (00/23) No match (V2 was not tested)
Offsetted by -970:
01 [b011a152] (02/23) Accurately ripped
02 [30c4eb93] (02/23) Accurately ripped
03 [5d7ce04f] (02/23) Accurately ripped
04 [1a1cfa35] (02/23) Accurately ripped
05 [bae6ca88] (02/22) Accurately ripped
06 [574523eb] (02/23) Accurately ripped
07 [2691f4ce] (02/23) Accurately ripped
08 [d75bda3b] (02/23) Accurately ripped
09 [a88ca076] (02/23) Accurately ripped
10 [e1c60277] (02/23) Accurately ripped
11 [d678987e] (02/23) Accurately ripped
12 [ef4fa3f5] (02/22) Accurately ripped
13 [f59e5e97] (00/23) No match (V2 was not tested)
Offsetted by -933:
01 [9ddbd1e3] (00/23) No match (V2 was not tested)
02 [b1c6684c] (00/23) No match (V2 was not tested)
03 [0ea48711] (00/23) No match (V2 was not tested)
04 [d8d9f575] (00/23) No match (V2 was not tested)
05 [70d279ed] (00/22) No match (V2 was not tested)
06 [fac343f0] (00/23) No match (V2 was not tested)
07 [75ebb497] (00/23) No match (V2 was not tested)
08 [bc53fb1e] (00/23) No match (V2 was not tested)
09 [0ef0f7ba] (00/23) No match (V2 was not tested)
10 [38e3b839] (00/23) No match (V2 was not tested)
11 [1caa31ae] (00/23) No match (V2 was not tested)
12 [b324bb81] (00/22) No match (V2 was not tested)
13 [119b5b8f] (00/23) No match (V2 was not tested)

Track Peak [ CRC32 ] [W/O NULL] [ LOG ]
– 94,8 [24EFAAEE] [42FD6C5C] CRC32
01 84,9 [7843C68A] [88DAAA7B]
02 84,7 [529C4F1C] [1B1F2F46]
03 65,7 [BFC8F726] [0811E184]
04 94,8 [3D04D3ED] [7FBF2D03]
05 75,8 [D5755131] [78D25A0C]
06 62,5 [1FDF4108] [E3950580]
07 66,1 [E2FE605F] [565BA67F]
08 89,9 [2F2F477D] [3CE7284A]
09 93,2 [539EE284] [7FD02B72]
10 85,4 [3123F4FB] [A6BE2C50]
11 57,9 [CE2346D8] [AC8ED6AC]
12 88,4 [D79142E7] [2A9C05E4]
13 81,6 [91266441] [BE674F6A]

Dean Martin - A Winter Romance (1959) {1989, Reissue}

All thanks go to Boris1

>>> My Blog <<<

Download from icerbox.com: