Subcategories

Death - Scream Bloody Gore (1987) (2016, Deluxe Edition, 3CD)

Posted By: Necromandus
Death - Scream Bloody Gore (1987) (2016, Deluxe Edition, 3CD)

Death - Scream Bloody Gore (1987) (2016, Deluxe Edition, 3CD)
EAC Rip | FLAC, IMG+CUE+LOG | 1.2 GB | MP3 CBR 320 Kbps | 380 MB | Complete HQ Scans | PNG -> 170 MB
Death Metal | Label: Relapse Records #RR7325 | RAR 3% Rec. | Nitroflare.com

Super limited 3xCD version available exclusively from Relapse.com, featuring all the contents of the 2xCD version along with an exclusive 3rd CD, which includes over 40 minutes of never-before-heard DEATH demo / rehearsal material from May 1986. Housed in deluxe embossed and foil-stamped 8-panel digipak, limited and numbered to 2000 copies.
DEATH's legendary 1987 debut Scream Bloody Gore is more than just an untouchable album - upon its release, it was positively genre-creating. Scream Bloody Gore founded the quintessential death metal sound, with more tormented riffs, screams, and leads than the world had ever imagined, and established Chuck Schuldiner's inimitable phrasing and songwriting style as the most singular voice in the burgeoning genre. Today, the album is viewed unanimously as one of the all-time most important cornerstones of death metal. As the final chapter in Relapse's comprehensive DEATH reissue series, Scream Bloody Gore will now receive the deluxe reissue treatment on a wide variety of formats including 2CD, Limited Edition 3CD, LP, Deluxe 2xLP Boxset, and cassette versions.

Like the preceding DEATH reissues, the deluxe reissue of Scream Bloody Gore has been meticulously remastered from the original tapes by Alan Douches (Death, Mastodon, Nile) and includes a plethora of bonus content, including previously unreleased recordings and rehearsal demos, super-expanded packaging, and brand-new extensive liner notes from former DEATH drummer / Autopsy founder Chris Reifert, Sepultura's Max Cavalera, and original Scream Bloody Gore producer Randy Burns.

~ relapse.com
CD1 Tracklist :

1. Infernal Death - 2:53
2. Zombie Ritual - 4:33
3. Denial Of Life - 3:35
4. Sacrificial - 3:42
5. Mutilation - 3:28
6. Regurgitated Guts - 3:44
7. Baptized In Blood - 4:29
8. Torn To Pieces - 3:36
9. Evil Dead - 2:59
10. Scream Bloody Gore - 4:33
11. Beyond The Unholy Grave - 3:06
12. Land Of No Return - 3:01

Exact Audio Copy V1.1 from 23. June 2015

EAC extraction logfile from 17. June 2016, 18:03

Death / Scream Bloody Gore (Deluxe Edition, CD1)

Used drive : PIONEER DVD-RW DVR-219L Adapter: 1 ID: 1

Read mode : Secure
Utilize accurate stream : Yes
Defeat audio cache : Yes
Make use of C2 pointers : No

Read offset correction : 6
Overread into Lead-In and Lead-Out : No
Fill up missing offset samples with silence : Yes
Delete leading and trailing silent blocks : No
Null samples used in CRC calculations : Yes
Used interface : Native Win32 interface for Win NT & 2000

Used output format : Internal WAV Routines
Sample format : 44.100 Hz; 16 Bit; Stereo


TOC of the extracted CD

Track | Start | Length | Start sector | End sector
––––––––––––––––––––––––––––-
1 | 0:00.00 | 2:52.43 | 0 | 12942
2 | 2:52.43 | 4:32.52 | 12943 | 33394
3 | 7:25.20 | 3:35.05 | 33395 | 49524
4 | 11:00.25 | 3:41.65 | 49525 | 66164
5 | 14:42.15 | 3:27.45 | 66165 | 81734
6 | 18:09.60 | 3:44.14 | 81735 | 98548
7 | 21:53.74 | 4:29.29 | 98549 | 118752
8 | 26:23.28 | 3:35.60 | 118753 | 134937
9 | 29:59.13 | 2:59.37 | 134938 | 148399
10 | 32:58.50 | 4:32.51 | 148400 | 168850
11 | 37:31.26 | 3:05.62 | 168851 | 182787
12 | 40:37.13 | 3:00.42 | 182788 | 196329


Range status and errors

Selected range

Filename D:\.by necromandus for avaxhome\Death - Scream Bloody Gore (Deluxe Edition, CD1).wav

Peak level 99.1 %
Extraction speed 6.7 X
Range quality 100.0 %
Test CRC 2AE767F7
Copy CRC 2AE767F7
Copy OK

No errors occurred


AccurateRip summary

Track 1 accurately ripped (confidence 2) [CF29185D] (AR v2)
Track 2 accurately ripped (confidence 2) [983CAF84] (AR v2)
Track 3 accurately ripped (confidence 2) [9F8CD1D7] (AR v2)
Track 4 accurately ripped (confidence 2) [1703B68E] (AR v2)
Track 5 accurately ripped (confidence 2) [DBABA6BF] (AR v2)
Track 6 accurately ripped (confidence 2) [EB1A5C06] (AR v2)
Track 7 accurately ripped (confidence 2) [F7764DE7] (AR v2)
Track 8 accurately ripped (confidence 2) [63DD5023] (AR v2)
Track 9 accurately ripped (confidence 2) [FCD4D07F] (AR v2)
Track 10 accurately ripped (confidence 2) [9C674451] (AR v2)
Track 11 accurately ripped (confidence 2) [789EF434] (AR v2)
Track 12 accurately ripped (confidence 2) [AE13F464] (AR v2)

All tracks accurately ripped

End of status report

–– CUETools DB Plugin V2.1.6

[CTDB TOCID: BMfNAJDYoJHuETppRHbHEHipGNM-] found
Submit result: BMfNAJDYoJHuETppRHbHEHipGNM- has been confirmed
Track | CTDB Status
1 | (22/22) Accurately ripped
2 | (22/22) Accurately ripped
3 | (22/22) Accurately ripped
4 | (22/22) Accurately ripped
5 | (22/22) Accurately ripped
6 | (22/22) Accurately ripped
7 | (22/22) Accurately ripped
8 | (22/22) Accurately ripped
9 | (22/22) Accurately ripped
10 | (22/22) Accurately ripped
11 | (22/22) Accurately ripped
12 | (21/22) Accurately ripped


==== Log checksum 580DEB4F63CB4C7A89ADC3C61CFE011D664B8FCB829C2EEE9C2E8C01AC307E79 ====

CD2 Tracklist :

1. Torn To Pieces (Original Florida Session) - 3:30
2. Legion Of Doom (Original Florida Session) - 3:12
3. Scream Bloody Gore (Original Florida Session) - 4:29
4. Sacrificial (Original Florida Session) - 3:41
5. Mutilation (Original Florida Session) - 3:26
6. Land Of No Return (Original Florida Session) - 2:59
7. Baptized In Blood (Original Florida Session) - 4:25
8. Regurgitated Guts (Rehearsals 08-20-1986) - 3:48
9. Sacrificial (Rehearsals 08-20-1986) - 4:08
10. Sacrificial: Take 2 (Rehearsals 08-20-1986) - 1:39
11. Torn To Pieces (Rehearsals 08-20-1986) - 3:54
12. Do You Love Me? V1 (Rehearsals 08-20-1986) - 0:56
13. Infernal Death (Rehearsals 08-20-1986) - 3:01
14. Zombie Ritual (Rehearsals 08-20-1986) - 4:49
15. Beyond The Unholy Grave (Rehearsals 08-20-1986) - 3:02
16. Do You Love Me? V2 (Rehearsals 08-20-1986) - 3:09
17. Denial Of Life (Rehearsals 08-20-1986) - 3:49

Exact Audio Copy V1.1 from 23. June 2015

EAC extraction logfile from 17. June 2016, 18:29

Death / Scream Bloody Gore (Deluxe Edition, CD2)

Used drive : PIONEER DVD-RW DVR-219L Adapter: 1 ID: 1

Read mode : Secure
Utilize accurate stream : Yes
Defeat audio cache : Yes
Make use of C2 pointers : No

Read offset correction : 6
Overread into Lead-In and Lead-Out : No
Fill up missing offset samples with silence : Yes
Delete leading and trailing silent blocks : No
Null samples used in CRC calculations : Yes
Used interface : Native Win32 interface for Win NT & 2000

Used output format : Internal WAV Routines
Sample format : 44.100 Hz; 16 Bit; Stereo


TOC of the extracted CD

Track | Start | Length | Start sector | End sector
––––––––––––––––––––––––––––-
1 | 0:00.00 | 3:29.41 | 0 | 15715
2 | 3:29.41 | 3:11.71 | 15716 | 30111
3 | 6:41.37 | 4:29.26 | 30112 | 50312
4 | 11:10.63 | 3:41.34 | 50313 | 66921
5 | 14:52.22 | 3:25.72 | 66922 | 82368
6 | 18:18.19 | 2:59.24 | 82369 | 95817
7 | 21:17.43 | 4:25.25 | 95818 | 115717
8 | 25:42.68 | 3:48.32 | 115718 | 132849
9 | 29:31.25 | 4:08.01 | 132850 | 151450
10 | 33:39.26 | 1:39.06 | 151451 | 158881
11 | 35:18.32 | 3:54.36 | 158882 | 176467
12 | 39:12.68 | 0:56.25 | 176468 | 180692
13 | 40:09.18 | 3:01.22 | 180693 | 194289
14 | 43:10.40 | 4:49.17 | 194290 | 215981
15 | 47:59.57 | 3:01.50 | 215982 | 229606
16 | 51:01.32 | 3:09.36 | 229607 | 243817
17 | 54:10.68 | 3:49.31 | 243818 | 261023


Range status and errors

Selected range

Filename D:\.by necromandus for avaxhome\Death - Scream Bloody Gore (Deluxe Edition, CD2).wav

Peak level 99.1 %
Extraction speed 7.3 X
Range quality 99.9 %
Test CRC FF6979E6
Copy CRC FF6979E6
Copy OK

No errors occurred


AccurateRip summary

Track 1 accurately ripped (confidence 2) [05C50F1E] (AR v2)
Track 2 accurately ripped (confidence 2) [4140692C] (AR v2)
Track 3 accurately ripped (confidence 2) [B064E6EE] (AR v2)
Track 4 accurately ripped (confidence 2) [4491C8F3] (AR v2)
Track 5 accurately ripped (confidence 2) [9CF904B3] (AR v2)
Track 6 accurately ripped (confidence 2) [6A0421C4] (AR v2)
Track 7 accurately ripped (confidence 2) [E4D6DD7B] (AR v2)
Track 8 accurately ripped (confidence 2) [8EFC1B9E] (AR v2)
Track 9 accurately ripped (confidence 2) [F43157DE] (AR v2)
Track 10 accurately ripped (confidence 2) [5F3EC750] (AR v2)
Track 11 accurately ripped (confidence 2) [EA39A323] (AR v2)
Track 12 accurately ripped (confidence 2) [27B703DF] (AR v2)
Track 13 accurately ripped (confidence 2) [0A1DEB9C] (AR v2)
Track 14 accurately ripped (confidence 2) [2201A443] (AR v2)
Track 15 accurately ripped (confidence 2) [69B197A2] (AR v2)
Track 16 accurately ripped (confidence 2) [D11EC103] (AR v2)
Track 17 accurately ripped (confidence 2) [E9FEB690] (AR v2)

All tracks accurately ripped

End of status report

–– CUETools DB Plugin V2.1.6

[CTDB TOCID: D.WYIfSHVK4GBtDz4J.n8HlkWNY-] found
Submit result: D.WYIfSHVK4GBtDz4J.n8HlkWNY- has been confirmed
Track | CTDB Status
1 | (16/16) Accurately ripped
2 | (16/16) Accurately ripped
3 | (16/16) Accurately ripped
4 | (16/16) Accurately ripped
5 | (16/16) Accurately ripped
6 | (16/16) Accurately ripped
7 | (16/16) Accurately ripped
8 | (16/16) Accurately ripped
9 | (16/16) Accurately ripped
10 | (16/16) Accurately ripped
11 | (16/16) Accurately ripped
12 | (16/16) Accurately ripped
13 | (16/16) Accurately ripped
14 | (16/16) Accurately ripped
15 | (16/16) Accurately ripped
16 | (15/16) Accurately ripped, or (1/16) differs in 41 samples @01:42:72
17 | (16/16) Accurately ripped


==== Log checksum 7381FA6FDC118CB8327280A7A89339C37C98EDE6911357CFEC876C3434C5F758 ====

CD3 Tracklist :

1. (Part Of) Scream Bloody Gore (Rehearsals 05-28-1986) - 3:07
2. Legion Of Doom (Rehearsals 05-28-1986) - 3:28
3. Beyond The Unholy Grave (Rehearsals 05-28-1986) - 3:12
4. Scream Bloody Gore (Rehearsals 05-28-1986) - 4:46
5. Torn To Pieces (Rehearsals 05-28-1986) - 3:39
6. Mutilation (Rehearsals 05-26-1986) - 4:17
7. Torn To Pieces (Rehearsals 05-26-1986) - 3:30
8. Zombie Ritual (Rehearsals 05-26-1986) - 4:41
9. Land Of No Return (Rehearsals 05-26-1986) - 3:10
10. (Part Of) Evil Dead (Rehearsals 05-26-1986) - 1:19
11. Baptized In Blood (Rehearsals 05-26-1986) - 4:59
12. Infernal Death (Rehearsals 05-26-1986) - 2:57
13. Denial Of Life (Rehearsals 05-26-1986) - 3:23
14. Death Metal (Rehearsals 05-26-1986) - 2:00

Exact Audio Copy V1.1 from 23. June 2015

EAC extraction logfile from 17. June 2016, 18:54

Death / Scream Bloody Gore (Deluxe Edition, CD3)

Used drive : PIONEER DVD-RW DVR-219L Adapter: 1 ID: 1

Read mode : Secure
Utilize accurate stream : Yes
Defeat audio cache : Yes
Make use of C2 pointers : No

Read offset correction : 6
Overread into Lead-In and Lead-Out : No
Fill up missing offset samples with silence : Yes
Delete leading and trailing silent blocks : No
Null samples used in CRC calculations : Yes
Used interface : Native Win32 interface for Win NT & 2000

Used output format : Internal WAV Routines
Sample format : 44.100 Hz; 16 Bit; Stereo


TOC of the extracted CD

Track | Start | Length | Start sector | End sector
––––––––––––––––––––––––––––-
1 | 0:00.00 | 3:06.42 | 0 | 13991
2 | 3:06.42 | 3:28.29 | 13992 | 29620
3 | 6:34.71 | 3:12.18 | 29621 | 44038
4 | 9:47.14 | 4:45.40 | 44039 | 65453
5 | 14:32.54 | 3:39.27 | 65454 | 81905
6 | 18:12.06 | 4:16.70 | 81906 | 101175
7 | 22:29.01 | 3:29.64 | 101176 | 116914
8 | 25:58.65 | 4:41.05 | 116915 | 137994
9 | 30:39.70 | 3:10.10 | 137995 | 152254
10 | 33:50.05 | 1:19.12 | 152255 | 158191
11 | 35:09.17 | 4:59.00 | 158192 | 180616
12 | 40:08.17 | 2:57.17 | 180617 | 193908
13 | 43:05.34 | 3:22.73 | 193909 | 209131
14 | 46:28.32 | 2:00.33 | 209132 | 218164


Range status and errors

Selected range

Filename D:\.by necromandus for avaxhome\Death - Scream Bloody Gore (Deluxe Edition, CD3).wav

Peak level 99.1 %
Extraction speed 6.9 X
Range quality 100.0 %
Test CRC A710E381
Copy CRC A710E381
Copy OK

No errors occurred


AccurateRip summary

Track 1 accurately ripped (confidence 1) [20F133C0] (AR v2)
Track 2 accurately ripped (confidence 1) [69C959B1] (AR v2)
Track 3 accurately ripped (confidence 1) [C06F7E81] (AR v2)
Track 4 accurately ripped (confidence 1) [B3915398] (AR v2)
Track 5 accurately ripped (confidence 1) [44278FF3] (AR v2)
Track 6 accurately ripped (confidence 1) [F314FB20] (AR v2)
Track 7 accurately ripped (confidence 1) [6818044E] (AR v2)
Track 8 accurately ripped (confidence 1) [51D3508D] (AR v2)
Track 9 accurately ripped (confidence 1) [9580F20B] (AR v2)
Track 10 accurately ripped (confidence 1) [C34A4F94] (AR v2)
Track 11 accurately ripped (confidence 1) [3D03DEFC] (AR v2)
Track 12 accurately ripped (confidence 1) [AF634988] (AR v2)
Track 13 accurately ripped (confidence 1) [4639CD05] (AR v2)
Track 14 accurately ripped (confidence 1) [A93AE729] (AR v2)

All tracks accurately ripped

End of status report

–– CUETools DB Plugin V2.1.6

[CTDB TOCID: Az8va7MP9rWvJC3dTICUCzg3DS0-] found
Submit result: Az8va7MP9rWvJC3dTICUCzg3DS0- has been confirmed
Track | CTDB Status
1 | (5/6) Accurately ripped
2 | (5/6) Accurately ripped
3 | (5/6) Accurately ripped
4 | (5/6) Accurately ripped
5 | (5/6) Accurately ripped
6 | (5/6) Accurately ripped
7 | (5/6) Accurately ripped
8 | (5/6) Accurately ripped
9 | (5/6) Accurately ripped
10 | (5/6) Accurately ripped
11 | (5/6) Accurately ripped
12 | (5/6) Accurately ripped
13 | (5/6) Accurately ripped
14 | (5/6) Accurately ripped


==== Log checksum 7646A081CD1822BC87C416A669C92B834999F2475C6C983D0996305A232AAB84 ====

• Chuck Schuldiner - Vocals, Bass, guitar
• John Hand - Guitar
• Chris Reifert - Drums

Produced by Randy Burns, executive producer - Steve Sinclair.
Recorded at The Music Grinder, L.A., CA


Lossless (FLAC)*
CD1 http://nitroflare.com/view/65A64AB547D3314/DTH1987SBGCD1LOS.rar
CD2 http://nitroflare.com/view/D7BB25EBF8D1C6E/DTH1987SBGCD2LOS.rar
CD3 http://nitroflare.com/view/B79E413C50D616E/DTH1987SBGCD3LOS.rar

All Covers (PNG)
http://nitroflare.com/view/1BE748DAE570F12/DTH1987SBGPNG.rar

Lossy HQ (320 Kbps CBR)
CD1 http://nitroflare.com/view/8611F353495BC82/DTH1987SBGCD1MP3.rar
CD2 http://nitroflare.com/view/3D2FFA332829CA3/DTH1987SBGCD2MP3.rar
CD3 http://nitroflare.com/view/F60B197AD33EB00/DTH1987SBGCD3MP3.rar

* Original CD -> EAC image, embedded cuesheet & more, foobar2000 ready, etc.
(all CUEs, LOGs and other technical info includes in the internal "CD_Support" archive).

Please, do not write these links at any web pages. Enjoy & keep the files alive!