Subcategories

Debbie Davies - Tales From The Austin Motel (1999)

Posted By: popsakov
Debbie Davies - Tales From The Austin Motel (1999)

Debbie Davies - Tales From The Austin Motel (1999)
EAC Rip | FLAC (Tracks) + Cue + m3u + Log ~ 324 Mb | MP3 CBR320 ~ 132 Mb
Scans Included | RAR 5% Recovery
Modern Electric Blues | Shanachie #9019

For Tales from the Austin Motel, Debbie Davies temporarily ditched her touring band and teamed up with drummer Chris Layton and bassist Tommy Shannon, better known as the rhythm section of Stevie Ray Vaughan's legendary supporting group, Double Trouble. The intention was to craft a tribute album to their influences and collegues – namely, the Texas blues giants Albert Collins, Stevie Ray Vaughan. The trio tackles a number of covers, including such standards as "I Want to Be Loved" and "I Just Want to Make Love to You," but the majority of the album is devoted to Davies originals. They're all solid, journeyman songs – nothing too special, but nothing bad, either. (Although these ears did hear something out of the ordinary – a lift from "Remember You're a Womble" on the instrumental "Percolatin." But that probably wasn't intentional.) The main reason to hear Tales from the Austin Motel is to listen to Davies play with Double Trouble, and the results do not disappoint. Some may quibble that the recording is a little too crystal clear to really capture the nasty Austin sound they strive to achieve, but the trio does have a dynamic interplay. It serves as a reminder of what a good rhythm section Layton and Shannon are – they make an already excellent guitarist sound like a successor to SRV, which is no mean feat. But that's not to take anything away from Davies. Over the course of her four previous albums, she established herself as a formidible talent, but her work on Tales affirms that she holds a prime place in the modern electric Texas blues pantheon.

~ Stephen Thomas Erlewine, All Music

***************

Debbie Davies - Tales From The Austin Motel (1999)

Track List:

01. Just Stepped In The Blues [4:30]
02. I Want To Be Loved [2:21]
03. Bald Headed Baby [5:05]
04. Watch Out What You Do [3:33]
05. I Just Want To Make Love To You [3:36]
06. As The Years Go Passing By [3:26]
07. I'm A Woman [4:01]
08. Half Caf-Decaf [3:25]
09. Atras De Tus Ojos (Behind Your Eyes) [3:28]
10. When You Were Gone [4:20]
11. Percolatin' [3:18]
12. Walking By Myself [2:57]

Personnel:
Debbie Davies - guitars & vocals
Chris Layton - drums
Tommy Shannon - bass
Joe Ferry - bass (on "WalkirT By Myself")
Jeremy Baum - Hammond Organ
Anthony Geraci - piano
Jim McElwaine - tenor sax
Dave Brown - trumpet
Horns Arranged by Joe Ferry

Exact Audio Copy V1.1 from 23. June 2015

EAC extraction logfile from 13. September 2019, 19:06

Debbie Davies / Tales From The Austin Motel

Used drive : HL-DT-STDVD-RAM GH22NP20 Adapter: 1 ID: 0

Read mode : Secure
Utilize accurate stream : Yes
Defeat audio cache : Yes
Make use of C2 pointers : No

Read offset correction : 102
Overread into Lead-In and Lead-Out : No
Fill up missing offset samples with silence : Yes
Delete leading and trailing silent blocks : No
Null samples used in CRC calculations : Yes
Used interface : Native Win32 interface for Win NT & 2000
Gap handling : Appended to previous track

Used output format : User Defined Encoder
Selected bitrate : 128 kBit/s
Quality : High
Add ID3 tag : No
Command line compressor : C:\Program Files\Exact Audio Copy\Flac\flac.exe
Additional command line options : -V -8 -T "Genre=%genre%" -T "Artist=%artist%" -T "Title=%title%" -T "Album=%albumtitle%" -T "Date=%year%" -T "Tracknumber=%tracknr%" -T "Comment=%comment%" %source%


TOC of the extracted CD

Track | Start | Length | Start sector | End sector
––––––––––––––––––––––––––––-
1 | 0:00.00 | 4:29.70 | 0 | 20244
2 | 4:29.70 | 2:21.17 | 20245 | 30836
3 | 6:51.12 | 5:06.08 | 30837 | 53794
4 | 11:57.20 | 3:34.07 | 53795 | 69851
5 | 15:31.27 | 3:36.70 | 69852 | 86121
6 | 19:08.22 | 3:26.28 | 86122 | 101599
7 | 22:34.50 | 4:01.40 | 101600 | 119714
8 | 26:36.15 | 3:25.27 | 119715 | 135116
9 | 30:01.42 | 3:28.30 | 135117 | 150746
10 | 33:29.72 | 4:20.28 | 150747 | 170274
11 | 37:50.25 | 3:17.62 | 170275 | 185111
12 | 41:08.12 | 2:57.05 | 185112 | 198391


Track 1

Filename E:\alexbras\1999 Debbie Davies - Tales From The Austin Motel (US Shanachie 9019)\01 Just Stepped In The Blues.wav

Pre-gap length 0:00:02.00

Peak level 99.8 %
Extraction speed 1.5 X
Track quality 99.9 %
Test CRC 92E3FE1F
Copy CRC 92E3FE1F
Accurately ripped (confidence 7) [8701FA04] (AR v2)
Copy OK

Track 2

Filename E:\alexbras\1999 Debbie Davies - Tales From The Austin Motel (US Shanachie 9019)\02 I Want To Be Loved.wav

Pre-gap length 0:00:00.03

Peak level 99.8 %
Extraction speed 1.7 X
Track quality 100.0 %
Test CRC 5D46E114
Copy CRC 5D46E114
Accurately ripped (confidence 7) [FB784F15] (AR v2)
Copy OK

Track 3

Filename E:\alexbras\1999 Debbie Davies - Tales From The Austin Motel (US Shanachie 9019)\03 Bald Headed Baby.wav

Pre-gap length 0:00:00.47

Peak level 99.8 %
Extraction speed 1.9 X
Track quality 99.9 %
Test CRC 9519315B
Copy CRC 9519315B
Accurately ripped (confidence 7) [2F3D9D6A] (AR v2)
Copy OK

Track 4

Filename E:\alexbras\1999 Debbie Davies - Tales From The Austin Motel (US Shanachie 9019)\04 Watch Out What You Do.wav

Pre-gap length 0:00:01.15

Peak level 99.8 %
Extraction speed 1.8 X
Track quality 99.9 %
Test CRC E485F38D
Copy CRC E485F38D
Accurately ripped (confidence 7) [C4E79ED6] (AR v2)
Copy OK

Track 5

Filename E:\alexbras\1999 Debbie Davies - Tales From The Austin Motel (US Shanachie 9019)\05 I Just Want To Make Love To You.wav

Pre-gap length 0:00:00.70

Peak level 99.8 %
Extraction speed 2.3 X
Track quality 100.0 %
Test CRC 0E709176
Copy CRC 0E709176
Accurately ripped (confidence 7) [64E4631E] (AR v2)
Copy OK

Track 6

Filename E:\alexbras\1999 Debbie Davies - Tales From The Austin Motel (US Shanachie 9019)\06 As The Years Go Passing By.wav

Pre-gap length 0:00:01.32

Peak level 99.8 %
Extraction speed 2.3 X
Track quality 100.0 %
Test CRC 6E1DF2A5
Copy CRC 6E1DF2A5
Accurately ripped (confidence 7) [AA6A21A7] (AR v2)
Copy OK

Track 7

Filename E:\alexbras\1999 Debbie Davies - Tales From The Austin Motel (US Shanachie 9019)\07 I'm A Woman.wav

Pre-gap length 0:00:00.58

Peak level 99.8 %
Extraction speed 2.5 X
Track quality 100.0 %
Test CRC B184609E
Copy CRC B184609E
Accurately ripped (confidence 7) [980E9F65] (AR v2)
Copy OK

Track 8

Filename E:\alexbras\1999 Debbie Davies - Tales From The Austin Motel (US Shanachie 9019)\08 Half Caf-Decaf.wav

Pre-gap length 0:00:00.70

Peak level 99.8 %
Extraction speed 2.5 X
Track quality 100.0 %
Test CRC D93AB71D
Copy CRC D93AB71D
Accurately ripped (confidence 7) [09E3E4E9] (AR v2)
Copy OK

Track 9

Filename E:\alexbras\1999 Debbie Davies - Tales From The Austin Motel (US Shanachie 9019)\09 Atras De Tus Ojos (Behind Your Eyes).wav

Pre-gap length 0:00:00.10

Peak level 99.8 %
Extraction speed 2.6 X
Track quality 100.0 %
Test CRC C70CF039
Copy CRC C70CF039
Accurately ripped (confidence 7) [E6EE735F] (AR v2)
Copy OK

Track 10

Filename E:\alexbras\1999 Debbie Davies - Tales From The Austin Motel (US Shanachie 9019)\10 When You Were Gone.wav

Pre-gap length 0:00:00.57

Peak level 99.8 %
Extraction speed 2.7 X
Track quality 100.0 %
Test CRC 1B6E5C7F
Copy CRC 1B6E5C7F
Accurately ripped (confidence 7) [BC9C0F5E] (AR v2)
Copy OK

Track 11

Filename E:\alexbras\1999 Debbie Davies - Tales From The Austin Motel (US Shanachie 9019)\11 Percolatin'.wav

Peak level 99.8 %
Extraction speed 2.8 X
Track quality 100.0 %
Test CRC 83E02EDE
Copy CRC 83E02EDE
Accurately ripped (confidence 7) [70BC7DC2] (AR v2)
Copy OK

Track 12

Filename E:\alexbras\1999 Debbie Davies - Tales From The Austin Motel (US Shanachie 9019)\12 Walking By Myself.wav

Peak level 99.8 %
Extraction speed 2.8 X
Track quality 100.0 %
Test CRC 96538023
Copy CRC 96538023
Accurately ripped (confidence 7) [1D3C8499] (AR v2)
Copy OK


All tracks accurately ripped

No errors occurred

End of status report

==== Log checksum 8F622831643B2B1ECA9B79341658B88882EFCABDE7BF9CFF84DF0AB82ECC52FC ====

Debbie Davies - Tales From The Austin Motel (1999)


All thanks go to alex1248

>>> Debbie Davies in my Blog <<<

DOWNLOAD: