Subcategories
Please register here if you want to download anything!

If domain in your address bar is different from the list below
PLEASE LEAVE THAT SITE IMMEDIATELY
❗IT'S A DANGEROUS FAKE❗



Spicy Magazines for Men! ;-)

Deborah Harry & Blondie - The Complete Picture: The Very Best Of Deborah Harry & Blondie (1991)

Posted By: Designol
Deborah Harry & Blondie - The Complete Picture: The Very Best Of Deborah Harry & Blondie (1991)

Deborah Harry & Blondie - The Complete Picture: The Very Best Of Deborah Harry & Blondie (1991)
EAC | FLAC | Image (Cue&Log) ~ 517 Mb | Mp3 (CBR320) ~ 202 Mb | Scans included | 01:14:51
New Wave, Pop/Rock, Dance-Rock | Label: Chrysalis | # CCD 1817, CDP 3218172

The Complete Picture: The Very Best of Deborah Harry and Blondie is a compilation album released on Chrysalis Records in 1991. It contained all of Blondie's biggest hits such as "Heart of Glass", "Sunday Girl", "The Tide Is High", "Atomic", and "Call Me" as well as some of Deborah Harry's solo hits, including the UK Top 10 single "French Kissin' in the USA".

This import CD is one of the best Blondie and Debbie Harry compilations for original music, unless one is looking for remixes and rarities. The 20-track disc covers the years 1977-1990, and includes "Heart of Glass," "Call Me," "French Kissin' in the U.S.A.," "Rapture," "Atomic," "The Tide Is High," and others. Very solid song selection (and track order). First released in 1993, the current version has superior sound quality. Casual fans will most likely choose Best of Blondie [Chrysalis], as it only has the best of Blondie. But some of Debbie Harry's songs will please the casual fan, so Complete Picture may be a better alternative than the more expensive Platinum Collection for the adventurous shopper.

Review by JT Griffith, Allmusic.com

Deborah Harry & Blondie - The Complete Picture: The Very Best Of Deborah Harry & Blondie (1991)

Deborah Harry & Blondie - The Complete Picture: The Very Best Of Deborah Harry & Blondie (1991)



Tracklist:

01. Heart Of Glass (3:58)
02. I Want That Man (3:41)
03. Call Me (3:28)
04. Sunday Girl (3:03)
05. French Kissin' In The USA (5:10)
06. Denis (2:18)
07. Rapture (5:34)
08. Brite Side (4:34)
09. (I'm Always Touched By Your) Presence Dear (2:41)
10. Well, Did You Evah! (3:28)
11. The Tide Is High (4:36)
12. In Love With Love (4:31)
13. Hanging On The Telephone (2:23)
14. Island Of Lost Souls (3:50)
15. Picture This (2:56)
16. Dreaming (3:04)
17. Sweet And Low (4:19)
18. Union City Blue (3:20)
19. Atomic (4:39)
20. Rip Her To Shreds (3:19)


Exact Audio Copy V1.0 beta 3 from 29. August 2011

Отчёт EAC об извлечении, выполненном 16. февраля 2014, 17:42

Deborah Harry & Blondie / The Very Best Of

Дисковод: Optiarc DVD RW AD-7243S Adapter: 3 ID: 1

Режим чтения : Достоверность
Использование точного потока : Да
Отключение кэша аудио : Да
Использование указателей C2 : Нет

Коррекция смещения при чтении : 48
Способность читать области Lead-in и Lead-out : Нет
Заполнение пропущенных сэмплов тишиной : Да
Удаление блоков с тишиной в начале и конце : Нет
При вычислениях CRC использовались нулевые сэмплы : Да
Интерфейс : Встроенный Win32-интерфейс для Win NT/2000

Выходной формат : Пользовательский кодировщик
Выбранный битрейт : 768 kBit/s
Качество : Высокий
Добавление ID3-тега : Нет
Утилита сжатия : C:\Program Files\Exact Audio Copy\FLAC\FLAC.EXE
Дополнительные параметры : -6 -V -T "ARTIST=%artist%" -T "TITLE=%title%" -T "ALBUM=%albumtitle%" -T "DATE=%year%" -T "TRACKNUMBER=%tracknr%" -T "GENRE=%genre%" -T "COMMENT=%comment%" -T "BAND=%albuminterpret%" -T "ALBUMARTIST=%albuminterpret%" -T "COMPOSER=%composer%" %haslyrics%–tag-from-file=LYRICS="%lyricsfile%"%haslyrics% -T "DISCNUMBER=%cdnumber%" -T "TOTALDISCS=%totalcds%" -T "TOTALTRACKS=%numtracks%" %hascover%–picture="%coverfile%"%hascover% %source% -o %dest%


TOC извлечённого CD

Трек | Старт | Длительность | Начальный сектор | Конечный сектор
––––––––––––––––––––––––––––––––––-
1 | 0:00.00 | 3:58.28 | 0 | 17877
2 | 3:58.28 | 3:41.02 | 17878 | 34454
3 | 7:39.30 | 3:28.25 | 34455 | 50079
4 | 11:07.55 | 3:02.40 | 50080 | 63769
5 | 14:10.20 | 5:10.13 | 63770 | 87032
6 | 19:20.33 | 2:18.12 | 87033 | 97394
7 | 21:38.45 | 5:33.55 | 97395 | 122424
8 | 27:12.25 | 4:34.08 | 122425 | 142982
9 | 31:46.33 | 2:41.20 | 142983 | 155077
10 | 34:27.53 | 3:27.55 | 155078 | 170657
11 | 37:55.33 | 4:35.62 | 170658 | 191344
12 | 42:31.20 | 4:30.43 | 191345 | 211637
13 | 47:01.63 | 2:22.70 | 211638 | 222357
14 | 49:24.58 | 3:49.50 | 222358 | 239582
15 | 53:14.33 | 2:56.00 | 239583 | 252782
16 | 56:10.33 | 3:03.67 | 252783 | 266574
17 | 59:14.25 | 4:18.40 | 266575 | 285964
18 | 63:32.65 | 3:20.00 | 285965 | 300964
19 | 66:52.65 | 4:38.63 | 300965 | 321877
20 | 71:31.53 | 3:19.15 | 321878 | 336817


Характеристики диапазона извлечения и сообщения об ошибках

Выбранный диапазон

Имя файла E:\Временная\Deborah Harry & Blondie - The Very Best Of.wav

Пиковый уровень 100.0 %
Скорость извлечения 4.5 X
Качество диапазона 100.0 %
CRC теста 21A2658F
CRC копии 21A2658F
Копирование… OK

Ошибок не произошло


AccurateRip: сводка

Трек 1 : извлечено точно (доверие 14) [AADD717D] (AR v2)
Трек 2 : извлечено точно (доверие 16) [48442E7B] (AR v2)
Трек 3 : извлечено точно (доверие 16) [1132D97E] (AR v2)
Трек 4 : извлечено точно (доверие 16) [6FDAE397] (AR v2)
Трек 5 : извлечено точно (доверие 15) [0650DA64] (AR v2)
Трек 6 : извлечено точно (доверие 16) [9EB904DD] (AR v2)
Трек 7 : извлечено точно (доверие 16) [A5C73699] (AR v2)
Трек 8 : извлечено точно (доверие 16) [0880C181] (AR v2)
Трек 9 : извлечено точно (доверие 16) [2A35E8C8] (AR v2)
Трек 10 : извлечено точно (доверие 16) [065A415D] (AR v2)
Трек 11 : извлечено точно (доверие 15) [2906BE15] (AR v2)
Трек 12 : извлечено точно (доверие 15) [CC0D5892] (AR v2)
Трек 13 : извлечено точно (доверие 15) [D7639FC0] (AR v2)
Трек 14 : извлечено точно (доверие 15) [D77F39DE] (AR v2)
Трек 15 : извлечено точно (доверие 14) [FECDB5A5] (AR v2)
Трек 16 : извлечено точно (доверие 15) [E96CDB9A] (AR v2)
Трек 17 : извлечено точно (доверие 14) [0BD04D51] (AR v2)
Трек 18 : извлечено точно (доверие 15) [6150100D] (AR v2)
Трек 19 : извлечено точно (доверие 15) [C54DFB08] (AR v2)
Трек 20 : извлечено точно (доверие 16) [4CD18909] (AR v2)

Все треки извлечены точно

Конец отчёта

==== Контрольная сумма отчёта 08D3918ACD3EB4B3BCC8B598980FF4885B6206AAC221535DE030E843F7BFCA54 ====

[CUETools log; Date: 19.10.2018 21:03:27; Version: 2.1.4]
[CTDB TOCID: 3QZLPRUxPSyrgip262RU_a1VpDw-] found.
Track | CTDB Status
1 | (312/320) Accurately ripped
2 | (314/320) Accurately ripped
3 | (316/320) Accurately ripped
4 | (315/320) Accurately ripped
5 | (311/320) Accurately ripped
6 | (318/320) Accurately ripped
7 | (312/320) Accurately ripped
8 | (313/320) Accurately ripped
9 | (317/320) Accurately ripped
10 | (309/320) Accurately ripped, or (5/320) differs in 65 samples @00:08:56-00:08:58
11 | (311/320) Accurately ripped
12 | (310/320) Accurately ripped
13 | (317/320) Accurately ripped
14 | (313/320) Accurately ripped
15 | (314/320) Accurately ripped
16 | (309/320) Accurately ripped
17 | (313/320) Accurately ripped
18 | (311/320) Accurately ripped
19 | (306/320) Accurately ripped
20 | (305/320) Accurately ripped
[AccurateRip ID: 00367fcf-031d7a21-1e118a14] found.
Track [ CRC | V2 ] Status
01 [c69d60f9|aadd717d] (028+027/370) Accurately ripped
02 [f6cf5cf4|48442e7b] (030+030/379) Accurately ripped
03 [ec498406|1132d97e] (031+031/387) Accurately ripped
04 [47a132c2|6fdae397] (029+031/380) Accurately ripped
05 [388d6285|0650da64] (030+030/383) Accurately ripped
06 [b4787358|9eb904dd] (030+031/384) Accurately ripped
07 [970e83c3|a5c73699] (029+030/381) Accurately ripped
08 [d10c35ee|0880c181] (030+029/377) Accurately ripped
09 [cc389d6b|2a35e8c8] (029+031/382) Accurately ripped
10 [517523c5|065a415d] (030+030/378) Accurately ripped
11 [c7f1775d|2906be15] (029+029/378) Accurately ripped
12 [603aa709|cc0d5892] (030+028/371) Accurately ripped
13 [317d57ae|d7639fc0] (029+029/378) Accurately ripped
14 [48312e16|d77f39de] (029+029/363) Accurately ripped
15 [5b11f518|fecdb5a5] (030+028/371) Accurately ripped
16 [83621ed9|e96cdb9a] (029+028/374) Accurately ripped
17 [91d444a5|0bd04d51] (030+026/359) Accurately ripped
18 [83b2cb3e|6150100d] (030+027/368) Accurately ripped
19 [76ca555a|c54dfb08] (029+028/366) Accurately ripped
20 [6364c89d|4cd18909] (028+030/351) Accurately ripped
Offsetted by -275:
01 [1f21fd45] (028/370) Accurately ripped
02 [0007d74f] (029/379) Accurately ripped
03 [59419923] (029/387) Accurately ripped
04 [7148d1f2] (028/380) Accurately ripped
05 [f8165865] (029/383) Accurately ripped
06 [65ee7b59] (028/384) Accurately ripped
07 [4856826b] (030/381) Accurately ripped
08 [febcaea6] (029/377) Accurately ripped
09 [95d76b60] (029/382) Accurately ripped
10 [df55d5fd] (029/378) Accurately ripped
11 [2d3356cd] (029/378) Accurately ripped
12 [0385dda3] (029/371) Accurately ripped
13 [9c347177] (030/378) Accurately ripped
14 [026a658a] (027/363) Accurately ripped
15 [dd389ff1] (029/371) Accurately ripped
16 [b7eec00f] (030/374) Accurately ripped
17 [0cb67af3] (027/359) Accurately ripped
18 [296cc45c] (029/368) Accurately ripped
19 [59848be9] (028/366) Accurately ripped
20 [faebcedd] (027/351) Accurately ripped
Offsetted by -271:
01 [c13d33c3] (023/370) Accurately ripped
02 [809ef79d] (023/379) Accurately ripped
03 [c1cb7ce7] (023/387) Accurately ripped
04 [a3e0e9b2] (022/380) Accurately ripped
05 [9bef1de5] (023/383) Accurately ripped
06 [eb4356ed] (023/384) Accurately ripped
07 [6fa6738b] (022/381) Accurately ripped
08 [3a94e106] (022/377) Accurately ripped
09 [dd3de2d5] (023/382) Accurately ripped
10 [336bceba] (023/378) Accurately ripped
11 [f5f88ec3] (023/378) Accurately ripped
12 [b116ecab] (022/371) Accurately ripped
13 [6b2c8951] (022/378) Accurately ripped
14 [cde7bf74] (022/363) Accurately ripped
15 [fe0909bf] (023/371) Accurately ripped
16 [945045ed] (022/374) Accurately ripped
17 [5339e182] (022/359) Accurately ripped
18 [687e4c05] (023/368) Accurately ripped
19 [527f0b95] (023/366) Accurately ripped
20 [d6d590af] (021/351) Accurately ripped
Offsetted by -231:
01 [1e14b4dd] (030/370) Accurately ripped
02 [85953827] (032/379) Accurately ripped
03 [d72e628f] (032/387) Accurately ripped
04 [9dd1d732] (031/380) Accurately ripped
05 [0266d4e5] (032/383) Accurately ripped
06 [2093eab5] (032/384) Accurately ripped
07 [f8c5decb] (032/381) Accurately ripped
08 [9106d8c6] (032/377) Accurately ripped
09 [e0940b7c] (032/382) Accurately ripped
10 [20b99a09] (032/378) Accurately ripped
11 [cd26bb79] (032/378) Accurately ripped
12 [78c182fb] (031/371) Accurately ripped
13 [93a0f2ca] (031/378) Accurately ripped
14 [bfc73ca3] (030/363) Accurately ripped
15 [20ae20ed] (030/371) Accurately ripped
16 [2f427eb7] (031/374) Accurately ripped
17 [05a9e5f5] (030/359) Accurately ripped
18 [deaf95c2] (030/368) Accurately ripped
19 [0c48084d] (031/366) Accurately ripped
20 [7e5b20cc] (029/351) Accurately ripped
Offsetted by 143:
01 [81605425] (019/370) Accurately ripped
02 [5853957a] (020/379) Accurately ripped
03 [058b12a5] (021/387) Accurately ripped
04 [985e83d2] (022/380) Accurately ripped
05 [5a12f725] (023/383) Accurately ripped
06 [d3121d43] (023/384) Accurately ripped
07 [d4786ffb] (023/381) Accurately ripped
08 [ec7d3ed6] (023/377) Accurately ripped
09 [3c7b8d84] (022/382) Accurately ripped
10 [be184879] (023/378) Accurately ripped
11 [85f53b37] (023/378) Accurately ripped
12 [5d3c8067] (022/371) Accurately ripped
13 [427c1aa8] (022/378) Accurately ripped
14 [6b069c1b] (021/363) Accurately ripped
15 [65b8a7bd] (021/371) Accurately ripped
16 [eb0914f9] (021/374) Accurately ripped
17 [bf7bf46c] (020/359) Accurately ripped
18 [ba663e6b] (021/368) Accurately ripped
19 [7bc5a99f] (020/366) Accurately ripped
20 [4d88ea50] (019/351) Accurately ripped
Offsetted by 156:
01 [d80f0051] (010/370) Accurately ripped
02 [7746af4b] (010/379) Accurately ripped
03 [d94b36e2] (010/387) Accurately ripped
04 [fcccd102] (010/380) Accurately ripped
05 [2e937905] (010/383) Accurately ripped
06 [0465e6e4] (009/384) Accurately ripped
07 [943c3fa3] (009/381) Accurately ripped
08 [eefbe28e] (009/377) Accurately ripped
09 [1dd8163d] (009/382) Accurately ripped
10 [57c36122] (009/378) Accurately ripped
11 [5188613e] (010/378) Accurately ripped
12 [d153f141] (009/371) Accurately ripped
13 [5ac8fa4c] (009/378) Accurately ripped
14 [3f5378d4] (009/363) Accurately ripped
15 [1c3d8353] (009/371) Accurately ripped
16 [f419fa52] (009/374) Accurately ripped
17 [0026c9ef] (009/359) Accurately ripped
18 [0483e96c] (009/368) Accurately ripped
19 [64f3c88e] (009/366) Accurately ripped
20 [aa31f1bb] (008/351) Accurately ripped
Offsetted by 372:
01 [73f9fdd6] (009/370) Accurately ripped
02 [4a57418e] (009/379) Accurately ripped
03 [e661423a] (010/387) Accurately ripped
04 [a8e1d382] (009/380) Accurately ripped
05 [be4d2205] (009/383) Accurately ripped
06 [244c381c] (009/384) Accurately ripped
07 [df191c63] (009/381) Accurately ripped
08 [8e9682ce] (009/377) Accurately ripped
09 [b3ad343b] (009/382) Accurately ripped
10 [15924bd4] (009/378) Accurately ripped
11 [968ee222] (008/378) Accurately ripped
12 [6ded1cf1] (009/371) Accurately ripped
13 [ea1f42a1] (009/378) Accurately ripped
14 [f982f957] (009/363) Accurately ripped
15 [ddaa868a] (009/371) Accurately ripped
16 [2dfe12e3] (009/374) Accurately ripped
17 [a35429fc] (009/359) Accurately ripped
18 [1d9d51df] (009/368) Accurately ripped
19 [e9cab6d6] (009/366) Accurately ripped
20 [93f20a34] (009/351) Accurately ripped
Offsetted by -396:
01 [49a86b41] (003/370) Accurately ripped
02 [4de82d0e] (003/379) Accurately ripped
03 [7ef66f3a] (003/387) Accurately ripped
04 [b6d00382] (003/380) Accurately ripped
05 [dbb90205] (003/383) Accurately ripped
06 [24a7891c] (003/384) Accurately ripped
07 [63244463] (003/381) Accurately ripped
08 [ac70bace] (003/377) Accurately ripped
09 [cc5617aa] (003/382) Accurately ripped
10 [e0e4fd70] (000/378) No match (V2 was not tested)
11 [2fe223d3] (003/378) Accurately ripped
12 [4121d6f1] (003/371) Accurately ripped
13 [afaa83c1] (003/378) Accurately ripped
14 [b0fedb37] (003/363) Accurately ripped
15 [a737f55a] (003/371) Accurately ripped
16 [6a819913] (003/374) Accurately ripped
17 [bd2abdc3] (003/359) Accurately ripped
18 [3072a460] (003/368) Accurately ripped
19 [2deaf5d6] (003/366) Accurately ripped
20 [74f88fd9] (003/351) Accurately ripped

Track Peak [ CRC32 ] [W/O NULL] [ LOG ]
– 100,0 [21A2658F] [BE68BA96] CRC32
01 85,0 [20794E94] [CB6E8995]
02 97,7 [5A30BEE0] [63148EDD]
03 90,3 [9E660927] [E5744019]
04 88,0 [AA99F6B7] [1B821A7F]
05 89,6 [3DFB4497] [61281B68]
06 97,6 [5BD845CF] [E457D88A]
07 100,0 [EA038DDB] [820CDD87]
08 97,7 [99C25063] [A80BC7E8]
09 85,4 [CDB9C236] [B3BDEFF4]
10 100,0 [10B254E5] [9A66F1E6]
11 100,0 [4A8054AB] [79D4C0CA]
12 94,6 [5049DF05] [B54DADB6]
13 79,9 [E4DBD2F2] [81E2C056]
14 78,9 [44551BAF] [B61F98CB]
15 81,3 [F0B3B0F5] [5334CEC7]
16 92,8 [7CD5A257] [C8D0A231]
17 93,5 [35FDA588] [7FA30FC1]
18 84,0 [185B5098] [BFA01CD6]
19 81,1 [26638AEC] [CD7D5316]
20 100,0 [3A4D543E] [44F6D658]

foobar2000 1.2 / Dynamic Range Meter 1.1.1
log date: 2018-10-19 21:29:01

––––––––––––––––––––––––––––––––––––––––
Analyzed: Deborah Harry & Blondie / The Very Best Of
––––––––––––––––––––––––––––––––––––––––

DR Peak RMS Duration Track
––––––––––––––––––––––––––––––––––––––––
DR14 -1.41 dB -17.47 dB 3:58 01-Heart Of Glass
DR14 -0.20 dB -16.39 dB 3:41 02-I Want That Man
DR13 -0.88 dB -15.51 dB 3:28 03-Call Me
DR13 -1.11 dB -15.88 dB 3:03 04-Sunday Girl
DR13 -0.95 dB -16.39 dB 5:10 05-French Kissin' In The USA
DR13 -0.21 dB -14.91 dB 2:18 06-Denis
DR14 0.00 dB -16.66 dB 5:34 07-Rapture
DR13 -0.20 dB -15.87 dB 4:34 08-Brite Side
DR12 -1.37 dB -15.83 dB 2:41 09-(I'm Always Touched By Your) Presence Dear
DR15 0.00 dB -16.40 dB 3:28 10-Well, Did You Evah!
DR14 0.00 dB -15.99 dB 4:36 11-The Tide Is High
DR13 -0.48 dB -16.48 dB 4:31 12-In Love With Love
DR11 -1.95 dB -14.82 dB 2:23 13-Hanging On The Telephone
DR12 -2.05 dB -16.44 dB 3:50 14-Island Of Lost Souls
DR11 -1.79 dB -15.69 dB 2:56 15-Picture This
DR12 -0.64 dB -14.74 dB 3:04 16-Dreaming
DR12 -0.58 dB -14.60 dB 4:19 17-Sweet And Low
DR11 -1.51 dB -14.17 dB 3:20 18-Union City Blue
DR12 -1.82 dB -16.24 dB 4:39 19-Atomic
DR14 0.00 dB -16.80 dB 3:19 20-Rip Her To Shreds
––––––––––––––––––––––––––––––––––––––––

Number of tracks: 20
Official DR value: DR13

Samplerate: 44100 Hz
Channels: 2
Bits per sample: 16
Bitrate: 910 kbps
Codec: FLAC
================================================================================

Deborah Harry & Blondie - The Complete Picture: The Very Best Of Deborah Harry & Blondie (1991)

Deborah Harry & Blondie - The Complete Picture: The Very Best Of Deborah Harry & Blondie (1991)