Subcategories

Deborah Harry - Most Of All: The Best Of Deborah Harry (1999) [Re-Up]

Posted By: Designol
Deborah Harry - Most Of All: The Best Of Deborah Harry (1999) [Re-Up]

Deborah Harry - Most Of All: The Best Of Deborah Harry (1999)
EAC | FLAC | Tracks (Cue&Log) ~ 506 Mb | Mp3 (CBR320) ~ 186 Mb | Scans included
Dance-Rock, Pop/Rock, New Wave | Label: EMI | # 7243 5 22945 2 7 | Time: 01:15:13

She's blonde…she's beautiful…she's Deborah Harry! Best known as the vocalist and focal point for the NY New Wave/Punk band Blondie, Deborah continued to record memorable albums under her own name after her band imploded in the early '80s. This collection features the cream of the solo years and includes great tracks like 'I Want That Man', 'The Jam Was Moving', 'Rush Rush', 'French Kissin' In The USA' and her collaborative contribution with Iggy Pop to 1990's Red, Hot & Blue AIDS charity album, 'Well… Did You Evah!'. 18 tracks including a few bonus remixes of 'I Want That Man'.

Having formerly ruled the international pop roost as the supernaturally beautiful lead vocalist with Blondie, Deborah Harry's subsequent solo career found her embracing a wide-ranging catalogue of musical styles, all of which are represented herein. Over the course of her somewhat ambitious musical quest to become "the Queen of the USA", the artist formerly known as Debbie worked with Chic's Nile Rodgers and Bernard Edwards on the dark, urban funk of "Backfired". She seduced the mainstream with the sublime sensuality of "French Kissin' In The USA" and reprised her working relationship with Blondie's Chris Stein on the hypnotic, ethereal afterglow of "Brite Side". Most Of All is a flawless collection of such oft over-looked examples of timeless aural alchemy as the Thompson Twins-penned "I Want That Man" and "Well Did You Evah!" where the divine diva gets to swap priceless Cole Porter couplets with the ubiquitous Iggy Pop.

Review by Ian Fortnam

Deborah Harry - Most Of All: The Best Of Deborah Harry (1999) [Re-Up]



Tracklist:

01. I Want That Man (03:42)
02. French Kissing In the USA (05:11)
03. Brite Side (04:34)
04. Sweet And Low (Single Remix Edit) (04:22)
05. Free To Fall (04:15)
06. Well Did You Evah! (Featuring Iggy Pop (03:28)
07. I Can See Clearly (03:51)
08. Strike Me Pink (04:01)
09. Communion (7' edit) (04:27)
10. Backfired (03:36)
11. In Love With Love (Saw Remix) (03:20)
12. Rush Rush (04:46)
13. The Jam Was Moving (03:00)
14. Feel The Spin (06:48)
15. Maybe For Sure (04:29)
16. Rock Bird (03:10)
17. I Want That Man (Almighty Definitive Mix Radio Edit) (04:04)
18. I Want That Man (D-Bop 11.59 Vocal Mix Radio Edit) (04:01)


Exact Audio Copy V1.0 beta 3 from 29. August 2011

EAC extraction logfile from 2. January 2014, 21:37

Deborah Harry / Most Of All (The Best Of) 1999

Used drive : HL-DT-STDVDRAM GSA-T50L Adapter: 1 ID: 0

Read mode : Secure
Utilize accurate stream : Yes
Defeat audio cache : No
Make use of C2 pointers : Yes

Read offset correction : 667
Overread into Lead-In and Lead-Out : No
Fill up missing offset samples with silence : Yes
Delete leading and trailing silent blocks : No
Null samples used in CRC calculations : Yes
Used interface : Native Win32 interface for Win NT & 2000
Gap handling : Appended to previous track

Used output format : User Defined Encoder
Selected bitrate : 1024 kBit/s
Quality : High
Add ID3 tag : Yes
Command line compressor : C:\Program Files\Exact Audio Copy\Flac\flac.exe
Additional command line options : -8 -V -T "ARTIST=%artist%" -T "TITLE=%title%" -T "ALBUM=%albumtitle%" -T "DATE=%year%" -T "TRACKNUMBER=%tracknr%" -T "GENRE=%genre%" -T "PERFORMER=%albuminterpret%" -T "COMPOSER=%composer%" %haslyrics%–tag-from-file=LYRICS="%lyricsfile%"%haslyrics% -T "ALBUMARTIST=%albumartist%" -T "DISCNUMBER=%cdnumber%" -T "TOTALDISCS=%totalcds%" -T "TOTALTRACKS=%numtracks%" -T "COMMENT=%comment%" %source% -o %dest%


TOC of the extracted CD

Track | Start | Length | Start sector | End sector
––––––––––––––––––––––––––––-
1 | 0:00.00 | 3:42.25 | 0 | 16674
2 | 3:42.25 | 5:11.65 | 16675 | 40064
3 | 8:54.15 | 4:34.57 | 40065 | 60671
4 | 13:28.72 | 4:22.10 | 60672 | 80331
5 | 17:51.07 | 4:15.43 | 80332 | 99499
6 | 22:06.50 | 3:28.05 | 99500 | 115104
7 | 25:34.55 | 3:51.15 | 115105 | 132444
8 | 29:25.70 | 4:01.02 | 132445 | 150521
9 | 33:26.72 | 4:27.40 | 150522 | 170586
10 | 37:54.37 | 3:36.08 | 170587 | 186794
11 | 41:30.45 | 3:20.52 | 186795 | 201846
12 | 44:51.22 | 4:46.48 | 201847 | 223344
13 | 49:37.70 | 3:00.45 | 223345 | 236889
14 | 52:38.40 | 6:48.25 | 236890 | 267514
15 | 59:26.65 | 4:29.40 | 267515 | 287729
16 | 63:56.30 | 3:10.60 | 287730 | 302039
17 | 67:07.15 | 4:04.52 | 302040 | 320391
18 | 71:11.67 | 4:01.55 | 320392 | 338521


Track 1

Filename C:\FLAC\01 I Want That Man.wav

Pre-gap length 0:00:02.00

Peak level 90.2 %
Extraction speed 8.4 X
Track quality 100.0 %
Test CRC 192DC44E
Copy CRC 192DC44E
Accurately ripped (confidence 4) [DCF13839] (AR v2)
Copy OK

Track 2

Filename C:\FLAC\02 French Kissing In the USA.wav

Pre-gap length 0:00:01.17

Peak level 90.6 %
Extraction speed 9.7 X
Track quality 100.0 %
Test CRC 4DAD4BDD
Copy CRC 4DAD4BDD
Accurately ripped (confidence 4) [820FE664] (AR v2)
Copy OK

Track 3

Filename C:\FLAC\03 Brite Side.wav

Pre-gap length 0:00:00.66

Peak level 78.1 %
Extraction speed 11.2 X
Track quality 100.0 %
Test CRC FCA902F6
Copy CRC FCA902F6
Accurately ripped (confidence 4) [3A438BC5] (AR v2)
Copy OK

Track 4

Filename C:\FLAC\04 Sweet And Low (Single Remix Edit).wav

Pre-gap length 0:00:00.36

Peak level 93.3 %
Extraction speed 10.6 X
Track quality 100.0 %
Test CRC 84281856
Copy CRC 84281856
Accurately ripped (confidence 4) [B37671D3] (AR v2)
Copy OK

Track 5

Filename C:\FLAC\05 Free To Fall.wav

Pre-gap length 0:00:00.80

Peak level 89.8 %
Extraction speed 11.8 X
Track quality 99.9 %
Test CRC A9200DB0
Copy CRC A9200DB0
Accurately ripped (confidence 4) [6C8A650B] (AR v2)
Copy OK

Track 6

Filename C:\FLAC\06 Well Did You Evah! (Featuring Iggy Pop.wav

Pre-gap length 0:00:00.90

Peak level 89.7 %
Extraction speed 12.4 X
Track quality 99.8 %
Test CRC 0A800B05
Copy CRC 0A800B05
Accurately ripped (confidence 4) [714FEC2C] (AR v2)
Copy OK

Track 7

Filename C:\FLAC\07 I Can See Clearly.wav

Pre-gap length 0:00:00.33

Peak level 90.5 %
Extraction speed 13.2 X
Track quality 100.0 %
Test CRC 6336FBA0
Copy CRC 6336FBA0
Accurately ripped (confidence 4) [26404AE9] (AR v2)
Copy OK

Track 8

Filename C:\FLAC\08 Strike Me Pink.wav

Pre-gap length 0:00:00.93

Peak level 85.6 %
Extraction speed 14.6 X
Track quality 100.0 %
Test CRC B557D983
Copy CRC B557D983
Accurately ripped (confidence 4) [DFA96975] (AR v2)
Copy OK

Track 9

Filename C:\FLAC\09 Communion (7'' edit).wav

Pre-gap length 0:00:00.60

Peak level 95.0 %
Extraction speed 14.4 X
Track quality 100.0 %
Test CRC DEFFEB10
Copy CRC DEFFEB10
Accurately ripped (confidence 4) [A73DB279] (AR v2)
Copy OK

Track 10

Filename C:\FLAC\10 Backfired.wav

Pre-gap length 0:00:00.60

Peak level 96.9 %
Extraction speed 15.8 X
Track quality 100.0 %
Test CRC A9A8A964
Copy CRC A9A8A964
Accurately ripped (confidence 4) [AA061D43] (AR v2)
Copy OK

Track 11

Filename C:\FLAC\11 In Love With Love (Saw Remix).wav

Pre-gap length 0:00:01.13

Peak level 97.9 %
Extraction speed 15.0 X
Track quality 100.0 %
Test CRC 94516EB8
Copy CRC 94516EB8
Accurately ripped (confidence 4) [383691BE] (AR v2)
Copy OK

Track 12

Filename C:\FLAC\12 Rush Rush.wav

Pre-gap length 0:00:00.36

Peak level 97.9 %
Extraction speed 15.9 X
Track quality 100.0 %
Test CRC FED5468A
Copy CRC FED5468A
Accurately ripped (confidence 4) [1E872A37] (AR v2)
Copy OK

Track 13

Filename C:\FLAC\13 The Jam Was Moving.wav

Pre-gap length 0:00:00.26

Peak level 97.9 %
Extraction speed 15.5 X
Track quality 100.0 %
Test CRC AA8981C3
Copy CRC AA8981C3
Accurately ripped (confidence 4) [FCD49172] (AR v2)
Copy OK

Track 14

Filename C:\FLAC\14 Feel The Spin.wav

Pre-gap length 0:00:00.57

Peak level 93.7 %
Extraction speed 18.0 X
Track quality 100.0 %
Test CRC 98CDC9EA
Copy CRC 98CDC9EA
Accurately ripped (confidence 3) [D67931F0] (AR v2)
Copy OK

Track 15

Filename C:\FLAC\15 Maybe For Sure.wav

Pre-gap length 0:00:00.30

Peak level 87.6 %
Extraction speed 17.4 X
Track quality 100.0 %
Test CRC D743AD92
Copy CRC D743AD92
Accurately ripped (confidence 3) [195961BC] (AR v2)
Copy OK

Track 16

Filename C:\FLAC\16 Rock Bird.wav

Pre-gap length 0:00:00.37

Peak level 87.2 %
Extraction speed 17.2 X
Track quality 100.0 %
Test CRC FBAF7361
Copy CRC FBAF7361
Accurately ripped (confidence 3) [E990988D] (AR v2)
Copy OK

Track 17

Filename C:\FLAC\17 I Want That Man (Almighty Definitive Mix Radio Edit).wav

Pre-gap length 0:00:00.77

Peak level 97.9 %
Extraction speed 18.0 X
Track quality 100.0 %
Test CRC B75E54D8
Copy CRC B75E54D8
Accurately ripped (confidence 3) [A7BEDF0E] (AR v2)
Copy OK

Track 18

Filename C:\FLAC\18 I Want That Man (D-Bop 11.59 Vocal Mix Radio Edit).wav

Pre-gap length 0:00:00.02

Peak level 100.0 %
Extraction speed 18.6 X
Track quality 100.0 %
Test CRC D4DE67EB
Copy CRC D4DE67EB
Accurately ripped (confidence 3) [D474F314] (AR v2)
Copy OK


All tracks accurately ripped

No errors occurred

End of status report

–– CUETools DB Plugin V2.1.3

[CTDB TOCID: Bj9qEWdLhqMwYcWbSgb1krdKRvY-] found, Submit result: Bj9qEWdLhqMwYcWbSgb1krdKRvY- has been confirmed
[03df67e0] (1/6) Differs in 6491 samples @00:00:73,67:07:40-67:07:42,71:07:49-71:10:62,71:10:71,71:11:02,71:12:24-71:12:28,71:26:58,71:34:04,71:35:38,71:36:07,71:39:65,71:40:12,71:42:58-71:42:59,71:44:61,71:45:74,71:49:58,71:55:01,75:09:53-75:13:11
[13a8c45d] (3/6) Accurately ripped
[e29191f6] (1/6) No match
[15a1ad98] (1/6) No match
You can use CUETools to repair this rip.


==== Log checksum 3E123EA639DED1E082DEF65668E39301055A3D1BE428C52EFA29BC4E3BF0C363 ====

––––––––––––––––––––––––––––––

Exact Audio Copy V1.0 beta 3 from 29. August 2011

EAC extraction logfile from 2. January 2014, 21:37

Deborah Harry / Most Of All (The Best Of) 1999

Used drive : HL-DT-STDVDRAM GSA-T50L Adapter: 1 ID: 0

Read mode : Secure
Utilize accurate stream : Yes
Defeat audio cache : No
Make use of C2 pointers : Yes

Read offset correction : 667
Overread into Lead-In and Lead-Out : No
Fill up missing offset samples with silence : Yes
Delete leading and trailing silent blocks : No
Null samples used in CRC calculations : Yes
Used interface : Native Win32 interface for Win NT & 2000
Gap handling : Appended to previous track

Used output format : User Defined Encoder
Selected bitrate : 1024 kBit/s
Quality : High
Add ID3 tag : Yes
Command line compressor : C:\Program Files\Exact Audio Copy\Flac\flac.exe
Additional command line options : -8 -V -T "ARTIST=%artist%" -T "TITLE=%title%" -T "ALBUM=%albumtitle%" -T "DATE=%year%" -T "TRACKNUMBER=%tracknr%" -T "GENRE=%genre%" -T "PERFORMER=%albuminterpret%" -T "COMPOSER=%composer%" %haslyrics%–tag-from-file=LYRICS="%lyricsfile%"%haslyrics% -T "ALBUMARTIST=%albumartist%" -T "DISCNUMBER=%cdnumber%" -T "TOTALDISCS=%totalcds%" -T "TOTALTRACKS=%numtracks%" -T "COMMENT=%comment%" %source% -o %dest%


TOC of the extracted CD

Track | Start | Length | Start sector | End sector
––––––––––––––––––––––––––––-
1 | 0:00.00 | 3:42.25 | 0 | 16674
2 | 3:42.25 | 5:11.65 | 16675 | 40064
3 | 8:54.15 | 4:34.57 | 40065 | 60671
4 | 13:28.72 | 4:22.10 | 60672 | 80331
5 | 17:51.07 | 4:15.43 | 80332 | 99499
6 | 22:06.50 | 3:28.05 | 99500 | 115104
7 | 25:34.55 | 3:51.15 | 115105 | 132444
8 | 29:25.70 | 4:01.02 | 132445 | 150521
9 | 33:26.72 | 4:27.40 | 150522 | 170586
10 | 37:54.37 | 3:36.08 | 170587 | 186794
11 | 41:30.45 | 3:20.52 | 186795 | 201846
12 | 44:51.22 | 4:46.48 | 201847 | 223344
13 | 49:37.70 | 3:00.45 | 223345 | 236889
14 | 52:38.40 | 6:48.25 | 236890 | 267514
15 | 59:26.65 | 4:29.40 | 267515 | 287729
16 | 63:56.30 | 3:10.60 | 287730 | 302039
17 | 67:07.15 | 4:04.52 | 302040 | 320391
18 | 71:11.67 | 4:01.55 | 320392 | 338521


Track 1

Filename C:\FLAC\01 I Want That Man.wav

Pre-gap length 0:00:02.00

Peak level 90.2 %
Extraction speed 8.4 X
Track quality 100.0 %
Test CRC 192DC44E
Copy CRC 192DC44E
Accurately ripped (confidence 4) [DCF13839] (AR v2)
Copy OK

Track 2

Filename C:\FLAC\02 French Kissing In the USA.wav

Pre-gap length 0:00:01.17

Peak level 90.6 %
Extraction speed 9.7 X
Track quality 100.0 %
Test CRC 4DAD4BDD
Copy CRC 4DAD4BDD
Accurately ripped (confidence 4) [820FE664] (AR v2)
Copy OK

Track 3

Filename C:\FLAC\03 Brite Side.wav

Pre-gap length 0:00:00.66

Peak level 78.1 %
Extraction speed 11.2 X
Track quality 100.0 %
Test CRC FCA902F6
Copy CRC FCA902F6
Accurately ripped (confidence 4) [3A438BC5] (AR v2)
Copy OK

Track 4

Filename C:\FLAC\04 Sweet And Low (Single Remix Edit).wav

Pre-gap length 0:00:00.36

Peak level 93.3 %
Extraction speed 10.6 X
Track quality 100.0 %
Test CRC 84281856
Copy CRC 84281856
Accurately ripped (confidence 4) [B37671D3] (AR v2)
Copy OK

Track 5

Filename C:\FLAC\05 Free To Fall.wav

Pre-gap length 0:00:00.80

Peak level 89.8 %
Extraction speed 11.8 X
Track quality 99.9 %
Test CRC A9200DB0
Copy CRC A9200DB0
Accurately ripped (confidence 4) [6C8A650B] (AR v2)
Copy OK

Track 6

Filename C:\FLAC\06 Well Did You Evah! (Featuring Iggy Pop.wav

Pre-gap length 0:00:00.90

Peak level 89.7 %
Extraction speed 12.4 X
Track quality 99.8 %
Test CRC 0A800B05
Copy CRC 0A800B05
Accurately ripped (confidence 4) [714FEC2C] (AR v2)
Copy OK

Track 7

Filename C:\FLAC\07 I Can See Clearly.wav

Pre-gap length 0:00:00.33

Peak level 90.5 %
Extraction speed 13.2 X
Track quality 100.0 %
Test CRC 6336FBA0
Copy CRC 6336FBA0
Accurately ripped (confidence 4) [26404AE9] (AR v2)
Copy OK

Track 8

Filename C:\FLAC\08 Strike Me Pink.wav

Pre-gap length 0:00:00.93

Peak level 85.6 %
Extraction speed 14.6 X
Track quality 100.0 %
Test CRC B557D983
Copy CRC B557D983
Accurately ripped (confidence 4) [DFA96975] (AR v2)
Copy OK

Track 9

Filename C:\FLAC\09 Communion (7'' edit).wav

Pre-gap length 0:00:00.60

Peak level 95.0 %
Extraction speed 14.4 X
Track quality 100.0 %
Test CRC DEFFEB10
Copy CRC DEFFEB10
Accurately ripped (confidence 4) [A73DB279] (AR v2)
Copy OK

Track 10

Filename C:\FLAC\10 Backfired.wav

Pre-gap length 0:00:00.60

Peak level 96.9 %
Extraction speed 15.8 X
Track quality 100.0 %
Test CRC A9A8A964
Copy CRC A9A8A964
Accurately ripped (confidence 4) [AA061D43] (AR v2)
Copy OK

Track 11

Filename C:\FLAC\11 In Love With Love (Saw Remix).wav

Pre-gap length 0:00:01.13

Peak level 97.9 %
Extraction speed 15.0 X
Track quality 100.0 %
Test CRC 94516EB8
Copy CRC 94516EB8
Accurately ripped (confidence 4) [383691BE] (AR v2)
Copy OK

Track 12

Filename C:\FLAC\12 Rush Rush.wav

Pre-gap length 0:00:00.36

Peak level 97.9 %
Extraction speed 15.9 X
Track quality 100.0 %
Test CRC FED5468A
Copy CRC FED5468A
Accurately ripped (confidence 4) [1E872A37] (AR v2)
Copy OK

Track 13

Filename C:\FLAC\13 The Jam Was Moving.wav

Pre-gap length 0:00:00.26

Peak level 97.9 %
Extraction speed 15.5 X
Track quality 100.0 %
Test CRC AA8981C3
Copy CRC AA8981C3
Accurately ripped (confidence 4) [FCD49172] (AR v2)
Copy OK

Track 14

Filename C:\FLAC\14 Feel The Spin.wav

Pre-gap length 0:00:00.57

Peak level 93.7 %
Extraction speed 18.0 X
Track quality 100.0 %
Test CRC 98CDC9EA
Copy CRC 98CDC9EA
Accurately ripped (confidence 3) [D67931F0] (AR v2)
Copy OK

Track 15

Filename C:\FLAC\15 Maybe For Sure.wav

Pre-gap length 0:00:00.30

Peak level 87.6 %
Extraction speed 17.4 X
Track quality 100.0 %
Test CRC D743AD92
Copy CRC D743AD92
Accurately ripped (confidence 3) [195961BC] (AR v2)
Copy OK

Track 16

Filename C:\FLAC\16 Rock Bird.wav

Pre-gap length 0:00:00.37

Peak level 87.2 %
Extraction speed 17.2 X
Track quality 100.0 %
Test CRC FBAF7361
Copy CRC FBAF7361
Accurately ripped (confidence 3) [E990988D] (AR v2)
Copy OK

Track 17

Filename C:\FLAC\17 I Want That Man (Almighty Definitive Mix Radio Edit).wav

Pre-gap length 0:00:00.77

Peak level 97.9 %
Extraction speed 18.0 X
Track quality 100.0 %
Test CRC B75E54D8
Copy CRC B75E54D8
Accurately ripped (confidence 3) [A7BEDF0E] (AR v2)
Copy OK

Track 18

Filename C:\FLAC\18 I Want That Man (D-Bop 11.59 Vocal Mix Radio Edit).wav

Pre-gap length 0:00:00.02

Peak level 100.0 %
Extraction speed 18.6 X
Track quality 100.0 %
Test CRC D4DE67EB
Copy CRC D4DE67EB
Accurately ripped (confidence 3) [D474F314] (AR v2)
Copy OK


All tracks accurately ripped

No errors occurred

End of status report

–– CUETools DB Plugin V2.1.3

[CTDB TOCID: Bj9qEWdLhqMwYcWbSgb1krdKRvY-] found, Submit result: Bj9qEWdLhqMwYcWbSgb1krdKRvY- has been confirmed
[03df67e0] (1/6) Differs in 6491 samples @00:00:73,67:07:40-67:07:42,71:07:49-71:10:62,71:10:71,71:11:02,71:12:24-71:12:28,71:26:58,71:34:04,71:35:38,71:36:07,71:39:65,71:40:12,71:42:58-71:42:59,71:44:61,71:45:74,71:49:58,71:55:01,75:09:53-75:13:11
[13a8c45d] (3/6) Accurately ripped
[e29191f6] (1/6) No match
[15a1ad98] (1/6) No match
You can use CUETools to repair this rip.


==== Log checksum 3E123EA639DED1E082DEF65668E39301055A3D1BE428C52EFA29BC4E3BF0C363 ====

foobar2000 1.2 / Dynamic Range Meter 1.1.1
log date: 2014-08-24 17:42:32

––––––––––––––––––––––––––––––––––––––––
Analyzed: Deborah Harry / Most Of All (The Best Of) 1999
––––––––––––––––––––––––––––––––––––––––

DR Peak RMS Duration Track
––––––––––––––––––––––––––––––––––––––––
DR13 -0.89 dB -15.84 dB 3:42 01-I Want That Man
DR11 -0.86 dB -14.16 dB 5:12 02-French Kissing In the USA
DR12 -2.15 dB -15.76 dB 4:35 03-Brite Side
DR12 -0.60 dB -13.47 dB 4:22 04-Sweet And Low (Single Remix Edit)
DR11 -0.93 dB -14.00 dB 4:16 05-Free To Fall
DR12 -0.94 dB -13.95 dB 3:28 06-Well Did You Evah! (Featuring Iggy Pop
DR12 -0.86 dB -14.26 dB 3:51 07-I Can See Clearly
DR13 -1.34 dB -15.55 dB 4:01 08-Strike Me Pink
DR13 -0.44 dB -14.35 dB 4:28 09-Communion (7' edit)
DR13 -0.27 dB -14.64 dB 3:36 10-Backfired
DR13 -0.18 dB -14.62 dB 3:21 11-In Love With Love (Saw Remix)
DR13 -0.18 dB -15.02 dB 4:47 12-Rush Rush
DR13 -0.18 dB -15.19 dB 3:01 13-The Jam Was Moving
DR12 -0.56 dB -14.62 dB 6:48 14-Feel The Spin
DR12 -1.14 dB -14.79 dB 4:30 15-Maybe For Sure
DR11 -1.18 dB -13.60 dB 3:11 16-Rock Bird
DR12 -0.18 dB -13.50 dB 4:05 17-I Want That Man (Almighty Definitive Mix Radio Edit)
DR12 0.00 dB -14.08 dB 4:02 18-I Want That Man (D-Bop 11.59 Vocal Mix Radio Edit)
––––––––––––––––––––––––––––––––––––––––

Number of tracks: 18
Official DR value: DR12

Samplerate: 44100 Hz
Channels: 2
Bits per sample: 16
Bitrate: 888 kbps
Codec: FLAC
================================================================================

Deborah Harry - Most Of All: The Best Of Deborah Harry (1999) [Re-Up]

Deborah Harry - Most Of All: The Best Of Deborah Harry (1999) [Re-Up]