Subcategories

Decca, Wiener Philharmoniker - 6 Classic Analogue LPs (2014) [Vinyl Rip 16/44]

Posted By: v3122
Decca, Wiener Philharmoniker - 6 Classic Analogue LPs (2014) [Vinyl Rip 16/44]

Decca, Wiener Philharmoniker - 6 Classic Analogue LPs (2014)
6 x Vinyl Rip 16/44 | Flac(Image + Cue) > 1495 Mb | Artwork(jpg) > 51 Mb
Decca Music Group, 478 7464 | Classical

~ This unique Limited-edition LP set features six outstanding Decca/Vienna Philarmonic recordings, newly presented in luxury 180gm vinyl pressing, celeborating one of the great relationship of recorded classical music in the 20th century. ~

Decca, Wiener Philharmoniker - 6 Classic Analogue LPs (2014):

Decca, Wiener Philharmoniker - 6 Classic Analogue LPs (2014) [Vinyl Rip 16/44]

Tracklist VNL01 - The Vienna Philharmonic Plays Wagner 1962:

Wiener Philharmoniker, Sir Georg Solti
01.Rienzi - Overture
02.Der fliegende Hollander - Overture
03.Tannhauser (Paris version) - Overture
04.Tannhauser (Paris version) - Bacchanale

foobar2000 1.2.9 / Dynamic Range Meter 1.1.1
log date: 2017-11-07 01:50:23

––––––––––––––––––––––––––––––––––––––––
Analyzed: Georg Solti / Vienna Philharmonic Orchestra / The Vienna Philharmonic Plays Wagner
––––––––––––––––––––––––––––––––––––––––

DR Peak RMS Duration Track
––––––––––––––––––––––––––––––––––––––––
DR11 -0.05 dB -15.59 dB 11:38 01-Rienzi - Overture
DR12 -0.12 dB -16.33 dB 10:31 02-Der fliegende Holländer - Overture
DR12 -0.04 dB -17.29 dB 14:17 03-Tannhäuser (Paris version) - Overture
DR14 -0.04 dB -20.19 dB 13:04 04-Tannhäuser (Paris version) - Bacchanale
––––––––––––––––––––––––––––––––––––––––

Number of tracks: 4
Official DR value: DR12

Samplerate: 44100 Hz
Channels: 2
Bits per sample: 16
Bitrate: 697 kbps
Codec: FLAC
================================================================================



Decca, Wiener Philharmoniker - 6 Classic Analogue LPs (2014) [Vinyl Rip 16/44]

Tracklist VNL02 - Gustav Holst The Planets 1962:

Wiener Philharmoniker, Herbert von Karajan
01.The Planets, Op.32 - I. Mars, the Bringer of War
02.The Planets, Op.32 - II. Venus, the Bringer of Peace
03.The Planets, Op.32 - III. Mercury, the Winged Messenger
04.The Planets, Op.32 - IV. Jupiter, the Bringer of Jollity
05.The Planets, Op.32 - V. Saturn, the Bringer of Old Age
06.The Planets, Op.32 - VI. Uranus, the Magician
07.The Planets, Op.32 - VII. Neptune, the Mystic

foobar2000 1.2.9 / Dynamic Range Meter 1.1.1
log date: 2017-11-07 01:50:40

––––––––––––––––––––––––––––––––––––––––
Analyzed: Herbert von Karajan / Wiener Philharmoniker / Holst: The Planets
––––––––––––––––––––––––––––––––––––––––

DR Peak RMS Duration Track
––––––––––––––––––––––––––––––––––––––––
DR11 -0.03 dB -15.41 dB 7:04 01-The Planets, Op.32 - I. Mars, the Bringer of War
DR16 -3.76 dB -27.75 dB 8:22 02-The Planets, Op.32 - II. Venus, the Bringer of Peace
DR14 -3.18 dB -24.72 dB 3:58 03-The Planets, Op.32 - III. Mercury, the Winged Messenger
DR12 -2.78 dB -19.18 dB 7:37 04-The Planets, Op.32 - IV. Jupiter, the Bringer of Jollity
DR14 -1.26 dB -21.39 dB 8:33 05-The Planets, Op.32 - V. Saturn, the Bringer of Old Age
DR12 -0.10 dB -17.49 dB 5:46 06-The Planets, Op.32 - VI. Uranus, the Magician
DR15 -7.17 dB -28.36 dB 7:32 07-The Planets, Op.32 - VII. Neptune, the Mystic
––––––––––––––––––––––––––––––––––––––––

Number of tracks: 7
Official DR value: DR14

Samplerate: 44100 Hz
Channels: 2
Bits per sample: 16
Bitrate: 657 kbps
Codec: FLAC
================================================================================



Decca, Wiener Philharmoniker - 6 Classic Analogue LPs (2014) [Vinyl Rip 16/44]

Tracklist VNL03 - Anton Bruckner Symphony No.9 in D Minor 1966:

Wiener Philharmoniker, Zubin Mehta
01.Symphony No.9 in D Minor - I. Feierlich. Misterioso
02.Symphony No.9 in D Minor - II. Scherzo (Bewegt lebhaft) - Trio (Schnell) - Scherzo da capo
03.Symphony No.9 in D Minor - III. Adagio (Langsam, feierlich)

foobar2000 1.2.9 / Dynamic Range Meter 1.1.1
log date: 2017-11-07 01:50:58

––––––––––––––––––––––––––––––––––––––––
Analyzed: Zubin Mehta / Wiener Philharmoniker / Bruckner: Symphony No.9 in D Minor
––––––––––––––––––––––––––––––––––––––––

DR Peak RMS Duration Track
––––––––––––––––––––––––––––––––––––––––
DR14 -0.05 dB -19.83 dB 26:05 01-Symphony No.9 in D Minor - I. Feierlich. Misterioso
DR13 -0.47 dB -19.69 dB 10:42 02-Symphony No.9 in D Minor - II. Scherzo (Bewegt lebhaft) - Trio (Schnell) - Scherzo da capo
DR14 -0.04 dB -20.56 dB 27:12 03-Symphony No.9 in D Minor - III. Adagio (Langsam, feierlich)
––––––––––––––––––––––––––––––––––––––––

Number of tracks: 3
Official DR value: DR14

Samplerate: 44100 Hz
Channels: 2
Bits per sample: 16
Bitrate: 656 kbps
Codec: FLAC
================================================================================



Decca, Wiener Philharmoniker - 6 Classic Analogue LPs (2014) [Vinyl Rip 16/44]

Tracklist VNL04 - Franz Schubert-Rosamunde, D.797 (Incidental music to Helmina von Chezy's Play) 1975:

Wiener Philharmoniker, Karl Munchinger, Vienna State Opera Chorus, Chorus Master Norbert Balatsch, Rohangiz Yachmi Contralto
01.Overture (Die Zauberharfe, D.644)
02.Entr'acte No. 1
03.Ballet Music No. 1 - Andante un poco assai
04.Entr'acte No. 2
05.Romance: "Der Vollmond strahlt auf Bergeshoh'n"
06.Chorus of Spirits: "In der Tiefe wohnt das Licht"
07.Entr'acte No. 3 - Andantino
08.Shepherd's melody
09.Chorus of Shepherds: "Hier auf den Fluren…."
10.Chorus of Huntsmen: "Wie lebt sich's so frohlich im Grunen"
11.Ballet Music No. 2

foobar2000 1.2.9 / Dynamic Range Meter 1.1.1
log date: 2017-11-07 01:53:07

––––––––––––––––––––––––––––––––––––––––
Analyzed: Karl Münchinger / Wiener Philharmoniker / Rosamunde, D.797 (Incidental music to Helmina von Chézy's Play)
––––––––––––––––––––––––––––––––––––––––

DR Peak RMS Duration Track
––––––––––––––––––––––––––––––––––––––––
DR13 -0.03 dB -18.35 dB 10:33 01-Overture (Die Zauberharfe, D.644)
DR14 -0.38 dB -19.86 dB 7:25 02-Entr'acte No. 1
DR14 -0.11 dB -20.25 dB 7:31 03-Ballet Music No. 1 - Andante un poco assai
DR12 -2.78 dB -20.89 dB 4:20 04-Entr'acte No. 2
DR12 -7.03 dB -22.54 dB 3:45 05-Romance: 'Der Vollmond strahlt auf Bergeshöh'n'
DR12 -0.81 dB -19.09 dB 3:11 06-Chorus of Spirits: 'In der Tiefe wohnt das Licht'
DR13 -8.47 dB -25.78 dB 7:42 07-Entr'acte No. 3 - Andantino
DR11 -15.51 dB -29.41 dB 1:32 08-Shepherd's melody
DR13 -0.03 dB -18.78 dB 4:09 09-Chorus of Shepherds: 'Hier auf den Fluren….'
DR14 -4.03 dB -24.45 dB 6:04 10-Ballet Music No. 2
DR12 -1.49 dB -19.12 dB 2:21 11-Chorus of Huntsmen: 'Wie lebt sich's so fröhlich im Grünen'
––––––––––––––––––––––––––––––––––––––––

Number of tracks: 11
Official DR value: DR13

Samplerate: 44100 Hz
Channels: 2
Bits per sample: 16
Bitrate: 620 kbps
Codec: FLAC
================================================================================



Decca, Wiener Philharmoniker - 6 Classic Analogue LPs (2014) [Vinyl Rip 16/44]

Tracklist VNL05 - Overtures Of Old Vienna 1969:

Wiener Philharmoniker, Willi Boskovsky
01 .Johann Strauss II- Die Fledermaus
02. Otto Nicolai-The Merry Wives of Windsor (Die lustigen Weiber von Windsor)
03. Emik Nikolaus Von Reznicek-Donna Diana
04. Johann Strauss II-Prinz Methusalem
05. Richard Heuberger-Der Opernball

foobar2000 1.2.9 / Dynamic Range Meter 1.1.1
log date: 2017-11-07 01:51:39

––––––––––––––––––––––––––––––––––––––––
Analyzed: Willi Boskovsky / Wiener Philharmoniker / Overtures Of Old Vienna
––––––––––––––––––––––––––––––––––––––––

DR Peak RMS Duration Track
––––––––––––––––––––––––––––––––––––––––
DR13 -0.04 dB -18.45 dB 8:17 01-Die Fledermaus
DR12 -0.51 dB -18.18 dB 8:53 02-The Merry Wives of Windsor (Die lustigen Weiber von Windsor)
DR12 -2.10 dB -18.33 dB 5:41 03-Donna Diana
DR12 -0.95 dB -17.27 dB 5:40 04-Prinz Methusalem
DR14 -0.03 dB -19.32 dB 7:11 05-Der Opernball
––––––––––––––––––––––––––––––––––––––––

Number of tracks: 5
Official DR value: DR13

Samplerate: 44100 Hz
Channels: 2
Bits per sample: 16
Bitrate: 694 kbps
Codec: FLAC
================================================================================



Decca, Wiener Philharmoniker - 6 Classic Analogue LPs (2014) [Vinyl Rip 16/44]

Tracklist VNL06 - Ludwig van Beethoven Egmont - Complete Incidental Music, Op.84 1970:

Wiener Philharmoniker, George Szell, Pilar Lorengar, Soprano, Narration based on the text by Grillparzer, and melodrama from the play by Goethe, spoken by Klausjuergen Wussow
01.Overture
02.Lied: "Die Trommel geruhret"
03.Zwischenakt: Andante
04.Zwischenakt: Larghetto
05.Lied: "Freudvoll und leidvoll"
06.Zwischenakt: Allegro - Marcia
07.Zwischenakt: Poco sostenuto e risoluto
08.Clarchens Tod
09.Melodram: Su?er Schlaf du kommst wie ein
10.Siegessymphonie: Allegro con brio

foobar2000 1.2.9 / Dynamic Range Meter 1.1.1
log date: 2017-11-07 01:51:56

––––––––––––––––––––––––––––––––––––––––
Analyzed: George Szell / Wiener Philharmoniker / Egmont - Complete Incidental Music, Op.84
––––––––––––––––––––––––––––––––––––––––

DR Peak RMS Duration Track
––––––––––––––––––––––––––––––––––––––––
DR14 -0.16 dB -19.16 dB 11:29 01-Overture
DR13 -0.05 dB -17.72 dB 3:08 02-Lied: 'Die Trommel gerühret'
DR13 -1.27 dB -21.44 dB 4:01 03-Zwischenakt: Andante
DR19 -3.40 dB -27.38 dB 5:37 04-Zwischenakt: Larghetto
DR12 -1.89 dB -18.61 dB 1:59 05-Lied: 'Freudvoll und leidvoll'
DR16 -1.15 dB -22.78 dB 4:39 06-Zwischenakt: Allegro - Marcia
DR15 -0.06 dB -22.15 dB 4:03 07-Zwischenakt: Poco sostenuto e risoluto
DR16 -9.70 dB -29.80 dB 3:03 08-Clärchens Tod
DR17 -1.39 dB -23.94 dB 8:24 09-Melodram: Süßer Schlaf du kommst wie ein
DR12 -0.81 dB -16.11 dB 1:26 10-Siegessymphonie: Allegro con brio
––––––––––––––––––––––––––––––––––––––––

Number of tracks: 10
Official DR value: DR15

Samplerate: 44100 Hz
Channels: 2
Bits per sample: 16
Bitrate: 616 kbps
Codec: FLAC
================================================================================




Original ripper:
Original format: 24/192
Vinyl Condition:
Cleaning:
Direct Drive Turntable: Technics SL1200-MK5
Cartridge: Audio Technica AT33PTG/II
Amplifier: AVID Pellar preamp
ADC: RME Hammerfall 9632 ADC
Postprocessing: ClickRepair (manual mode only), iZotope RX3

Downsampled to 16/44

Decca, Wiener Philharmoniker - 6 Classic Analogue LPs (2014) [Vinyl Rip 16/44]

All thanks go to the original releaser

Led Zeppelin: Discography (1969 - 1982) [Vinyl Rip 16/44 & mp3-320]
Manowar: Collection (1982 - 2012) [Vinyl Rip 16/44 & mp3-320]
A-HA: Collection (1985-2015) [Vinyl Rip 16/44 & mp3-320]
Manowar: Collection (1982 - 2012) [Vinyl Rip 16/44 & mp3-320]

Download Decca, Wiener Philharmoniker - 6 Classic Analogue LPs (2014):