Subcategories

Deep Purple - A Fire In The Sky: Selected Career-Spanning Songs (2017)

Posted By: popsakov
Deep Purple - A Fire In The Sky: Selected Career-Spanning Songs (2017)

Deep Purple - A Fire In The Sky: Selected Career-Spanning Songs (2017)
EAC Rip | FLAC (Img) + Cue + Log ~ 587 Mb | MP3 CBR320 ~ 215 Mb
Scans Included (JPG, 600 dpi) | RAR 5% Recovery
Classic Rock, Hard Rock | Parlophone #0190295934736

There has been no shortage of Deep Purple compilations over the years, but unlike some of the British hard rock legends' contemporaries (Sabbath, Zeppelin, etc.), they've managed a fairly consistent stream of output since their 1968 debut. Rhino's A Fire in the Sky, a 40-track career retrospective that includes at least one song from every studio album through 2013's Now What?!, is easily the most comprehensive anthology that the band has released to date – a more manageable, largely singles-oriented 20-track version is also available, as is a triple-vinyl edition. Despite cycling through too many lineup iterations to mention, the band has consistently adhered to the heavy blues-rock foundation that made career highlights like "Hush," "Smoke on the Water," "Highway Star," and "Woman from Tokyo" so essential. Mid- to late-career offerings like "Perfect Strangers," "Call of the Wild," "Rapture of the Deep," and "Hell to Pay" may lack some of the bluster of those classic rock radio staples, but they still feel vital, suggesting that the key to hard rock longevity is sometimes just staying in the game.
~ James Christopher Monger, All Music

***************

Deep Purple - A Fire In The Sky: Selected Career-Spanning Songs (2017)

Deep Purple - A Fire In The Sky: Selected Career-Spanning Songs (2017)

Track List:

01. Hell to Pay (Radio Edit) [3:44]
02. Rapture of the Deep [5:56]
03. Sun Goes Down [4:10]
04. Any Fule Kno That [4:28]
05. Sometimes I Feel Like Screaming (Edit) [4:37]
06. Bad Attitude (Radio Edit) [4:03]
07. Knocking at Your Back Door (Single Edit) [4:03]
08. Perfect Strangers (Single Edit) [4:16]
09. You Keep On Moving (Single Edit) [4:28]
10. Soldier of Fortune [3:15]
11. Burn (U.S. Single Edit) [3:40]
12. Woman From Tokyo (Single Edit) [2:45]
13. Highway Star (U.S. Single Edit) [3:00]
14. Smoke on the Water (U.S. Single Edit) [3:51]
15. Fireball [3:24]
16. Strange Kind of Woman [3:51]
17. Child in Time (Part 1) [4:14]
18. Speed King (U.S. Album Edit) [4:20]
19. Black Night [3:27]
20. Hush [4:12]

Exact Audio Copy V1.3 from 2. September 2016

EAC extraction logfile from 29. December 2017, 19:29

Deep Purple / A Fire in the Sky - Selected Career-Spanning Songs

Used drive : PLEXTOR BD-R PX-LB950SA Adapter: 1 ID: 1

Read mode : Secure
Utilize accurate stream : Yes
Defeat audio cache : Yes
Make use of C2 pointers : No

Read offset correction : 6
Overread into Lead-In and Lead-Out : No
Fill up missing offset samples with silence : Yes
Delete leading and trailing silent blocks : No
Null samples used in CRC calculations : Yes
Used interface : Native Win32 interface for Win NT & 2000

Used output format : User Defined Encoder
Selected bitrate : 128 kBit/s
Quality : High
Add ID3 tag : No
Command line compressor : C:\Program Files (x86)\Exact Audio Copy\Flac\flac.exe
Additional command line options : -V -8 -T "Date=%year%" -T "Genre=%genre%" %source%


TOC of the extracted CD

Track | Start | Length | Start sector | End sector
––––––––––––––––––––––––––––-
1 | 0:00.00 | 3:44.10 | 0 | 16809
2 | 3:44.10 | 5:56.05 | 16810 | 43514
3 | 9:40.15 | 4:10.02 | 43515 | 62266
4 | 13:50.17 | 4:27.65 | 62267 | 82356
5 | 18:18.07 | 4:36.47 | 82357 | 103103
6 | 22:54.54 | 4:02.54 | 103104 | 121307
7 | 26:57.33 | 4:03.01 | 121308 | 139533
8 | 31:00.34 | 4:15.43 | 139534 | 158701
9 | 35:16.02 | 4:28.00 | 158702 | 178801
10 | 39:44.02 | 3:14.72 | 178802 | 193423
11 | 42:58.74 | 3:40.20 | 193424 | 209943
12 | 46:39.19 | 2:45.15 | 209944 | 222333
13 | 49:24.34 | 3:00.35 | 222334 | 235868
14 | 52:24.69 | 3:51.27 | 235869 | 253220
15 | 56:16.21 | 3:24.02 | 253221 | 268522
16 | 59:40.23 | 3:50.53 | 268523 | 285825
17 | 63:31.01 | 4:14.37 | 285826 | 304912
18 | 67:45.38 | 4:19.59 | 304913 | 324396
19 | 72:05.22 | 3:27.03 | 324397 | 339924
20 | 75:32.25 | 4:12.03 | 339925 | 358827


Range status and errors

Selected range

Filename C:\Deep Purple - A Fire In The Sky - Selected Career-Spanning Songs (FLAC) - 2017\Deep Purple - A Fire in the Sky - Selected Career-Spanning Songs.wav

Peak level 97.0 %
Extraction speed 4.0 X
Range quality 100.0 %
Test CRC 4F5E6C5B
Copy CRC 4F5E6C5B
Copy OK

No errors occurred


AccurateRip summary

Track 1 not present in database
Track 2 not present in database
Track 3 not present in database
Track 4 not present in database
Track 5 not present in database
Track 6 not present in database
Track 7 not present in database
Track 8 not present in database
Track 9 not present in database
Track 10 not present in database
Track 11 not present in database
Track 12 not present in database
Track 13 not present in database
Track 14 not present in database
Track 15 not present in database
Track 16 not present in database
Track 17 not present in database
Track 18 not present in database
Track 19 not present in database
Track 20 not present in database

None of the tracks are present in the AccurateRip database

End of status report

–– CUETools DB Plugin V2.1.6

[CTDB TOCID: wmWmdwFk3gri9MDRwsL2IZWAXkw-] found
Submit result: wmWmdwFk3gri9MDRwsL2IZWAXkw- has been confirmed
Track | CTDB Status
1 | (8/8) Accurately ripped
2 | (8/8) Accurately ripped
3 | (8/8) Accurately ripped
4 | (8/8) Accurately ripped
5 | (8/8) Accurately ripped
6 | (8/8) Accurately ripped
7 | (2/8) Accurately ripped, or (6/8) differs in 118 samples @03:27:44
8 | (8/8) Accurately ripped
9 | (8/8) Accurately ripped
10 | (8/8) Accurately ripped
11 | (8/8) Accurately ripped
12 | (8/8) Accurately ripped
13 | (8/8) Accurately ripped
14 | (8/8) Accurately ripped
15 | (8/8) Accurately ripped
16 | (2/8) Accurately ripped, or (6/8) differs in 992 samples @01:19:35-01:19:37,01:19:42-01:19:52,01:25:27-01:25:45,01:37:06-01:37:10,01:39:00,03:03:08
17 | (8/8) Accurately ripped
18 | (8/8) Accurately ripped
19 | (8/8) Accurately ripped
20 | (8/8) Accurately ripped
If you are sure that your rip contains errors, you can use CUETools to repair it.


==== Log checksum 44FDC6DCF44D2458BABB0ECE2B7100CCCD8F79361A856F3CA46262EA5C80CE54 ====

foobar2000 1.3.16 / Dynamic Range Meter 1.1.1
log date: 2017-12-30 23:13:45

––––––––––––––––––––––––––––––––––––––––
Analyzed: Deep Purple / A Fire in the Sky - Selected Career-Spanning Songs
––––––––––––––––––––––––––––––––––––––––

DR Peak RMS Duration Track
––––––––––––––––––––––––––––––––––––––––
DR11 -0.26 dB -11.82 dB 3:44 01-Hell to Pay (Radio Edit)
DR10 -0.26 dB -11.82 dB 5:56 02-Rapture of the Deep
DR11 -0.26 dB -12.19 dB 4:10 03-Sun Goes Down
DR10 -0.26 dB -11.82 dB 4:28 04-Any Fule Kno That
DR11 -0.26 dB -13.98 dB 4:37 05-Sometimes I Feel Like Screaming (Edit)
DR10 -0.26 dB -11.71 dB 4:03 06-Bad Attitude (Radio Edit)
DR11 -0.26 dB -12.19 dB 4:03 07-Knocking at Your Back Door (Single Edit)
DR11 -0.26 dB -12.48 dB 4:16 08-Perfect Strangers (Single Edit)
DR11 -0.26 dB -13.83 dB 4:28 09-You Keep On Moving (Single Edit)
DR13 -0.26 dB -15.34 dB 3:15 10-Soldier of Fortune
DR10 -0.26 dB -12.28 dB 3:40 11-Burn (U.S. Single Edit)
DR11 -0.26 dB -13.08 dB 2:45 12-Woman From Tokyo (Single Edit)
DR11 -0.26 dB -12.13 dB 3:00 13-Highway Star (U.S. Single Edit)
DR11 -0.26 dB -12.95 dB 3:51 14-Smoke on the Water (U.S. Single Edit)
DR10 -0.26 dB -11.93 dB 3:24 15-Fireball
DR11 -0.26 dB -12.04 dB 3:51 16-Strange Kind of Woman
DR10 -0.62 dB -14.41 dB 4:14 17-Child in Time (Part 1)
DR10 -0.26 dB -11.73 dB 4:20 18-Speed King (U.S. Album Edit)
DR10 -0.26 dB -11.70 dB 3:27 19-Black Night
DR10 -0.26 dB -12.95 dB 4:12 20-Hush
––––––––––––––––––––––––––––––––––––––––

Number of tracks: 20
Official DR value: DR11

Samplerate: 44100 Hz
Channels: 2
Bits per sample: 16
Bitrate: 940 kbps
Codec: FLAC
================================================================================

[CUETools log; Date: 30.12.2017 23:13:58; Version: 2.1.5]
[CTDB TOCID: wmWmdwFk3gri9MDRwsL2IZWAXkw-] found.
Track | CTDB Status
1 | (11/11) Accurately ripped
2 | (11/11) Accurately ripped
3 | (11/11) Accurately ripped
4 | (11/11) Accurately ripped
5 | (11/11) Accurately ripped
6 | (11/11) Accurately ripped
7 | ( 5/11) Accurately ripped, or (6/11) differs in 118 samples @03:27:44
8 | (11/11) Accurately ripped
9 | (11/11) Accurately ripped
10 | (11/11) Accurately ripped
11 | (11/11) Accurately ripped
12 | (11/11) Accurately ripped
13 | (11/11) Accurately ripped
14 | (11/11) Accurately ripped
15 | (11/11) Accurately ripped
16 | ( 5/11) Accurately ripped, or (6/11) differs in 992 samples @01:19:35-01:19:37,01:19:42-01:19:52,01:25:27-01:25:45,01:37:06-01:37:10,01:39:00,03:03:08
17 | (11/11) Accurately ripped
18 | (11/11) Accurately ripped
19 | (11/11) Accurately ripped
20 | (11/11) Accurately ripped
[AccurateRip ID: 003b9073-035caa13-2312b014] disk not present in database.

Track Peak [ CRC32 ] [W/O NULL] [ LOG ]
– 97,0 [4F5E6C5B] [467A0DB6] CRC32
01 97,0 [F66F77F6] [946C60DF]
02 97,0 [1C51CBD8] [46AF5DD2]
03 97,0 [24D0027A] [52D0B7EC]
04 97,0 [C4897B6E] [0E0EC52E]
05 97,0 [781F2ADE] [4D538257]
06 97,0 [45617F8C] [40201F58]
07 97,0 [5A829071] [77EC044A]
08 97,0 [9D5B5F8A] [AF7EBF7B]
09 97,0 [653EEA48] [97115389]
10 97,0 [42500761] [52C5D83C]
11 97,0 [2E716166] [46CCC37E]
12 97,0 [0FD02989] [09F7ECF3]
13 97,0 [6468F027] [8687B1AA]
14 97,0 [34787D74] [E08DBC38]
15 97,0 [4A4659C5] [3791745A]
16 97,0 [35A30E74] [A6B7C3A6]
17 93,0 [1A2713C7] [00C3E4FC]
18 97,0 [0DA054E3] [99A6DA89]
19 97,0 [CA05CDC1] [C48C128C]
20 97,0 [68ADBD52] [86B93A67]

Deep Purple - A Fire In The Sky: Selected Career-Spanning Songs (2017)

All thanks go to svk_1957

>>> Deep Purple in my Blog <<<

Download from icerbox.com: