Subcategories

Deep Purple: Collection (1968 - 2017) [Vinyl Rip 16/44 & mp3-320]

Posted By: v3122
Deep Purple: Collection (1968 - 2017) [Vinyl Rip 16/44 & mp3-320]

Deep Purple: Collection (1968 - 2017)
11 x Vinyl Rip 16/44 | Flac(Image + Cue) > 3632 Mb
MP3 CBR 320Kbps > 1372 Mb | Artwork(jpg) > 640 Mb
Hard Rock / Classic Rock

Deep Purple are an English rock band formed in Hertford in 1968. The band is considered to be among the pioneers of heavy metal and modern hard rock, although their musical approach changed over the years. Originally formed as a progressive rock band, the band shifted to a heavier sound in 1970. Deep Purple, together with Led Zeppelin and Black Sabbath, have been referred to as the "unholy trinity of British hard rock and heavy metal in the early to mid-seventies". They were listed in the 1975 Guinness Book of World Records as "the globe's loudest band" for a 1972 concert at London's Rainbow Theatre, and have sold over 100 million albums worldwide.

Deep Purple have had several line-up changes and an eight-year hiatus (1976–1984). The 1968–1976 line-ups are commonly labelled Mark I, II, III and IV. Their second and most commercially successful line-up consisted of Ian Gillan (vocals), Jon Lord (keyboards, backing vocals), Roger Glover (bass), Ian Paice (drums), and Ritchie Blackmore (guitar). This line-up was active from 1969 to 1973, and was revived from 1984 to 1989, and again from 1992 to 1993. The band achieved more modest success in the intervening periods between 1968 and 1969 with the line-up including Rod Evans (lead vocals) and Nick Simper (bass, backing vocals), between 1974 and 1976 (Tommy Bolin replacing Blackmore in 1975) with the line-up including David Coverdale (lead vocals) and Glenn Hughes (bass, vocals), and between 1989 and 1992 with the line-up including Joe Lynn Turner (vocals). The band's line-up (currently including Ian Gillan, and guitarist Steve Morse from 1994) has been much more stable in recent years, although keyboardist Jon Lord's retirement from the band in 2002 (being succeeded by Don Airey) left Ian Paice as the only original Deep Purple member still in the band.

Deep Purple were ranked number 22 on VH1's Greatest Artists of Hard Rock programme and a poll on British radio station Planet Rock ranked them 5th among the "most influential bands ever".[16] The band received the Legend Award at the 2008 World Music Awards. Deep Purple (specifically Blackmore, Lord, Paice, Gillan, Glover, Evans, Coverdale and Hughes) were inducted into the Rock and Roll Hall of Fame in 2016…

~ wiki
Deep Purple: Collection (1968 - 2017):

Deep Purple: Collection (1968 - 2017) [Vinyl Rip 16/44 & mp3-320]

Tracklist VNL01 - Shades Of Deep Purple (1968):
Warner Bros. Records, Japan. Cat.No. P-8367W (RE 1973)

A1. And The Address
A2. Hush
A3. One More Rainy Day
A4. (a) Prelude: Happiness
(b) I'm So Glad (Skip James)
B1. Mandrake Root
B2. Help
B3. Love Help Me
B4. Hey Joe

foobar2000 1.2.9 / Dynamic Range Meter 1.1.1
log date: 2017-11-25 01:45:44

––––––––––––––––––––––––––––––––––––––––
Analyzed: Deep Purple / Shades Of Deep Purple
––––––––––––––––––––––––––––––––––––––––

DR Peak RMS Duration Track
––––––––––––––––––––––––––––––––––––––––
DR10 -2.65 dB -14.73 dB 4:37 01-And the Address
DR11 -1.86 dB -15.65 dB 4:25 02-Hush
DR11 -0.61 dB -14.23 dB 3:41 03-One More Rainy Day
DR11 -1.41 dB -14.66 dB 7:17 04-Prelude: Happiness / I'm So Glad
DR11 -2.19 dB -15.53 dB 6:07 05-Mandrake Root
DR13 -0.81 dB -18.17 dB 6:01 06-Help!
DR12 -1.45 dB -16.07 dB 3:53 07-Love Help Me
DR11 -2.69 dB -16.35 dB 7:00 08-Hey Joe
––––––––––––––––––––––––––––––––––––––––

Number of tracks: 8
Official DR value: DR11

Samplerate: 44100 Hz
Channels: 2
Bits per sample: 16
Bitrate: 876 kbps
Codec: FLAC
================================================================================



Deep Purple: Collection (1968 - 2017) [Vinyl Rip 16/44 & mp3-320]

Tracklist VNL02 - In Rock (1970):
Warner-Pioneer, Japan, 1970. Cat.No. P-10108W

A1. Speed King (Just a few roots, replanted)
A2. Bloodsucker (A particularly nasty sort of fellow, there are lots of us)
A3. Child in Time (The story of a loser — it could be you)

B1. Flight of the Rat (Just to remind you there are other ways of turning on)
B2. Into the Fire (…out of the frying pan)
B3. Living Wreck (It takes all sorts — support your local groupie)
B4. Hard Lovin' Man (For Martin Birch — catalyst)

foobar2000 1.2.9 / Dynamic Range Meter 1.1.1
log date: 2017-11-25 01:45:57

––––––––––––––––––––––––––––––––––––––––
Analyzed: Deep Purple / In Rock
––––––––––––––––––––––––––––––––––––––––

DR Peak RMS Duration Track
––––––––––––––––––––––––––––––––––––––––
DR11 -1.82 dB -15.60 dB 4:24 01-Speed King
DR11 -2.20 dB -15.21 dB 4:16 02-Bloodsucker
DR10 -0.12 dB -13.56 dB 10:23 03-Child in Time
DR12 -0.11 dB -14.56 dB 7:57 04-Flight of the Rat
DR11 -0.36 dB -13.62 dB 3:31 05-Into the Fire
DR12 -0.47 dB -15.46 dB 4:34 06-Living Wreck
DR10 -2.46 dB -15.26 dB 7:14 07-Hard Lovin' Man
––––––––––––––––––––––––––––––––––––––––

Number of tracks: 7
Official DR value: DR11

Samplerate: 44100 Hz
Channels: 2
Bits per sample: 16
Bitrate: 818 kbps
Codec: FLAC
================================================================================



Deep Purple: Collection (1968 - 2017) [Vinyl Rip 16/44 & mp3-320]

Tracklist VNL03 - Fireball (1971):
Warner Bros. Records, Japan, 2nd press 1976. Cat.No. P-10109W

A1. Fireball
A2. No No No
A3. Strange Kind Of Woman
A4. Anyone's Daughter

B1. The Mule
B2. Fools
B3. No One Came

foobar2000 1.2.9 / Dynamic Range Meter 1.1.1
log date: 2017-11-25 01:46:14

––––––––––––––––––––––––––––––––––––––––
Analyzed: Deep Purple / Fireball
––––––––––––––––––––––––––––––––––––––––

DR Peak RMS Duration Track
––––––––––––––––––––––––––––––––––––––––
DR13 -0.28 dB -14.87 dB 3:25 01-Fireball
DR13 -0.35 dB -15.65 dB 6:54 02-No No No
DR12 -0.27 dB -14.62 dB 4:05 03-Strange Kind Of Woman
DR12 -1.74 dB -17.33 dB 4:41 04-Anyone's Daughter
DR11 -0.24 dB -14.24 dB 5:21 05-The Mule
DR13 -1.36 dB -18.88 dB 8:17 06-Fools
DR13 -0.48 dB -15.26 dB 6:27 07-No One Came
––––––––––––––––––––––––––––––––––––––––

Number of tracks: 7
Official DR value: DR12

Samplerate: 44100 Hz
Channels: 2
Bits per sample: 16
Bitrate: 858 kbps
Codec: FLAC
================================================================================



Deep Purple: Collection (1968 - 2017) [Vinyl Rip 16/44 & mp3-320]

Tracklist VNL04 - Live In Japan (1972):
Warner Bros./Pioneer, Japan. Cat.№ P-5506~7W

A1. Highway Star
A2. Child In Time

B1. Smoke On The Water
B2. The Mule

C1. Strange Kind Of Woman
C2. Lazy

D1. Space Truckin'

foobar2000 1.2.9 / Dynamic Range Meter 1.1.1
log date: 2017-11-25 01:46:36

––––––––––––––––––––––––––––––––––––––––
Analyzed: Deep Purple / Live In Japan
––––––––––––––––––––––––––––––––––––––––

DR Peak RMS Duration Track
––––––––––––––––––––––––––––––––––––––––
DR11 -0.09 dB -13.23 dB 6:53 01-Highway Star
DR11 -0.65 dB -15.42 dB 12:25 02-Child In Time
DR12 -0.07 dB -14.48 dB 7:33 03-Smoke On The Water
DR12 -1.27 dB -16.74 dB 9:50 04-The Mule
DR12 -0.11 dB -14.94 dB 9:27 05-Strange Kind Of Woman
DR12 -0.47 dB -17.51 dB 11:00 06-Lazy
DR12 -0.19 dB -15.95 dB 19:54 07-Space Truckin'
––––––––––––––––––––––––––––––––––––––––

Number of tracks: 7
Official DR value: DR12

Samplerate: 44100 Hz
Channels: 2
Bits per sample: 16
Bitrate: 842 kbps
Codec: FLAC
================================================================================



Deep Purple: Collection (1968 - 2017) [Vinyl Rip 16/44 & mp3-320]

Tracklist VNL05 - Machine Head (1972):
Warner Bros./Pioneer, Japan, 1972. Cat.№ P-10130W

A1. Highway Star
A2. Maybe I'm A Leo
A3. Pictures Of Home
A4. Never Before

B1. Smoke On The Water
B2. Lazy
B3. Space Truckin'

foobar2000 1.2.9 / Dynamic Range Meter 1.1.1
log date: 2017-11-25 01:46:50

––––––––––––––––––––––––––––––––––––––––
Analyzed: Deep Purple / Machine Head
––––––––––––––––––––––––––––––––––––––––

DR Peak RMS Duration Track
––––––––––––––––––––––––––––––––––––––––
DR12 -0.02 dB -14.18 dB 6:09 01-Highway Star
DR14 -0.79 dB -18.34 dB 4:50 02-Maybe I'm A Leo
DR14 -1.76 dB -17.13 dB 5:07 03-Pictures Of Home
DR12 -2.40 dB -17.04 dB 3:59 04-Never Before
DR14 -0.11 dB -15.70 dB 5:42 05-Smoke On The Water
DR12 -0.87 dB -16.23 dB 7:22 06-Lazy
DR12 -1.41 dB -15.95 dB 4:37 07-Space Truckin'
––––––––––––––––––––––––––––––––––––––––

Number of tracks: 7
Official DR value: DR13

Samplerate: 44100 Hz
Channels: 2
Bits per sample: 16
Bitrate: 890 kbps
Codec: FLAC
================================================================================



Deep Purple: Collection (1968 - 2017) [Vinyl Rip 16/44 & mp3-320]

Tracklist VNL06 - Who Do We Think We Are (1973):
Warner Bros. Records, Japan. Cat.No. P-8312W

A1. Woman From Tokyo
A2. Mary Long
A3. Super Trouper
A4. Smooth Dancer

B1. Rat Bat Blue
B2. Place In Line
B3. Our Lady

foobar2000 1.2.9 / Dynamic Range Meter 1.1.1
log date: 2017-11-25 01:47:05

––––––––––––––––––––––––––––––––––––––––
Analyzed: Deep Purple / Who Do We Think We Are
––––––––––––––––––––––––––––––––––––––––

DR Peak RMS Duration Track
––––––––––––––––––––––––––––––––––––––––
DR12 -0.36 dB -15.27 dB 5:55 01-Woman From Tokyo
DR11 -1.28 dB -14.18 dB 4:28 02-Mary Long
DR12 -1.65 dB -15.29 dB 2:58 03-Super Trouper
DR11 -1.73 dB -14.72 dB 4:11 04-Smooth Dancer
DR12 -0.71 dB -15.24 dB 5:27 05-Rat Bat Blue
DR12 -1.87 dB -16.80 dB 6:36 06-Place In Line
DR11 -1.14 dB -15.13 dB 5:12 07-Our Lady
––––––––––––––––––––––––––––––––––––––––

Number of tracks: 7
Official DR value: DR12

Samplerate: 44100 Hz
Channels: 2
Bits per sample: 16
Bitrate: 962 kbps
Codec: FLAC
================================================================================



Deep Purple: Collection (1968 - 2017) [Vinyl Rip 16/44 & mp3-320]

Tracklist VNL07 - Burn (1974):
Warner-Pioneer, 1974. Cat.No. P-10104W

A1. Burn
A2. Might Just Take Your Life
A3. Lay Down, Stay Down
A4. Sail Away

B1. You Fool No One
B2. What's Goin' On Here
B3. Mistreated
B4. 'A' 200

foobar2000 1.2.9 / Dynamic Range Meter 1.1.1
log date: 2017-11-25 01:47:19

––––––––––––––––––––––––––––––––––––––––
Analyzed: Deep Purple / Burn
––––––––––––––––––––––––––––––––––––––––

DR Peak RMS Duration Track
––––––––––––––––––––––––––––––––––––––––
DR11 -0.53 dB -14.61 dB 6:02 01-Burn
DR11 -0.70 dB -13.56 dB 4:39 02-Might Just Take Your Life
DR11 -0.57 dB -14.54 dB 4:19 03-Lay Down, Stay Down
DR11 -0.39 dB -13.61 dB 5:50 04-Sail Away
DR11 -0.09 dB -13.36 dB 4:46 05-You Fool No One
DR11 -0.73 dB -14.07 dB 4:58 06-What's Goin' On Here
DR12 -0.18 dB -14.72 dB 7:28 07-Mistreated
DR11 -1.55 dB -13.91 dB 4:05 08-'A' 200
––––––––––––––––––––––––––––––––––––––––

Number of tracks: 8
Official DR value: DR11

Samplerate: 44100 Hz
Channels: 2
Bits per sample: 16
Bitrate: 923 kbps
Codec: FLAC
================================================================================



Deep Purple: Collection (1968 - 2017) [Vinyl Rip 16/44 & mp3-320]

Tracklist VNL08 - Stormbringer (1974):
Warner Bros. Records, Japan, 1st press. Cat.No. P-8524W

A1. Stormbringer
A2. Love Don't Mean a Thing
A3. Holy Man
A4. Hold On

B1. Lady Double Dealer
B2. You Can't Do It Right
B3. High Ball Shooter
B4. The Gypsy
B5. Soldier of Fortune

foobar2000 1.2.9 / Dynamic Range Meter 1.1.1
log date: 2017-11-25 01:47:32

––––––––––––––––––––––––––––––––––––––––
Analyzed: Deep Purple / Stormbringer
––––––––––––––––––––––––––––––––––––––––

DR Peak RMS Duration Track
––––––––––––––––––––––––––––––––––––––––
DR12 -0.37 dB -14.63 dB 4:06 01-Stormbringer
DR13 -0.12 dB -15.63 dB 4:23 02-Love Don't Mean A Thing
DR12 -0.32 dB -16.12 dB 4:29 03-Holy Man
DR12 -1.38 dB -15.95 dB 5:06 04-Hold On
DR12 -1.07 dB -14.85 dB 3:22 05-Lady Double Dealer
DR12 -0.92 dB -15.10 dB 3:24 06-You Can't Do It Right
DR12 -1.69 dB -15.75 dB 4:28 07-High Ball Shooter
DR12 -0.91 dB -15.49 dB 4:05 08-The Gypsy
DR13 -0.49 dB -16.68 dB 3:15 09-Soldier Of Fortune
––––––––––––––––––––––––––––––––––––––––

Number of tracks: 9
Official DR value: DR12

Samplerate: 44100 Hz
Channels: 2
Bits per sample: 16
Bitrate: 927 kbps
Codec: FLAC
================================================================================



Deep Purple: Collection (1968 - 2017) [Vinyl Rip 16/44 & mp3-320]

Tracklist VNL09 - Made In Europe (1976):
Warner Bros. Records., USA. Cat.No. PR 2995

A1. Burn
A2. Mistreated (Interpolating Rock Me Baby)
A3. Lady Double Dealer

B1. You Fool No One
B2. Stormbringer

foobar2000 1.2.9 / Dynamic Range Meter 1.1.1
log date: 2017-11-25 01:47:46

––––––––––––––––––––––––––––––––––––––––
Analyzed: Deep Purple / Made In Europe
––––––––––––––––––––––––––––––––––––––––

DR Peak RMS Duration Track
––––––––––––––––––––––––––––––––––––––––
DR13 -0.25 dB -15.98 dB 7:32 01-Burn
DR14 -0.37 dB -17.67 dB 11:48 02-Mistreated/Rock Me Baby
DR13 -0.85 dB -15.20 dB 4:18 03-Lady Double Dealer
DR13 -0.12 dB -17.89 dB 16:48 04-You Fool No One
DR12 -1.45 dB -15.57 dB 5:36 05-Stormbringer
––––––––––––––––––––––––––––––––––––––––

Number of tracks: 5
Official DR value: DR13

Samplerate: 44100 Hz
Channels: 2
Bits per sample: 16
Bitrate: 765 kbps
Codec: FLAC
================================================================================



Deep Purple: Collection (1968 - 2017) [Vinyl Rip 16/44 & mp3-320]

Tracklist VNL10 - Perfect Strangers (1984):
Polydor, Cat.No. 25MM 0401

A1. Knocking At Your Back Door
A2. Under The Gun
A3. Nobody's Home
A4. Mean Streak

B1. Perfect Strangers
B2. A Gypsy's Kiss
B3. Wasted Sunsets
B4. Hungry Daze

foobar2000 1.2.9 / Dynamic Range Meter 1.1.1
log date: 2017-11-25 01:48:00

––––––––––––––––––––––––––––––––––––––––
Analyzed: Deep Purple / Perfect Strangers
––––––––––––––––––––––––––––––––––––––––

DR Peak RMS Duration Track
––––––––––––––––––––––––––––––––––––––––
DR13 -0.36 dB -15.24 dB 7:04 01-Knocking At Your Back Door
DR13 -0.10 dB -14.73 dB 4:40 02-Under The Gun
DR12 -1.81 dB -15.40 dB 4:01 03-Nobody's Home
DR12 -0.86 dB -14.82 dB 4:22 04-Mean Streak
DR13 -0.49 dB -15.75 dB 5:31 05-Perfect Strangers
DR12 -0.51 dB -14.48 dB 5:16 06-A Gypsy's Kiss
DR13 -1.37 dB -15.74 dB 3:58 07-Wasted Sunsets
DR12 -1.70 dB -16.15 dB 4:56 08-Hungry Daze
––––––––––––––––––––––––––––––––––––––––

Number of tracks: 8
Official DR value: DR13

Samplerate: 44100 Hz
Channels: 2
Bits per sample: 16
Bitrate: 935 kbps
Codec: FLAC
================================================================================



Deep Purple: Collection (1968 - 2017) [Vinyl Rip 16/44 & mp3-320]

Tracklist VNL11 - A Fire In The Sky (2017):
Parlophone Records Ltd

A1. Hell To Pay (Radio Edit)
A2. Vincent Price
A3. Rapture Of The Deep
A4. Sun Goes Down
A5. Any Fule Kno That

B1. Sometimes I Feel Like Screaming
B2. The Battle Rages On
B3. Bad Attitude (Radio Edit)
B4. Perfect Strangers

C1. You Keep On Moving (Single Edit)
C2. Soldier Of Fortune
C3. Stormbringer
C4. Burn (U.S. Single Edit)
C5. Might Just Take Your Life

D1. Woman From Tokyo (Single Edit)
D2. Highway Star
D3. Smoke On The Water
D4. Demon's Eye
D5. Fireball

E1. Strange Kind Of Woman
E2. Speed King (U.S. Album Edit)
E3. Child In Time
E4. Black Night

F1. Kentucky Woman
F2. Wring That Neck
F3. Mandrake Root
F4. Hush

foobar2000 1.2.9 / Dynamic Range Meter 1.1.1
log date: 2017-11-25 01:48:29

––––––––––––––––––––––––––––––––––––––––
Analyzed: Deep Purple / A Fire In The Sky
––––––––––––––––––––––––––––––––––––––––

DR Peak RMS Duration Track
––––––––––––––––––––––––––––––––––––––––
DR12 -5.68 dB -18.40 dB 3:46 01-Hell To Pay
DR11 -5.92 dB -19.16 dB 4:45 02-Vincent Price
DR13 -5.28 dB -20.08 dB 5:54 03-Rapture Of The Deep
DR12 -8.68 dB -22.09 dB 4:15 04-Sun Goes Down
DR12 -8.45 dB -22.00 dB 4:26 05-Any Fule Kno That
DR12 -6.28 dB -21.47 dB 7:36 06-Sometimes I Feel Like Screaming
DR12 -6.62 dB -20.82 dB 5:55 07-The Battle Rages On
DR12 -7.61 dB -21.23 dB 4:02 08-Bad Attitude
DR12 -8.52 dB -22.70 dB 5:35 09-Perfect Strangers
DR11 -4.88 dB -19.23 dB 4:31 10-You Keep On Moving
DR13 -5.77 dB -21.21 dB 3:16 11-Soldier Of Fortune
DR12 -4.40 dB -17.78 dB 4:07 12-Stormbringer
DR11 -5.86 dB -18.67 dB 3:41 13-Burn
DR12 -6.77 dB -20.40 dB 4:43 14-Might Just Take Your Life
DR11 -5.39 dB -17.97 dB 2:46 15-Woman From Tokyo
DR11 -3.27 dB -16.19 dB 6:08 16-Highway Star
DR12 -5.00 dB -19.44 dB 5:41 17-Smoke On The Wate
DR12 -5.61 dB -19.88 dB 5:21 18-Demon's Eye
DR12 -6.81 dB -20.17 dB 3:22 19-Fireball
DR11 -3.14 dB -15.75 dB 3:53 20-Strange Kind Of Woman
DR10 -3.67 dB -15.29 dB 4:21 21-Speed King
DR10 -5.65 dB -18.77 dB 10:17 22-Child In Time
DR11 -6.20 dB -18.59 dB 3:30 23-Black Night
DR11 -2.62 dB -17.04 dB 4:45 24-Kentucky Woman
DR11 -2.90 dB -17.59 dB 5:14 25-Wring That Neck
DR11 -4.73 dB -18.35 dB 5:58 26-Mandrake Root
DR10 -6.92 dB -19.60 dB 4:12 27-Hush
––––––––––––––––––––––––––––––––––––––––

Number of tracks: 27
Official DR value: DR11

Samplerate: 44100 Hz
Channels: 2
Bits per sample: 16
Bitrate: 792 kbps
Codec: FLAC
================================================================================



VNL01 - 10:
Original ripper: rm_ltd
Original format: 24/192
Vinyl Condition: EX, NM
Cleaning:
Direct Drive Turntable: Victor QL-Y66F
Cartridge: Denon DL-301/II
Amplifier: Luxman LE-109
ADC: E-MU 1616m PCIe

VNL11:

Original ripper: svk_1957
Original format: 24/96
Vinyl Condition: Mint
Cleaning:
Direct Drive Turntable: Music Hall USB-1
Cartridge: Sumiko Black Pearl
Amplifier: YAMAHA AX-596
ADC: Creative SB X-Fi HD USB

Downsampled to 16/44

Depeche Mode: Collection (1981 - 2013) [Vinyl Rip 16/44 & mp3-320]
Sade: Discography (1984 - 2010) [Vinyl Rip 16/44 & MP3-320]
Queen: Collection (1973 - 1995) [Vinyl Rip 16/44 & MP3-320]


The Cars: Collection (1978 - 1987) [Vinyl Rip 16/44 & mp3-320]
Metallica: Discography (1983 - 2016) [Vinyl Rip 16/44 & mp3-320]
Bon Jovi - The Albums (2017) [Vinyl Rip 16/44 & mp3-320, Limited Edition Box set]
The Doors: Collection (1967 - 1971) [Vinyl Rip 16/44 & mp3-320]
Black Sabbath: Collection (1970 - 2013) [Vinyl Rip 16/44 & mp3-320]
The Beatles: Discography (1963 - 1988) [Vinyl Rip 16/44 & mp3-320]
Joe Cocker: Collection (1969 - 1991) [Vinyl Rip 16/44 & mp3-320]
Frank Zappa: Collection (1969 - 1981) [Vinyl Rip 16/44 & mp3-320]
Ten Years After: Collection (1967 - 1974) [Vinyl Rip 16/44 & mp3-320]
Dire Straits: Discography (1978 - 1991) [Vinyl Rip 16/44 & mp3-320]
Bonnie Tyler: Collection (1977 - 1986) [Vinyl Rip 16/44 & mp3-320]
The Beatles: Stereo Vinyl Box Set (2012) [Vinyl Rip 16/44 & mp3-320]
Wolfgang Amadeus Mozart - Die Violin Konzerte (1968) [Vinyl Rip 16/44 & mp3-320]
Eagles - The Studio Albums 1972-1979 (2013) [Vinyl Rip 16/44 & mp3-320]
Pink Floyd: Discography (1967 - 2014) [Vinyl Rip 16/44 & mp3-320]
Led Zeppelin: Discography (1969 - 1982) [Vinyl Rip 16/44 & mp3-320]
Manowar: Collection (1982 - 2012) [Vinyl Rip 16/44 & mp3-320]
A-HA: Collection (1985-2015) [Vinyl Rip 16/44 & mp3-320]
Decca, Wiener Philharmoniker - 6 Classic Analogue LPs (2014) [Vinyl Rip 16/44]
Beethoven - Chicago Symphony Orchestra / Sir Georg Solti ‎– The Nine Symphonies (1975) [Vinyl Rip 16/44 & mp3-320]
Scorpions: Collection (1974 - 2015) [Vinyl Rip 16/44 & mp3-320]
Pink Floyd - Echoes: The Best Of Pink Floyd (2001) [Vinyl Rip 16/44]
Alice Cooper - Paranormal (2017) [Vinyl Rip 16/44 & mp3-320]
Manfred Mann's Earth Band: Collection (1967 - 2014) [Vinyl Rip 16/44 & mp3-320]
Rainbow: Discography (1975 - 1986) [Vinyl Rip 16/44 & mp3-320]
Amanda Lear: Collection (1978 - 1986) [Vinyl Rip 16/44 & mp3-320]
Space & Didier Marouani: Collection (1977 - 1987) [Vinyl Rip 16/44 & mp3-320]
Rod Stewart: Collection (1969 - 1988) [Vinyl Rip 16/44 & mp3-320]
Kraftwerk: Collection (1974 - 1991) [Vinyl Rip 16/44 & mp3-320]
Roger Waters: Vinyl Collection (1970 - 1992) [Vinyl Rip 16/44 & mp3-320] [Vinyl Rip 16/44 & MP3-320]
David Gilmour - Rattle That Lock (2015) [Vinyl Rip 16/44 & mp3-320]



Deep Purple or Deep Purple in my Blog

Download Deep Purple: Collection (1968 - 2017):