Subcategories

Deep Purple - Power House (1990) {Japan 1-st press}

Posted By: popsakov
Deep Purple - Power House (1990) {Japan 1-st press}

Deep Purple - Power House (1990)
EAC Rip | FLAC (Img) + Cue + Log ~ 292 Mb | MP3 CBR320 ~ 121 Mb
Scans Included (JPG, 300 dpi) | RAR 5% Recovery
Hard Rock, Heavy Metal | Warner Bros. Records/Warner-Pioneer Corporation #WPCP-4019

Powerhouse is a 1977 compilation album by Deep Purple, featuring previously unreleased live and studio tracks from the band's Mark II line-up at the height of its powers. The album achieved Gold Certification in Japan.

***************

Deep Purple - Power House (1990) {Japan 1-st press}

Track List:

01. Painted Horse [0:05:19.10]
02. Hush (LIVE) [0:04:37.40]
03. Wring That Neck (LIVE) [0:12:51.03]
04. Child In Time (LIVE) [0:12:28.37]
05. Black Night (LIVE) [0:04:59.28]
06. Cry Free [0:03:10.50]

Exact Audio Copy V1.1 from 23. June 2015

EAC extraction logfile from 16. February 2016, 10:14

Deep Purple / Power House [WPCP-4019]

Used drive : HL-DT-STBD-RE BH10LS38 Adapter: 1 ID: 1

Read mode : Secure
Utilize accurate stream : Yes
Defeat audio cache : Yes
Make use of C2 pointers : No

Read offset correction : 667
Overread into Lead-In and Lead-Out : No
Fill up missing offset samples with silence : Yes
Delete leading and trailing silent blocks : No
Null samples used in CRC calculations : Yes
Used interface : Installed external ASPI interface

Used output format : User Defined Encoder
Selected bitrate : 128 kBit/s
Quality : High
Add ID3 tag : No
Command line compressor : C:\Program Files (x86)\Exact Audio Copy\wavpack-4.60.1\wavpack.exe
Additional command line options : -hm -w "Year=%year%" -w "Genre=%genre%" %source% %dest%


TOC of the extracted CD

Track | Start | Length | Start sector | End sector
––––––––––––––––––––––––––––-
1 | 0:00.00 | 5:19.10 | 0 | 23934
2 | 5:19.10 | 4:37.40 | 23935 | 44749
3 | 9:56.50 | 12:51.03 | 44750 | 102577
4 | 22:47.53 | 12:28.37 | 102578 | 158714
5 | 35:16.15 | 4:59.28 | 158715 | 181167
6 | 40:15.43 | 3:10.50 | 181168 | 195467


Range status and errors

Selected range

Filename G:\Rips by Alder\Deep Purple - Power House [WPCP-4019].wav

Peak level 93.7 %
Extraction speed 7.1 X
Range quality 99.9 %
Test CRC 9883C4E8
Copy CRC 9883C4E8
Copy OK

No errors occurred


AccurateRip summary

Track 1 accurately ripped (confidence 6) [58A1E3A0] (AR v2)
Track 2 accurately ripped (confidence 6) [55853ADD] (AR v2)
Track 3 accurately ripped (confidence 6) [2D0C5113] (AR v2)
Track 4 accurately ripped (confidence 6) [4C888E57] (AR v2)
Track 5 accurately ripped (confidence 6) [1FFC8603] (AR v2)
Track 6 accurately ripped (confidence 6) [502A292C] (AR v2)

All tracks accurately ripped

End of status report

–– CUETools DB Plugin V2.1.6

[CTDB TOCID: CXXiPkpY47SKz6WuAwo2Zqik0G0-] found
Submit result: CXXiPkpY47SKz6WuAwo2Zqik0G0- has been confirmed
Track | CTDB Status
1 | (3/3) Accurately ripped
2 | (3/3) Accurately ripped
3 | (3/3) Accurately ripped
4 | (3/3) Accurately ripped
5 | (3/3) Accurately ripped
6 | (3/3) Accurately ripped


==== Log checksum 958E3C0F81F5070E43B6F792DE3B3F2C651DF972EE16D62FCE142025987AB5E9 ====

foobar2000 1.2.6 / Dynamic Range Meter 1.1.1
log date: 2016-02-20 14:36:20

––––––––––––––––––––––––––––––––––––––––
Analyzed: Deep Purple / Power House [WPCP-4019]
––––––––––––––––––––––––––––––––––––––––

DR Peak RMS Duration Track
––––––––––––––––––––––––––––––––––––––––
DR11 -0.56 dB -13.92 dB 5:19 01-Painted Horse
DR10 -0.61 dB -13.24 dB 4:38 02-Hush (LIVE)
DR11 -1.30 dB -16.34 dB 12:51 03-Wring That Neck (LIVE)
DR10 -0.79 dB -15.09 dB 12:28 04-Child In Time (LIVE)
DR9 -1.12 dB -11.16 dB 4:59 05-Black Night (LIVE)
DR8 -0.72 dB -11.43 dB 3:11 06-Cry Free
––––––––––––––––––––––––––––––––––––––––

Number of tracks: 6
Official DR value: DR10

Samplerate: 44100 Hz
Channels: 2
Bits per sample: 16
Bitrate: 842 kbps
Codec: FLAC
================================================================================

[CUETools log; Date: 20.02.2016 14:36:20; Version: 2.1.5]
[CTDB TOCID: CXXiPkpY47SKz6WuAwo2Zqik0G0-] found.
Track | CTDB Status
1 | (4/4) Accurately ripped
2 | (4/4) Accurately ripped
3 | (4/4) Accurately ripped
4 | (4/4) Accurately ripped
5 | (4/4) Accurately ripped
6 | (4/4) Accurately ripped
[AccurateRip ID: 000ac836-003a9d0c-4b0a2e06] found.
Track [ CRC | V2 ] Status
01 [06bffef7|58a1e3a0] (0+6/6) Accurately ripped
02 [ee92a032|55853add] (0+6/6) Accurately ripped
03 [d67aa013|2d0c5113] (0+6/6) Accurately ripped
04 [c94c7fdf|4c888e57] (0+6/6) Accurately ripped
05 [2d6a00b1|1ffc8603] (0+6/6) Accurately ripped
06 [578a1ab6|502a292c] (0+6/6) Accurately ripped

Track Peak [ CRC32 ] [W/O NULL] [ LOG ]
– 93,7 [9883C4E8] [4D7FD266] CRC32
01 93,7 [EEF6C190] [2ACC1FEC]
02 93,1 [A793064D] [E25B7166]
03 86,1 [8ADA9631] [1589FB78]
04 91,3 [2C940482] [BFE7B5C2]
05 87,8 [50F2131E] [B1E6215F]
06 92,0 [FA807937] [ACBE3429]

Deep Purple - Power House (1990) {Japan 1-st press}

Deep Purple - Power House (1990) {Japan 1-st press}

See also:

More Deep Purple in my blog!

All thanks go to Alder

Visit my blog!

Download:
Nitroflare: FLAC | mp3
Salefiles: FLAC | mp3