Subcategories

Deep Purple - The Soundboard Series: Australasian Tour 2001 (2001) 12 CD Box Set

Posted By: Andi_Deris
Deep Purple - The Soundboard Series: Australasian Tour 2001 (2001) 12 CD Box Set

Deep Purple - The Soundboard Series: Australasian Tour 2001 (2001) 12 CD Box Set
XLD Rip | FLAC: Image+Cue+Log | 7.2 Gb | MP3 CBR 320 kbps | 1.8 Gb | Scans
Thames/Thompson | 6 97593 00079 3
Classic Rock, Hard Rock

The Soundboard Series is a live box set recorded and released by the band Deep Purple in 2001. This 12 CD set includes 6 full length concerts from the March 2001 Deep Purple Australasian tour, recorded directly from the soundboard in either DAT or multi track formats. The concert performances included are, Melbourne 9th of March, 'Woolongong 13th of March, Newcastle 14th of March, Hong Kong 20th of March, Tokyo 24th of March & Tokyo 25th of March. The two Tokyo shows feature the talents of a full 80-piece symphony orchestra, plus Ronnie James Dio on 5 tracks!

Deep Purple - The Soundboard Series: Australasian Tour 2001 (2001) 12 CD Box Set




Deep Purple - The Soundboard Series: Australasian Tour 2001 (2001) 12 CD Box Set


9th March Melbourne Rod Laver Arena
XLD Rip | FLAC: Image+Cue+Log | 1.2 Gb | MP3 CBR 320 kbps | 293 Mb | Scans | Time: 01:09:42/54:21


CD1

01. Woman From Tokyo (06:42)
02. Ted The Mechanic (05:11)
03. Mary Long (05:38)
04. Lazy (06:02)
05. No One Came (05:24)
06. Black Night (06:41)
07. Sometimes I Feel Like Screaming (07:22)
08. '69 (08:54)
09. Smoke On The Water (09:05)
10. Perfect Strangers (08:43)

CD2

01. Hey Cisco (06:29)
02. When A Blind Man Cries (07:28)
03. Fools (10:05)
04. Speed King (16:27)
05. Hush (05:53)
06. Highway Star (07:59)

The Band

• Jon Lord (keyboards)
• Steve Morse (guitar)
• Ian Paice (drums)
• Roger Glover (bass)
• Ian Gillan (vocals)
• Greg Maundrell (trumpet)
• Charles MacInnes (trombone)
• Paul Williamson (sax)
• Billie Stapleton, Angie Stapleton, Natalie Miller (backing vocals)

X Lossless Decoder version 20160920 (149.2)

XLD extraction logfile from 2017-01-15 23:19:47 +0300

Deep Purple / Live In Concert - Melbourne 2001

Used drive : OPTIARC DVD RW AD-5630A (revision 2CH9)
Media type : Pressed CD

Ripper mode : XLD Secure Ripper
Disable audio cache : OK for the drive with a cache less than 1375KiB
Make use of C2 pointers : NO
Read offset correction : 48
Max retry count : 20
Gap status : Analyzed, Appended

TOC of the extracted CD
Track | Start | Length | Start sector | End sector
––––––––––––––––––––––––––––-
1 | 00:00:00 | 06:42:29 | 0 | 30178
2 | 06:42:29 | 05:10:68 | 30179 | 53496
3 | 11:53:22 | 05:38:27 | 53497 | 78873
4 | 17:31:49 | 06:02:17 | 78874 | 106040
5 | 23:33:66 | 05:23:35 | 106041 | 130300
6 | 28:57:26 | 06:40:34 | 130301 | 160334
7 | 35:37:60 | 07:21:56 | 160335 | 193465
8 | 42:59:41 | 08:53:74 | 193466 | 233514
9 | 51:53:40 | 09:04:70 | 233515 | 274384
10 | 60:58:35 | 08:42:48 | 274385 | 313582

AccurateRip Summary (DiscID: 00180520-00c38410-7710550a)
Track 01 : OK (v1+v2, confidence 15/15)
Track 02 : OK (v1+v2, confidence 15/15)
Track 03 : OK (v1+v2, confidence 15/15)
Track 04 : OK (v1+v2, confidence 15/15)
Track 05 : OK (v1+v2, confidence 15/15)
Track 06 : OK (v1+v2, confidence 15/15)
Track 07 : OK (v1+v2, confidence 15/15)
Track 08 : OK (v1+v2, confidence 15/15)
Track 09 : OK (v1+v2, confidence 15/15)
Track 10 : OK (v1+v2, confidence 15/15)
->All tracks accurately ripped.

All Tracks
Filename : /Users/dima/Documents/torrents/Live In Concert - Melbourne 2001.flac
CRC32 hash : 11C2692B
CRC32 hash (skip zero) : 111A95CF
Statistics
Read error : 0
Jitter error (maybe fixed) : 0
Retry sector count : 9
Damaged sector count : 0

Track 01
Pre-gap length : 00:02:00

CRC32 hash : E9DB7F01
CRC32 hash (skip zero) : 121E3D9C
AccurateRip v1 signature : C0B7A951
AccurateRip v2 signature : 061305C0
->Accurately ripped (v1+v2, confidence 8+7/15)
Statistics
Read error : 0
Jitter error (maybe fixed) : 0
Retry sector count : 0
Damaged sector count : 0

Track 02

CRC32 hash : F579F8D4
CRC32 hash (skip zero) : AAE66A4E
AccurateRip v1 signature : DE28D36D
AccurateRip v2 signature : 45DA3470
->Accurately ripped (v1+v2, confidence 8+7/15)
Statistics
Read error : 0
Jitter error (maybe fixed) : 0
Retry sector count : 0
Damaged sector count : 0

Track 03

CRC32 hash : F9E22BF2
CRC32 hash (skip zero) : 202741D7
AccurateRip v1 signature : 9537C415
AccurateRip v2 signature : B0C507F9
->Accurately ripped (v1+v2, confidence 8+7/15)
Statistics
Read error : 0
Jitter error (maybe fixed) : 0
Retry sector count : 0
Damaged sector count : 0

Track 04

CRC32 hash : EDCBBFAD
CRC32 hash (skip zero) : 74B5E4B7
AccurateRip v1 signature : 312E7CB1
AccurateRip v2 signature : DA6B9597
->Accurately ripped (v1+v2, confidence 8+7/15)
Statistics
Read error : 0
Jitter error (maybe fixed) : 0
Retry sector count : 0
Damaged sector count : 0

Track 05

CRC32 hash : 5DB7BB57
CRC32 hash (skip zero) : 6625291A
AccurateRip v1 signature : 0EA78B2B
AccurateRip v2 signature : FB3FC78E
->Accurately ripped (v1+v2, confidence 8+7/15)
Statistics
Read error : 0
Jitter error (maybe fixed) : 0
Retry sector count : 0
Damaged sector count : 0

Track 06

CRC32 hash : DFD4AD0A
CRC32 hash (skip zero) : E173F072
AccurateRip v1 signature : A9DBAC76
AccurateRip v2 signature : 9CD5BBCA
->Accurately ripped (v1+v2, confidence 8+7/15)
Statistics
Read error : 0
Jitter error (maybe fixed) : 0
Retry sector count : 0
Damaged sector count : 0

Track 07

CRC32 hash : 4E556210
CRC32 hash (skip zero) : EF7C3BD1
AccurateRip v1 signature : 1D328961
AccurateRip v2 signature : 72C41295
->Accurately ripped (v1+v2, confidence 8+7/15)
Statistics
Read error : 0
Jitter error (maybe fixed) : 0
Retry sector count : 0
Damaged sector count : 0

Track 08

CRC32 hash : 324ACE92
CRC32 hash (skip zero) : E470242D
AccurateRip v1 signature : 301B0EF7
AccurateRip v2 signature : F4383BCA
->Accurately ripped (v1+v2, confidence 8+7/15)
Statistics
Read error : 0
Jitter error (maybe fixed) : 0
Retry sector count : 0
Damaged sector count : 0

Track 09

CRC32 hash : 71DC23FC
CRC32 hash (skip zero) : 097523F7
AccurateRip v1 signature : 58B7254F
AccurateRip v2 signature : 0C333AD1
->Accurately ripped (v1+v2, confidence 8+7/15)
Statistics
Read error : 0
Jitter error (maybe fixed) : 0
Retry sector count : 6
Damaged sector count : 0

Track 10

CRC32 hash : 32AE83C0
CRC32 hash (skip zero) : BD9C55CD
AccurateRip v1 signature : E3AD549A
AccurateRip v2 signature : E1B189A0
->Accurately ripped (v1+v2, confidence 8+7/15)
Statistics
Read error : 0
Jitter error (maybe fixed) : 0
Retry sector count : 3
Damaged sector count : 0

No errors occurred

End of status report

X Lossless Decoder version 20160920 (149.2)

XLD extraction logfile from 2017-01-15 16:30:59 +0300

Deep Purple / Melbourne 2001 March 9th [Disc 2]

Used drive : OPTIARC DVD RW AD-5630A (revision 2CH9)
Media type : Pressed CD

Ripper mode : XLD Secure Ripper
Disable audio cache : OK for the drive with a cache less than 1375KiB
Make use of C2 pointers : NO
Read offset correction : 48
Max retry count : 20
Gap status : Analyzed, Appended

TOC of the extracted CD
Track | Start | Length | Start sector | End sector
––––––––––––––––––––––––––––-
1 | 00:00:00 | 06:28:48 | 0 | 29147
2 | 06:28:48 | 07:28:20 | 29148 | 62767
3 | 13:56:68 | 10:04:45 | 62768 | 108112
4 | 24:01:38 | 16:26:52 | 108113 | 182114
5 | 40:28:15 | 05:53:24 | 182115 | 208613
6 | 46:21:39 | 07:59:20 | 208614 | 244558

AccurateRip Summary (DiscID: 000cbef5-00457a09-4a0cbc06)
Track 01 : OK (v1+v2, confidence 14/14)
Track 02 : OK (v1+v2, confidence 14/14)
Track 03 : OK (v1+v2, confidence 14/14)
Track 04 : OK (v1+v2, confidence 14/14)
Track 05 : OK (v1+v2, confidence 14/14)
Track 06 : OK (v1+v2, confidence 14/14)
->All tracks accurately ripped.

All Tracks
Filename : /Users/dima/Documents/torrents/Melbourne 2001 March 9th [Disc 2].flac
CRC32 hash : 345E2D9F
CRC32 hash (skip zero) : 61E2D914
Statistics
Read error : 0
Jitter error (maybe fixed) : 0
Retry sector count : 0
Damaged sector count : 0

Track 01
Pre-gap length : 00:02:00

CRC32 hash : FD4CD890
CRC32 hash (skip zero) : 4E441150
AccurateRip v1 signature : B1F2A913
AccurateRip v2 signature : 09CA32F5
->Accurately ripped (v1+v2, confidence 7+7/14)
Statistics
Read error : 0
Jitter error (maybe fixed) : 0
Retry sector count : 0
Damaged sector count : 0

Track 02

CRC32 hash : 032952E8
CRC32 hash (skip zero) : BC472CC7
AccurateRip v1 signature : FC8A7D4F
AccurateRip v2 signature : 8C834743
->Accurately ripped (v1+v2, confidence 7+7/14)
Statistics
Read error : 0
Jitter error (maybe fixed) : 0
Retry sector count : 0
Damaged sector count : 0

Track 03

CRC32 hash : 07BF7B7C
CRC32 hash (skip zero) : B63FE6C0
AccurateRip v1 signature : B0F4623A
AccurateRip v2 signature : 12DB768D
->Accurately ripped (v1+v2, confidence 7+7/14)
Statistics
Read error : 0
Jitter error (maybe fixed) : 0
Retry sector count : 0
Damaged sector count : 0

Track 04

CRC32 hash : 82BC09B6
CRC32 hash (skip zero) : D8D04C70
AccurateRip v1 signature : EE46A51A
AccurateRip v2 signature : 497349DD
->Accurately ripped (v1+v2, confidence 7+7/14)
Statistics
Read error : 0
Jitter error (maybe fixed) : 0
Retry sector count : 0
Damaged sector count : 0

Track 05

CRC32 hash : 7F8876CF
CRC32 hash (skip zero) : AC59936B
AccurateRip v1 signature : D504A31F
AccurateRip v2 signature : 90A562FD
->Accurately ripped (v1+v2, confidence 7+7/14)
Statistics
Read error : 0
Jitter error (maybe fixed) : 0
Retry sector count : 0
Damaged sector count : 0

Track 06

CRC32 hash : DE15E354
CRC32 hash (skip zero) : 0F418E66
AccurateRip v1 signature : ED97EC95
AccurateRip v2 signature : 0D13DFFA
->Accurately ripped (v1+v2, confidence 7+7/14)
Statistics
Read error : 0
Jitter error (maybe fixed) : 0
Retry sector count : 0
Damaged sector count : 0

No errors occurred

End of status report


Deep Purple - The Soundboard Series: Australasian Tour 2001 (2001) 12 CD Box Set


Wollongong March 13th, 2001
XLD Rip | FLAC: Image+Cue+Log | 1.1 Gb | MP3 CBR 320 kbps | 273 Mb | Scans | Time: 01:09:33/45:58


CD1

01. Woman From Tokyo (06:33)
02. Ted The Mechanic (05:05)
03. Mary Long (05:21)
04. Lazy (06:08)
05. No One Came (05:50)
06. Black Night (07:24)
07. Sometimes I Feel Like Screaming (07:48)
08. Fools (10:29)
09. Perfect Strangers (08:21)
10. Hey Cisco (06:35)

CD2

01. When A Blind Man Cries (07:45)
02. Smoke On The Water (10:25)
03. Speed King (with Jimmy Barnes) (15:41)
04. Hush (04:28)
05. Highway Star (07:37)

The Band

• Jon Lord (keyboards)
• Steve Morse (guitar)
• Ian Paice (drums)
• Roger Glover (bass)
• Ian Gillan (vocals)
• Greg Maundrell (trumpet)
• Charles MacInnes (trombone)
• Paul Williamson (sax)
• Billie Stapleton, Angie Stapleton, Natalie Miller (backing vocals)

X Lossless Decoder version 20160920 (149.2)

XLD extraction logfile from 2017-01-18 14:23:00 +0300

Deep Purple / Live In Concert - Wollongong March 13th 2001 [Disc 1]

Used drive : OPTIARC DVD RW AD-5630A (revision 2CH9)
Media type : Pressed CD

Ripper mode : XLD Secure Ripper
Disable audio cache : OK for the drive with a cache less than 1375KiB
Make use of C2 pointers : NO
Read offset correction : 48
Max retry count : 20
Gap status : Analyzed, Appended

TOC of the extracted CD
Track | Start | Length | Start sector | End sector
––––––––––––––––––––––––––––-
1 | 00:00:00 | 06:32:36 | 0 | 29435
2 | 06:32:36 | 05:05:25 | 29436 | 52335
3 | 11:37:61 | 05:21:22 | 52336 | 76432
4 | 16:59:08 | 06:08:03 | 76433 | 104035
5 | 23:07:11 | 05:49:53 | 104036 | 130263
6 | 28:56:64 | 07:23:59 | 130264 | 163547
7 | 36:20:48 | 07:47:37 | 163548 | 198609
8 | 44:08:10 | 10:28:61 | 198610 | 245770
9 | 54:36:71 | 08:21:09 | 245771 | 283354
10 | 62:58:05 | 06:34:49 | 283355 | 312953

List of alternate offset correction values
# | Absolute | Relative | Confidence
–––––––––––––––––––––
1 | 43 | -5 | 3

AccurateRip Summary (DiscID: 00185d47-00c70d54-96104c0a)
Track 01 : OK (v1+v2, confidence 11/14)
Track 02 : OK (v1+v2, confidence 11/14)
Track 03 : OK (v1+v2, confidence 11/14)
Track 04 : OK (v1+v2, confidence 11/14)
Track 05 : OK (v1+v2, confidence 11/14)
Track 06 : OK (v1+v2, confidence 11/14)
Track 07 : OK (v1+v2, confidence 11/14)
Track 08 : OK (v1+v2, confidence 11/14)
Track 09 : OK (v1+v2, confidence 11/14)
Track 10 : OK (v1+v2, confidence 12/15)
->All tracks accurately ripped.

All Tracks
Filename : /Users/dima/Documents/torrents/Live In Concert - Wollongong March 13th 2001 [Disc 1].flac
CRC32 hash : F350B3B2
CRC32 hash (skip zero) : 1B459EB2
Statistics
Read error : 0
Jitter error (maybe fixed) : 0
Retry sector count : 33
Damaged sector count : 0

Track 01
Pre-gap length : 00:02:00

CRC32 hash : F2C7AC91
CRC32 hash (skip zero) : 7C54D540
AccurateRip v1 signature : D2C077B6
AccurateRip v2 signature : 7EC8528F
->Accurately ripped (v1+v2, confidence 7+4/14)
Statistics
Read error : 0
Jitter error (maybe fixed) : 0
Retry sector count : 0
Damaged sector count : 0

Track 02

CRC32 hash : 29691FBC
CRC32 hash (skip zero) : 7DACA2F1
AccurateRip v1 signature : 341C7B8F
AccurateRip v2 signature : 12D7C580
->Accurately ripped (v1+v2, confidence 7+4/14)
Statistics
Read error : 0
Jitter error (maybe fixed) : 0
Retry sector count : 0
Damaged sector count : 0

Track 03

CRC32 hash : 5B7AC472
CRC32 hash (skip zero) : 4EC2C960
AccurateRip v1 signature : EA88B9D4
AccurateRip v2 signature : 900EF6CC
->Accurately ripped (v1+v2, confidence 7+4/14)
Statistics
Read error : 0
Jitter error (maybe fixed) : 0
Retry sector count : 0
Damaged sector count : 0

Track 04

CRC32 hash : F38926CB
CRC32 hash (skip zero) : 4A7D5C21
AccurateRip v1 signature : 926E479B
AccurateRip v2 signature : D4AFC589
->Accurately ripped (v1+v2, confidence 7+4/14)
Statistics
Read error : 0
Jitter error (maybe fixed) : 0
Retry sector count : 0
Damaged sector count : 0

Track 05

CRC32 hash : 7A1FC05C
CRC32 hash (skip zero) : 4BCC2424
AccurateRip v1 signature : 69292936
AccurateRip v2 signature : BBD4DD87
->Accurately ripped (v1+v2, confidence 7+4/14)
Statistics
Read error : 0
Jitter error (maybe fixed) : 0
Retry sector count : 0
Damaged sector count : 0

Track 06

CRC32 hash : 380611FB
CRC32 hash (skip zero) : 8BC03639
AccurateRip v1 signature : F1F1E18A
AccurateRip v2 signature : F6C314B0
->Accurately ripped (v1+v2, confidence 7+4/14)
Statistics
Read error : 0
Jitter error (maybe fixed) : 0
Retry sector count : 0
Damaged sector count : 0

Track 07

CRC32 hash : F1E3CE2D
CRC32 hash (skip zero) : 90A39173
AccurateRip v1 signature : 03EF8677
AccurateRip v2 signature : 47EF6C2E
->Accurately ripped (v1+v2, confidence 7+4/14)
Statistics
Read error : 0
Jitter error (maybe fixed) : 0
Retry sector count : 0
Damaged sector count : 0

Track 08

CRC32 hash : 917B5EEA
CRC32 hash (skip zero) : BDE188ED
AccurateRip v1 signature : 8C38109C
AccurateRip v2 signature : C57C67F4
->Accurately ripped (v1+v2, confidence 7+4/14)
Statistics
Read error : 0
Jitter error (maybe fixed) : 0
Retry sector count : 11
Damaged sector count : 0

Track 09

CRC32 hash : 8C4F89E6
CRC32 hash (skip zero) : 909CCA7D
AccurateRip v1 signature : 24559125
AccurateRip v2 signature : 1A36B9B3
->Accurately ripped (v1+v2, confidence 7+4/14)
Statistics
Read error : 0
Jitter error (maybe fixed) : 0
Retry sector count : 0
Damaged sector count : 0

Track 10

CRC32 hash : 9800BDA4
CRC32 hash (skip zero) : DC84AFA7
AccurateRip v1 signature : 05EA855C
AccurateRip v2 signature : FEAEE078
->Accurately ripped (v1+v2, confidence 8+4/15)
Statistics
Read error : 0
Jitter error (maybe fixed) : 0
Retry sector count : 22
Damaged sector count : 0

No errors occurred

End of status report

X Lossless Decoder version 20160920 (149.2)

XLD extraction logfile from 2017-01-18 13:53:47 +0300

Deep Purple / Live In Concert Wollongong 2001 CD 2

Used drive : OPTIARC DVD RW AD-5630A (revision 2CH9)
Media type : Pressed CD

Ripper mode : XLD Secure Ripper
Disable audio cache : OK for the drive with a cache less than 1375KiB
Make use of C2 pointers : NO
Read offset correction : 48
Max retry count : 20
Gap status : Analyzed, Appended

TOC of the extracted CD
Track | Start | Length | Start sector | End sector
––––––––––––––––––––––––––––-
1 | 00:00:00 | 07:45:25 | 0 | 34899
2 | 07:45:25 | 10:25:10 | 34900 | 81784
3 | 18:10:35 | 15:41:11 | 81785 | 152370
4 | 33:51:46 | 04:28:27 | 152371 | 172497
5 | 38:19:73 | 07:37:30 | 172498 | 206802

AccurateRip Summary (DiscID: 0009e4a5-002e33ec-2d0ac505)
Track 01 : OK (v1+v2, confidence 14/14)
Track 02 : OK (v1+v2, confidence 14/14)
Track 03 : OK (v1+v2, confidence 14/14)
Track 04 : OK (v1+v2, confidence 14/14)
Track 05 : OK (v1+v2, confidence 14/14)
->All tracks accurately ripped.

All Tracks
Filename : /Users/dima/Documents/torrents/Live In Concert Wollongong 2001 CD 2.flac
CRC32 hash : 720A13D7
CRC32 hash (skip zero) : 54B50694
Statistics
Read error : 0
Jitter error (maybe fixed) : 0
Retry sector count : 3
Damaged sector count : 0

Track 01
Pre-gap length : 00:02:00

CRC32 hash : 6DF8477E
CRC32 hash (skip zero) : 241EE547
AccurateRip v1 signature : CB198019
AccurateRip v2 signature : 3B40B542
->Accurately ripped (v1+v2, confidence 7+7/14)
Statistics
Read error : 0
Jitter error (maybe fixed) : 0
Retry sector count : 0
Damaged sector count : 0

Track 02

CRC32 hash : 8AFF7FE8
CRC32 hash (skip zero) : C65069D8
AccurateRip v1 signature : 162C079D
AccurateRip v2 signature : FDFEE984
->Accurately ripped (v1+v2, confidence 7+7/14)
Statistics
Read error : 0
Jitter error (maybe fixed) : 0
Retry sector count : 0
Damaged sector count : 0

Track 03

CRC32 hash : 05FD0440
CRC32 hash (skip zero) : F971341C
AccurateRip v1 signature : 3AD16195
AccurateRip v2 signature : 9E3F14CC
->Accurately ripped (v1+v2, confidence 7+7/14)
Statistics
Read error : 0
Jitter error (maybe fixed) : 0
Retry sector count : 0
Damaged sector count : 0

Track 04

CRC32 hash : 2C578A4D
CRC32 hash (skip zero) : 11352B90
AccurateRip v1 signature : 37B507CF
AccurateRip v2 signature : 64B2BAFA
->Accurately ripped (v1+v2, confidence 7+7/14)
Statistics
Read error : 0
Jitter error (maybe fixed) : 0
Retry sector count : 0
Damaged sector count : 0

Track 05

CRC32 hash : 5D91FB95
CRC32 hash (skip zero) : 053B124D
AccurateRip v1 signature : 950D1BD0
AccurateRip v2 signature : 5F34DD5B
->Accurately ripped (v1+v2, confidence 7+7/14)
Statistics
Read error : 0
Jitter error (maybe fixed) : 0
Retry sector count : 3
Damaged sector count : 0

No errors occurred

End of status report


Deep Purple - The Soundboard Series: Australasian Tour 2001 (2001) 12 CD Box Set


Newcastle March 14th, 2001
XLD Rip | FLAC: Image+Cue+Log | 1.1 Gb | MP3 CBR 320 kbps | 273 Mb | Scans | Time: 01:09:12/46:32


CD1

01. Woman From Tokyo (06:15)
02. Ted The Mechanic (05:12)
03. Mary Long (05:57)
04. Lazy (06:04)
05. No One Came (05:38)
06. Black Night (07:23)
07. Sometimes I Feel Like Screaming (07:28)
08. Fools (09:24)
09. Perfect Strangers (09:31)
10. Hey Cisco (06:20)

CD2

01. When A Blind Man Cries (07:27)
02. Smoke On The Water (10:21)
03. Speed King (with Jimmy Barnes) (17:00)
04. Hush (04:19)
05. Highway Star (with Jimmy Barnes & Ian Moss) (07:25)

The Band

• Jon Lord (keyboards)
• Steve Morse (guitar)
• Ian Paice (drums)
• Roger Glover (bass)
• Ian Gillan (vocals)
• Greg Maundrell (trumpet)
• Charles MacInnes (trombone)
• Paul Williamson (sax)
• Billie Stapleton, Angie Stapleton, Natalie Miller (backing vocals)

X Lossless Decoder version 20160920 (149.2)

XLD extraction logfile from 2017-01-15 23:55:05 +0300

Deep Purple / Live In Concert Newcastle 2001 CD 1

Used drive : OPTIARC DVD RW AD-5630A (revision 2CH9)
Media type : Pressed CD

Ripper mode : XLD Secure Ripper
Disable audio cache : OK for the drive with a cache less than 1375KiB
Make use of C2 pointers : NO
Read offset correction : 48
Max retry count : 20
Gap status : Analyzed, Appended

TOC of the extracted CD
Track | Start | Length | Start sector | End sector
––––––––––––––––––––––––––––-
1 | 00:00:00 | 06:14:47 | 0 | 28096
2 | 06:14:47 | 05:11:59 | 28097 | 51480
3 | 11:26:31 | 05:56:71 | 51481 | 78251
4 | 17:23:27 | 06:03:49 | 78252 | 105525
5 | 23:27:01 | 05:38:32 | 105526 | 130907
6 | 29:05:33 | 07:22:62 | 130908 | 164119
7 | 36:28:20 | 07:27:66 | 164120 | 197710
8 | 43:56:11 | 09:24:32 | 197711 | 240042
9 | 53:20:43 | 09:30:46 | 240043 | 282838
10 | 62:51:14 | 06:20:04 | 282839 | 311342

AccurateRip Summary (DiscID: 00184430-00c61242-8d10370a)
Track 01 : OK (v1+v2, confidence 16/16)
Track 02 : OK (v1+v2, confidence 16/16)
Track 03 : OK (v1+v2, confidence 15/15)
Track 04 : OK (v1+v2, confidence 15/15)
Track 05 : OK (v1+v2, confidence 16/16)
Track 06 : OK (v1+v2, confidence 15/15)
Track 07 : OK (v1+v2, confidence 15/15)
Track 08 : OK (v1+v2, confidence 16/16)
Track 09 : OK (v1+v2, confidence 16/16)
Track 10 : OK (v1+v2, confidence 16/16)
->All tracks accurately ripped.

All Tracks
Filename : /Users/dima/Documents/torrents/Live In Concert Newcastle 2001 CD 1.flac
CRC32 hash : 19E629A2
CRC32 hash (skip zero) : DBF10981
Statistics
Read error : 0
Jitter error (maybe fixed) : 0
Retry sector count : 0
Damaged sector count : 0

Track 01
Pre-gap length : 00:02:00

CRC32 hash : 6D581BCD
CRC32 hash (skip zero) : E3A18835
AccurateRip v1 signature : 994BF069
AccurateRip v2 signature : 6F56C160
->Accurately ripped (v1+v2, confidence 8+8/16)
Statistics
Read error : 0
Jitter error (maybe fixed) : 0
Retry sector count : 0
Damaged sector count : 0

Track 02

CRC32 hash : 0AC3B658
CRC32 hash (skip zero) : EDC6E227
AccurateRip v1 signature : 07B1C09E
AccurateRip v2 signature : B86B27B8
->Accurately ripped (v1+v2, confidence 7+9/16)
Statistics
Read error : 0
Jitter error (maybe fixed) : 0
Retry sector count : 0
Damaged sector count : 0

Track 03

CRC32 hash : AD50A0A2
CRC32 hash (skip zero) : 0A64A111
AccurateRip v1 signature : 1AD35091
AccurateRip v2 signature : B0E54624
->Accurately ripped (v1+v2, confidence 7+8/15)
Statistics
Read error : 0
Jitter error (maybe fixed) : 0
Retry sector count : 0
Damaged sector count : 0

Track 04

CRC32 hash : B697514E
CRC32 hash (skip zero) : 3B0FE093
AccurateRip v1 signature : 5C9F1451
AccurateRip v2 signature : C363E872
->Accurately ripped (v1+v2, confidence 7+8/15)
Statistics
Read error : 0
Jitter error (maybe fixed) : 0
Retry sector count : 0
Damaged sector count : 0

Track 05

CRC32 hash : FA77BFC6
CRC32 hash (skip zero) : 756D6BAA
AccurateRip v1 signature : 0201EC03
AccurateRip v2 signature : 464E3D9B
->Accurately ripped (v1+v2, confidence 7+9/16)
Statistics
Read error : 0
Jitter error (maybe fixed) : 0
Retry sector count : 0
Damaged sector count : 0

Track 06

CRC32 hash : C6DD3F93
CRC32 hash (skip zero) : 187608BB
AccurateRip v1 signature : 6B2D4B00
AccurateRip v2 signature : E21D79AD
->Accurately ripped (v1+v2, confidence 7+8/15)
Statistics
Read error : 0
Jitter error (maybe fixed) : 0
Retry sector count : 0
Damaged sector count : 0

Track 07

CRC32 hash : CFDEE07E
CRC32 hash (skip zero) : 49A9E72C
AccurateRip v1 signature : 00444BE8
AccurateRip v2 signature : 9C0BC682
->Accurately ripped (v1+v2, confidence 7+8/15)
Statistics
Read error : 0
Jitter error (maybe fixed) : 0
Retry sector count : 0
Damaged sector count : 0

Track 08

CRC32 hash : 5CCE2B6D
CRC32 hash (skip zero) : 46C18D4F
AccurateRip v1 signature : 799D7031
AccurateRip v2 signature : CFB424EA
->Accurately ripped (v1+v2, confidence 7+9/16)
Statistics
Read error : 0
Jitter error (maybe fixed) : 0
Retry sector count : 0
Damaged sector count : 0

Track 09

CRC32 hash : AE4E1747
CRC32 hash (skip zero) : 46E89EFC
AccurateRip v1 signature : B0678758
AccurateRip v2 signature : 51CEDFE9
->Accurately ripped (v1+v2, confidence 7+9/16)
Statistics
Read error : 0
Jitter error (maybe fixed) : 0
Retry sector count : 0
Damaged sector count : 0

Track 10

CRC32 hash : 2C1D7D2F
CRC32 hash (skip zero) : 4A5C91BA
AccurateRip v1 signature : CA47674B
AccurateRip v2 signature : 7D8D1A49
->Accurately ripped (v1+v2, confidence 8+8/16)
Statistics
Read error : 0
Jitter error (maybe fixed) : 0
Retry sector count : 0
Damaged sector count : 0

No errors occurred

End of status report

X Lossless Decoder version 20160920 (149.2)

XLD extraction logfile from 2017-01-16 06:41:20 +0300

Deep Purple / Live In Concert Newcastle 2001 CD 2

Used drive : OPTIARC DVD RW AD-5630A (revision 2CH9)
Media type : Pressed CD

Ripper mode : XLD Secure Ripper
Disable audio cache : OK for the drive with a cache less than 1375KiB
Make use of C2 pointers : NO
Read offset correction : 48
Max retry count : 20
Gap status : Analyzed, Appended

TOC of the extracted CD
Track | Start | Length | Start sector | End sector
––––––––––––––––––––––––––––-
1 | 00:00:00 | 07:27:06 | 0 | 33530
2 | 07:27:06 | 10:21:17 | 33531 | 80122
3 | 17:48:23 | 16:59:53 | 80123 | 156600
4 | 34:48:01 | 04:19:15 | 156601 | 176040
5 | 39:07:16 | 07:24:49 | 176041 | 209389

AccurateRip Summary (DiscID: 000a0146-002ed9ad-380ae705)
Track 01 : OK (v1+v2, confidence 14/14)
Track 02 : OK (v1+v2, confidence 14/14)
Track 03 : OK (v1+v2, confidence 14/14)
Track 04 : OK (v1+v2, confidence 14/14)
Track 05 : OK (v1+v2, confidence 14/14)
->All tracks accurately ripped.

All Tracks
Filename : /Users/dima/Documents/torrents/Live In Concert Newcastle 2001 CD 2.flac
CRC32 hash : A19A2A65
CRC32 hash (skip zero) : 62BDF5C1
Statistics
Read error : 0
Jitter error (maybe fixed) : 0
Retry sector count : 0
Damaged sector count : 0

Track 01
Pre-gap length : 00:02:00

CRC32 hash : 2A27D080
CRC32 hash (skip zero) : 0B4CB457
AccurateRip v1 signature : 01B96B90
AccurateRip v2 signature : 3454C37D
->Accurately ripped (v1+v2, confidence 7+7/14)
Statistics
Read error : 0
Jitter error (maybe fixed) : 0
Retry sector count : 0
Damaged sector count : 0

Track 02

CRC32 hash : C404AC4E
CRC32 hash (skip zero) : 66EA708F
AccurateRip v1 signature : BFCB156F
AccurateRip v2 signature : 6FA1CDE5
->Accurately ripped (v1+v2, confidence 7+7/14)
Statistics
Read error : 0
Jitter error (maybe fixed) : 0
Retry sector count : 0
Damaged sector count : 0

Track 03

CRC32 hash : 9DD1A2E1
CRC32 hash (skip zero) : F3DE1CA0
AccurateRip v1 signature : 83D1FC6B
AccurateRip v2 signature : 223E9482
->Accurately ripped (v1+v2, confidence 7+7/14)
Statistics
Read error : 0
Jitter error (maybe fixed) : 0
Retry sector count : 0
Damaged sector count : 0

Track 04

CRC32 hash : C808776A
CRC32 hash (skip zero) : 54A7361F
AccurateRip v1 signature : 840AFBAE
AccurateRip v2 signature : DEC29260
->Accurately ripped (v1+v2, confidence 7+7/14)
Statistics
Read error : 0
Jitter error (maybe fixed) : 0
Retry sector count : 0
Damaged sector count : 0

Track 05

CRC32 hash : F827CC96
CRC32 hash (skip zero) : B77C0621
AccurateRip v1 signature : A7876ADB
AccurateRip v2 signature : DA2A23C0
->Accurately ripped (v1+v2, confidence 7+7/14)
Statistics
Read error : 0
Jitter error (maybe fixed) : 0
Retry sector count : 0
Damaged sector count : 0

No errors occurred

End of status report


Deep Purple - The Soundboard Series: Australasian Tour 2001 (2001) 12 CD Box Set


Live In Hong Kong - HK Coliseum / March 20, 2001 / 8:00pm
XLD Rip | FLAC: Image+Cue+Log | 1.2 Gb | MP3 CBR 320 kbps | 281 Mb | Scans | Time: 56:11/01:02:54


CD1

01. Woman From Tokyo (06:30)
02. Ted The Mechanic (05:00)
03. Mary Long (05:37)
04. Lazy (06:12)
05. No One Came (05:58)
06. Black Night (08:26)
07. Sometimes I Feel Like Screaming (07:21)
08. Fools (11:07)

CD2

01. Perfect Strangers (10:09)
02. Hey Cisco (06:48)
03. When A Blind Man Cries (07:33)
04. Smoke On The Water (10:12)
05. Speed King (16:15)
06. Hush (04:22)
07. Highway Star (07:34)

The Band

• Jon Lord (keyboards)
• Steve Morse (guitar)
• Ian Paice (drums)
• Roger Glover (bass)
• Ian Gillan (vocals)

X Lossless Decoder version 20160920 (149.2)

XLD extraction logfile from 2017-01-18 09:38:09 +0300

Deep Purple / Hong Kong 2001/03/20 (1)

Used drive : OPTIARC DVD RW AD-5630A (revision 2CH9)
Media type : Pressed CD

Ripper mode : XLD Secure Ripper
Disable audio cache : OK for the drive with a cache less than 1375KiB
Make use of C2 pointers : NO
Read offset correction : 48
Max retry count : 20
Gap status : Analyzed, Appended

TOC of the extracted CD
Track | Start | Length | Start sector | End sector
––––––––––––––––––––––––––––-
1 | 00:00:00 | 06:30:04 | 0 | 29253
2 | 06:30:04 | 04:59:63 | 29254 | 51741
3 | 11:29:67 | 05:37:10 | 51742 | 77026
4 | 17:07:02 | 06:12:20 | 77027 | 104946
5 | 23:19:22 | 05:57:40 | 104947 | 131761
6 | 29:16:62 | 08:25:59 | 131762 | 169695
7 | 37:42:46 | 07:20:70 | 169696 | 202765
8 | 45:03:41 | 11:07:07 | 202766 | 252797

AccurateRip Summary (DiscID: 000f9058-0069a05c-630d2a08)
Track 01 : OK (v1+v2, confidence 13/13)
Track 02 : OK (v1+v2, confidence 14/14)
Track 03 : OK (v1+v2, confidence 13/13)
Track 04 : OK (v1+v2, confidence 13/13)
Track 05 : OK (v1+v2, confidence 13/13)
Track 06 : OK (v1+v2, confidence 12/12)
Track 07 : OK (v1+v2, confidence 13/13)
Track 08 : OK (v1+v2, confidence 13/13)
->All tracks accurately ripped.

All Tracks
Filename : /Users/dima/Documents/torrents/Hong Kong 2001/03/20 (1).flac
CRC32 hash : 969B842B
CRC32 hash (skip zero) : D97D8622
Statistics
Read error : 0
Jitter error (maybe fixed) : 0
Retry sector count : 15
Damaged sector count : 0

Track 01
Pre-gap length : 00:02:00

CRC32 hash : 93707371
CRC32 hash (skip zero) : 48F7BC06
AccurateRip v1 signature : F1E5E2ED
AccurateRip v2 signature : D49F2F5C
->Accurately ripped (v1+v2, confidence 7+6/13)
Statistics
Read error : 0
Jitter error (maybe fixed) : 0
Retry sector count : 0
Damaged sector count : 0

Track 02

CRC32 hash : EBB9A196
CRC32 hash (skip zero) : 5365E473
AccurateRip v1 signature : A9900A23
AccurateRip v2 signature : 7202DC1A
->Accurately ripped (v1+v2, confidence 8+6/14)
Statistics
Read error : 0
Jitter error (maybe fixed) : 0
Retry sector count : 0
Damaged sector count : 0

Track 03

CRC32 hash : 240B31C0
CRC32 hash (skip zero) : 78EC686C
AccurateRip v1 signature : BC6EDEAF
AccurateRip v2 signature : B2940049
->Accurately ripped (v1+v2, confidence 7+6/13)
Statistics
Read error : 0
Jitter error (maybe fixed) : 0
Retry sector count : 3
Damaged sector count : 0

Track 04

CRC32 hash : 4938E056
CRC32 hash (skip zero) : 6B5593DE
AccurateRip v1 signature : E41DEDCA
AccurateRip v2 signature : 48547461
->Accurately ripped (v1+v2, confidence 7+6/13)
Statistics
Read error : 0
Jitter error (maybe fixed) : 0
Retry sector count : 0
Damaged sector count : 0

Track 05

CRC32 hash : B3DB2B22
CRC32 hash (skip zero) : 72674448
AccurateRip v1 signature : AAAB81F0
AccurateRip v2 signature : 65B7291F
->Accurately ripped (v1+v2, confidence 7+6/13)
Statistics
Read error : 0
Jitter error (maybe fixed) : 0
Retry sector count : 0
Damaged sector count : 0

Track 06

CRC32 hash : CAC49169
CRC32 hash (skip zero) : 0677892B
AccurateRip v1 signature : 763289D8
AccurateRip v2 signature : 81A17DFA
->Accurately ripped (v1+v2, confidence 7+5/12)
Statistics
Read error : 0
Jitter error (maybe fixed) : 0
Retry sector count : 3
Damaged sector count : 0

Track 07

CRC32 hash : 31838BDC
CRC32 hash (skip zero) : 144C64B5
AccurateRip v1 signature : 24A32C70
AccurateRip v2 signature : F6F9E7FB
->Accurately ripped (v1+v2, confidence 7+6/13)
Statistics
Read error : 0
Jitter error (maybe fixed) : 0
Retry sector count : 9
Damaged sector count : 0

Track 08

CRC32 hash : C1B68647
CRC32 hash (skip zero) : 2E1FC665
AccurateRip v1 signature : 93E65AF4
AccurateRip v2 signature : 833F3E12
->Accurately ripped (v1+v2, confidence 7+6/13)
Statistics
Read error : 0
Jitter error (maybe fixed) : 0
Retry sector count : 0
Damaged sector count : 0

No errors occurred

End of status report

X Lossless Decoder version 20160920 (149.2)

XLD extraction logfile from 2017-01-18 10:25:02 +0300

Deep Purple / Live In Concert Hong Kong 2001 CD 2

Used drive : OPTIARC DVD RW AD-5630A (revision 2CH9)
Media type : Pressed CD

Ripper mode : XLD Secure Ripper
Disable audio cache : OK for the drive with a cache less than 1375KiB
Make use of C2 pointers : NO
Read offset correction : 48
Max retry count : 20
Gap status : Analyzed, Appended

TOC of the extracted CD
Track | Start | Length | Start sector | End sector
––––––––––––––––––––––––––––-
1 | 00:00:00 | 10:08:35 | 0 | 45634
2 | 10:08:35 | 06:47:63 | 45635 | 76222
3 | 16:56:23 | 07:33:16 | 76223 | 110213
4 | 24:29:39 | 10:12:12 | 110214 | 156125
5 | 34:41:51 | 16:14:73 | 156126 | 229248
6 | 50:56:49 | 04:22:30 | 229249 | 248928
7 | 55:19:04 | 07:34:13 | 248929 | 282991

AccurateRip Summary (DiscID: 001189b8-0069a45f-460ebd07)
Track 01 : OK (v1+v2, confidence 13/13)
Track 02 : OK (v1+v2, confidence 13/13)
Track 03 : OK (v1+v2, confidence 13/13)
Track 04 : OK (v1+v2, confidence 13/13)
Track 05 : OK (v1+v2, confidence 13/13)
Track 06 : OK (v1+v2, confidence 13/13)
Track 07 : OK (v1+v2, confidence 13/13)
->All tracks accurately ripped.

All Tracks
Filename : /Users/dima/Documents/torrents/Live In Concert Hong Kong 2001 CD 2.flac
CRC32 hash : 13F6877F
CRC32 hash (skip zero) : 716D2C2F
Statistics
Read error : 0
Jitter error (maybe fixed) : 0
Retry sector count : 6
Damaged sector count : 0

Track 01
Pre-gap length : 00:02:00

CRC32 hash : 65C40D80
CRC32 hash (skip zero) : F857C6B1
AccurateRip v1 signature : C2D50216
AccurateRip v2 signature : 0DD8E159
->Accurately ripped (v1+v2, confidence 7+6/13)
Statistics
Read error : 0
Jitter error (maybe fixed) : 0
Retry sector count : 0
Damaged sector count : 0

Track 02

CRC32 hash : 79DFD9E5
CRC32 hash (skip zero) : 7841A7A2
AccurateRip v1 signature : C6EBC7CD
AccurateRip v2 signature : 7D36E78E
->Accurately ripped (v1+v2, confidence 7+6/13)
Statistics
Read error : 0
Jitter error (maybe fixed) : 0
Retry sector count : 0
Damaged sector count : 0

Track 03

CRC32 hash : 9D6DAC8D
CRC32 hash (skip zero) : 99549D02
AccurateRip v1 signature : E1CB0BE0
AccurateRip v2 signature : DF88D47C
->Accurately ripped (v1+v2, confidence 7+6/13)
Statistics
Read error : 0
Jitter error (maybe fixed) : 0
Retry sector count : 0
Damaged sector count : 0

Track 04

CRC32 hash : 048A558B
CRC32 hash (skip zero) : 1DF9676B
AccurateRip v1 signature : 0F62C906
AccurateRip v2 signature : DECC168D
->Accurately ripped (v1+v2, confidence 7+6/13)
Statistics
Read error : 0
Jitter error (maybe fixed) : 0
Retry sector count : 0
Damaged sector count : 0

Track 05

CRC32 hash : BD98B25C
CRC32 hash (skip zero) : 22C7E80B
AccurateRip v1 signature : 6827A6DB
AccurateRip v2 signature : A28CF770
->Accurately ripped (v1+v2, confidence 7+6/13)
Statistics
Read error : 0
Jitter error (maybe fixed) : 0
Retry sector count : 0
Damaged sector count : 0

Track 06

CRC32 hash : 29C60CB5
CRC32 hash (skip zero) : 7B931735
AccurateRip v1 signature : A06AF517
AccurateRip v2 signature : B2E5450A
->Accurately ripped (v1+v2, confidence 7+6/13)
Statistics
Read error : 0
Jitter error (maybe fixed) : 0
Retry sector count : 0
Damaged sector count : 0

Track 07

CRC32 hash : FE7F940F
CRC32 hash (skip zero) : 7301E753
AccurateRip v1 signature : EDDFB011
AccurateRip v2 signature : C75ED119
->Accurately ripped (v1+v2, confidence 7+6/13)
Statistics
Read error : 0
Jitter error (maybe fixed) : 0
Retry sector count : 6
Damaged sector count : 0

No errors occurred

End of status report


Deep Purple - The Soundboard Series: Australasian Tour 2001 (2001) 12 CD Box Set


Tokyo 24th March 2001
XLD Rip | FLAC: Image+Cue+Log | 1.3 Gb | MP3 CBR 320 kbps | 346 Mb | Scans | Time: 01:08:12/01:18:27


CD1

01. Pictured Within (11:05)
02. Sitting In A Dream * (04:46)
03. Love Is All * (04:31)
04. Fever Dreams * (04:19)
05. Rainbow In The Dark * (05:07)
06. Watching The Sky (05:28)
07. Sometimes I Feel Like Screaming (07:21)
08. The Well-Dressed Guitar (04:08)
09. Wring That Neck (05:10)
10. Fools (09:55)
11. Perfect Strangers (06:24)

CD2

01. Concerto Movement 1 (20:17)
02. Concerto Movement 2 (18:37)
03. Concerto Movement 3 (14:46)
04. When A Blind Man Cries (07:35)
05. Pictures Of Home (10:07)
06. Smoke On The Water * (07:05)

The Band

• Jon Lord (keyboards)
• Steve Morse (guitar)
• Ian Paice (drums)
• Roger Glover (bass)
• Ian Gillan (vocals)
• Shin Nihon Philharmonic Select Orchestra conducted by Paul Mann
• Ronnie James Dio (vocals) * - special guest
• Big Horns Bee (brass trio)

X Lossless Decoder version 20160920 (149.2)

XLD extraction logfile from 2017-01-16 10:49:49 +0300

Deep Purple / Live In Concert - Tokyo March 24th 2001 [Disc 1]

Used drive : OPTIARC DVD RW AD-5630A (revision 2CH9)
Media type : Pressed CD

Ripper mode : XLD Secure Ripper
Disable audio cache : OK for the drive with a cache less than 1375KiB
Make use of C2 pointers : NO
Read offset correction : 48
Max retry count : 20
Gap status : Analyzed, Appended

TOC of the extracted CD
Track | Start | Length | Start sector | End sector
––––––––––––––––––––––––––––-
1 | 00:00:00 | 11:04:35 | 0 | 49834
2 | 11:04:35 | 04:46:00 | 49835 | 71284
3 | 15:50:35 | 04:30:45 | 71285 | 91579
4 | 20:21:05 | 04:18:45 | 91580 | 110974
5 | 24:39:50 | 05:07:05 | 110975 | 134004
6 | 29:46:55 | 05:28:07 | 134005 | 158611
7 | 35:14:62 | 07:21:05 | 158612 | 191691
8 | 42:35:67 | 04:07:34 | 191692 | 210250
9 | 46:43:26 | 05:09:72 | 210251 | 233497
10 | 51:53:23 | 09:54:67 | 233498 | 278114
11 | 61:48:15 | 06:23:44 | 278115 | 306883

AccurateRip Summary (DiscID: 001c06bc-00eed363-930ffb0b)
Track 01 : OK (v1+v2, confidence 16/16)
Track 02 : OK (v1+v2, confidence 16/16)
Track 03 : OK (v1+v2, confidence 16/16)
Track 04 : OK (v1+v2, confidence 16/16)
Track 05 : OK (v1+v2, confidence 16/16)
Track 06 : OK (v1+v2, confidence 16/16)
Track 07 : OK (v1+v2, confidence 16/16)
Track 08 : OK (v1+v2, confidence 16/16)
Track 09 : OK (v1+v2, confidence 16/16)
Track 10 : OK (v1+v2, confidence 16/16)
Track 11 : OK (v1+v2, confidence 16/16)
->All tracks accurately ripped.

All Tracks
Filename : /Users/dima/Documents/torrents/Live In Concert - Tokyo March 24th 2001 [Disc 1].flac
CRC32 hash : 9530A2EF
CRC32 hash (skip zero) : D50B96E1
Statistics
Read error : 0
Jitter error (maybe fixed) : 0
Retry sector count : 5
Damaged sector count : 0

Track 01
Pre-gap length : 00:02:00

CRC32 hash : A5A8647C
CRC32 hash (skip zero) : 96E317F5
AccurateRip v1 signature : E732D06B
AccurateRip v2 signature : E1C95AB2
->Accurately ripped (v1+v2, confidence 7+9/16)
Statistics
Read error : 0
Jitter error (maybe fixed) : 0
Retry sector count : 0
Damaged sector count : 0

Track 02

CRC32 hash : DE765660
CRC32 hash (skip zero) : E457B4B7
AccurateRip v1 signature : 800E12FA
AccurateRip v2 signature : 67BCD6AD
->Accurately ripped (v1+v2, confidence 7+9/16)
Statistics
Read error : 0
Jitter error (maybe fixed) : 0
Retry sector count : 0
Damaged sector count : 0

Track 03

CRC32 hash : 0AA4C401
CRC32 hash (skip zero) : D3DF6F1F
AccurateRip v1 signature : C7EEDA8B
AccurateRip v2 signature : 1B364DBF
->Accurately ripped (v1+v2, confidence 7+9/16)
Statistics
Read error : 0
Jitter error (maybe fixed) : 0
Retry sector count : 0
Damaged sector count : 0

Track 04

CRC32 hash : 986A59D0
CRC32 hash (skip zero) : 4701A392
AccurateRip v1 signature : 90E033C7
AccurateRip v2 signature : 95730AD5
->Accurately ripped (v1+v2, confidence 7+9/16)
Statistics
Read error : 0
Jitter error (maybe fixed) : 0
Retry sector count : 0
Damaged sector count : 0

Track 05

CRC32 hash : 89100410
CRC32 hash (skip zero) : 2A96ED47
AccurateRip v1 signature : A5F04E51
AccurateRip v2 signature : D027F66E
->Accurately ripped (v1+v2, confidence 7+9/16)
Statistics
Read error : 0
Jitter error (maybe fixed) : 0
Retry sector count : 0
Damaged sector count : 0

Track 06

CRC32 hash : 7C31DFB4
CRC32 hash (skip zero) : 5E42EA99
AccurateRip v1 signature : 1FAA5A17
AccurateRip v2 signature : 1425101C
->Accurately ripped (v1+v2, confidence 7+9/16)
Statistics
Read error : 0
Jitter error (maybe fixed) : 0
Retry sector count : 0
Damaged sector count : 0

Track 07

CRC32 hash : 198C32BD
CRC32 hash (skip zero) : 85E2D9FB
AccurateRip v1 signature : E55BCD8F
AccurateRip v2 signature : 9CD75127
->Accurately ripped (v1+v2, confidence 7+9/16)
Statistics
Read error : 0
Jitter error (maybe fixed) : 0
Retry sector count : 0
Damaged sector count : 0

Track 08

CRC32 hash : 4A163B25
CRC32 hash (skip zero) : 339E5669
AccurateRip v1 signature : 79EC2C6D
AccurateRip v2 signature : CC07F0D4
->Accurately ripped (v1+v2, confidence 7+9/16)
Statistics
Read error : 0
Jitter error (maybe fixed) : 0
Retry sector count : 0
Damaged sector count : 0

Track 09
Pre-gap length : 00:03:09

CRC32 hash : 719C1B87
CRC32 hash (skip zero) : 20573AC0
AccurateRip v1 signature : 79D43037
AccurateRip v2 signature : 17521A0F
->Accurately ripped (v1+v2, confidence 7+9/16)
Statistics
Read error : 0
Jitter error (maybe fixed) : 0
Retry sector count : 0
Damaged sector count : 0

Track 10

CRC32 hash : E9458313
CRC32 hash (skip zero) : D818B7E6
AccurateRip v1 signature : 8E674A90
AccurateRip v2 signature : 4D1B6B45
->Accurately ripped (v1+v2, confidence 7+9/16)
Statistics
Read error : 0
Jitter error (maybe fixed) : 0
Retry sector count : 5
Damaged sector count : 0

Track 11

CRC32 hash : 8A7B95C6
CRC32 hash (skip zero) : 140598C2
AccurateRip v1 signature : C7FDC336
AccurateRip v2 signature : 72159AD5
->Accurately ripped (v1+v2, confidence 7+9/16)
Statistics
Read error : 0
Jitter error (maybe fixed) : 0
Retry sector count : 0
Damaged sector count : 0

No errors occurred

End of status report

X Lossless Decoder version 20160920 (149.2)

XLD extraction logfile from 2017-01-16 12:15:58 +0300

Deep Purple / Live In Concert Tokyo 2001-03-24 CD 2

Used drive : OPTIARC DVD RW AD-5630A (revision 2CH9)
Media type : Pressed CD

Ripper mode : XLD Secure Ripper
Disable audio cache : OK for the drive with a cache less than 1375KiB
Make use of C2 pointers : NO
Read offset correction : 48
Max retry count : 20
Gap status : Analyzed, Appended

TOC of the extracted CD
Track | Start | Length | Start sector | End sector
––––––––––––––––––––––––––––-
1 | 00:00:00 | 20:16:36 | 0 | 91235
2 | 20:16:36 | 18:36:56 | 91236 | 174991
3 | 38:53:17 | 14:45:58 | 174992 | 241424
4 | 53:39:00 | 07:35:25 | 241425 | 275574
5 | 61:14:25 | 10:06:68 | 275575 | 321092
6 | 71:21:18 | 07:05:00 | 321093 | 352967

AccurateRip Summary (DiscID: 00163c89-0071a726-4a126206)
Track 01 : OK (v1+v2, confidence 15/15)
Track 02 : OK (v1+v2, confidence 15/15)
Track 03 : OK (v1+v2, confidence 15/15)
Track 04 : OK (v1+v2, confidence 15/15)
Track 05 : OK (v1+v2, confidence 15/15)
Track 06 : OK (v1+v2, confidence 15/15)
->All tracks accurately ripped.

All Tracks
Filename : /Users/dima/Documents/torrents/Live In Concert Tokyo 2001-03-24 CD 2.flac
CRC32 hash : C817F31D
CRC32 hash (skip zero) : 4928AC86
Statistics
Read error : 0
Jitter error (maybe fixed) : 0
Retry sector count : 8
Damaged sector count : 0

Track 01
Pre-gap length : 00:02:00

CRC32 hash : CDA90D9A
CRC32 hash (skip zero) : 5BC24A51
AccurateRip v1 signature : F6F8A2B9
AccurateRip v2 signature : 62C5A597
->Accurately ripped (v1+v2, confidence 7+8/15)
Statistics
Read error : 0
Jitter error (maybe fixed) : 0
Retry sector count : 0
Damaged sector count : 0

Track 02

CRC32 hash : 34C98964
CRC32 hash (skip zero) : 12F2BCBD
AccurateRip v1 signature : 87986992
AccurateRip v2 signature : 814E0111
->Accurately ripped (v1+v2, confidence 7+8/15)
Statistics
Read error : 0
Jitter error (maybe fixed) : 0
Retry sector count : 0
Damaged sector count : 0

Track 03

CRC32 hash : F0EB88D8
CRC32 hash (skip zero) : B8408977
AccurateRip v1 signature : 162F6517
AccurateRip v2 signature : F3AAEB3B
->Accurately ripped (v1+v2, confidence 7+8/15)
Statistics
Read error : 0
Jitter error (maybe fixed) : 0
Retry sector count : 0
Damaged sector count : 0

Track 04

CRC32 hash : D7C970F5
CRC32 hash (skip zero) : CAC2CAD1
AccurateRip v1 signature : 583298C3
AccurateRip v2 signature : EBBBD2A3
->Accurately ripped (v1+v2, confidence 7+8/15)
Statistics
Read error : 0
Jitter error (maybe fixed) : 0
Retry sector count : 4
Damaged sector count : 0

Track 05

CRC32 hash : FA2758A4
CRC32 hash (skip zero) : C92454DF
AccurateRip v1 signature : CDDEF13B
AccurateRip v2 signature : 4D5F939D
->Accurately ripped (v1+v2, confidence 7+8/15)
Statistics
Read error : 0
Jitter error (maybe fixed) : 0
Retry sector count : 0
Damaged sector count : 0

Track 06

CRC32 hash : 7B7CC4AF
CRC32 hash (skip zero) : CB245439
AccurateRip v1 signature : 33D10B04
AccurateRip v2 signature : 8240DD56
->Accurately ripped (v1+v2, confidence 7+8/15)
Statistics
Read error : 0
Jitter error (maybe fixed) : 0
Retry sector count : 4
Damaged sector count : 0

No errors occurred

End of status report


Deep Purple - The Soundboard Series: Australasian Tour 2001 (2001) 12 CD Box Set


Tokyo 25th March 2001
XLD Rip | FLAC: Image+Cue+Log | 1.3 Gb | MP3 CBR 320 kbps | 347 Mb | Scans | Time: 01:11:19/01:15:44


CD1

01. Pictured Within (11:25)
02. Sitting In A Dream * (04:23)
03. Love Is All * (04:20)
04. Fever Dreams * (04:53)
05. Rainbow In The Dark * (05:11)
06. Sometimes I Feel Like Screaming (07:13)
07. The Well-Dressed Guitar (03:20)
08. Wring That Neck (05:59)
09. When A Blind Man Cries (07:43)
10. Fools (10:13)
11. Perfect Strangers (06:40)

CD2

01. Concerto Movement 1 (19:31)
02. Concerto Movement 2 (19:17)
03. Concerto Movement 3 (14:45)
04. Pictures Of Home (10:29)
05. Smoke On The Water * (11:41)

The Band

• Jon Lord (keyboards)
• Steve Morse (guitar)
• Ian Paice (drums)
• Roger Glover (bass)
• Ian Gillan (vocals)
• Shin Nihon Philharmonic Select Orchestra conducted by Paul Mann
• Ronnie James Dio (vocals) * - special guest
• Big Horns Bee (brass trio)

X Lossless Decoder version 20160920 (149.2)

XLD extraction logfile from 2017-01-16 14:43:48 +0300

Deep Purple / The Soundboard Series - Tokyo 25th March 2001

Used drive : OPTIARC DVD RW AD-5630A (revision 2CH9)
Media type : Pressed CD

Ripper mode : XLD Secure Ripper
Disable audio cache : OK for the drive with a cache less than 1375KiB
Make use of C2 pointers : NO
Read offset correction : 48
Max retry count : 20
Gap status : Analyzed, Appended

TOC of the extracted CD
Track | Start | Length | Start sector | End sector
––––––––––––––––––––––––––––-
1 | 00:00:00 | 11:24:43 | 0 | 51342
2 | 11:24:43 | 04:23:01 | 51343 | 71068
3 | 15:47:44 | 04:19:38 | 71069 | 90531
4 | 20:07:07 | 04:52:56 | 90532 | 112487
5 | 24:59:63 | 05:10:65 | 112488 | 135802
6 | 30:10:53 | 07:13:07 | 135803 | 168284
7 | 37:23:60 | 03:20:23 | 168285 | 183307
8 | 40:44:08 | 05:58:53 | 183308 | 210210
9 | 46:42:61 | 07:42:62 | 210211 | 244922
10 | 54:25:48 | 10:12:41 | 244923 | 290863
11 | 64:38:14 | 06:40:28 | 290864 | 320891

AccurateRip Summary (DiscID: 001caea6-00f587c4-9b10b60b)
Track 01 : OK (v1+v2, confidence 14/14)
Track 02 : OK (v1+v2, confidence 14/14)
Track 03 : OK (v1+v2, confidence 14/14)
Track 04 : OK (v1+v2, confidence 14/14)
Track 05 : OK (v1+v2, confidence 14/14)
Track 06 : OK (v1+v2, confidence 14/14)
Track 07 : OK (v1+v2, confidence 14/14)
Track 08 : OK (v1+v2, confidence 14/14)
Track 09 : OK (v1+v2, confidence 14/14)
Track 10 : OK (v1+v2, confidence 14/14)
Track 11 : OK (v1+v2, confidence 14/14)
->All tracks accurately ripped.

All Tracks
Filename : /Users/dima/Documents/torrents/The Soundboard Series - Tokyo 25th March 2001.flac
CRC32 hash : 3AEE2695
CRC32 hash (skip zero) : 64BF0178
Statistics
Read error : 0
Jitter error (maybe fixed) : 0
Retry sector count : 10
Damaged sector count : 0

Track 01
Pre-gap length : 00:02:00

CRC32 hash : 1C7AF7AF
CRC32 hash (skip zero) : AB7EDD8A
AccurateRip v1 signature : B492B197
AccurateRip v2 signature : 5F28CDEB
->Accurately ripped (v1+v2, confidence 7+7/14)
Statistics
Read error : 0
Jitter error (maybe fixed) : 0
Retry sector count : 0
Damaged sector count : 0

Track 02

CRC32 hash : 53A3D3B0
CRC32 hash (skip zero) : 8494A533
AccurateRip v1 signature : 4BEEB8B8
AccurateRip v2 signature : 7F14BBBD
->Accurately ripped (v1+v2, confidence 7+7/14)
Statistics
Read error : 0
Jitter error (maybe fixed) : 0
Retry sector count : 0
Damaged sector count : 0

Track 03

CRC32 hash : 4CC15223
CRC32 hash (skip zero) : 6B228235
AccurateRip v1 signature : 6793E4BF
AccurateRip v2 signature : 4FB6BB62
->Accurately ripped (v1+v2, confidence 7+7/14)
Statistics
Read error : 0
Jitter error (maybe fixed) : 0
Retry sector count : 0
Damaged sector count : 0

Track 04

CRC32 hash : C8FE01F3
CRC32 hash (skip zero) : D08B25C5
AccurateRip v1 signature : 57E1FF1B
AccurateRip v2 signature : 8D3951B0
->Accurately ripped (v1+v2, confidence 7+7/14)
Statistics
Read error : 0
Jitter error (maybe fixed) : 0
Retry sector count : 0
Damaged sector count : 0

Track 05

CRC32 hash : AD977541
CRC32 hash (skip zero) : 1757D542
AccurateRip v1 signature : 8D51C377
AccurateRip v2 signature : 6130929C
->Accurately ripped (v1+v2, confidence 7+7/14)
Statistics
Read error : 0
Jitter error (maybe fixed) : 0
Retry sector count : 0
Damaged sector count : 0

Track 06

CRC32 hash : 994FB823
CRC32 hash (skip zero) : 101AF3A4
AccurateRip v1 signature : FE340B58
AccurateRip v2 signature : FB45046F
->Accurately ripped (v1+v2, confidence 7+7/14)
Statistics
Read error : 0
Jitter error (maybe fixed) : 0
Retry sector count : 0
Damaged sector count : 0

Track 07

CRC32 hash : AE6CF561
CRC32 hash (skip zero) : 73AE9126
AccurateRip v1 signature : C0AFA41B
AccurateRip v2 signature : 4D620CBC
->Accurately ripped (v1+v2, confidence 7+7/14)
Statistics
Read error : 0
Jitter error (maybe fixed) : 0
Retry sector count : 0
Damaged sector count : 0

Track 08

CRC32 hash : 5DF190C5
CRC32 hash (skip zero) : 90FFDC0D
AccurateRip v1 signature : C1D960E5
AccurateRip v2 signature : 31CF0632
->Accurately ripped (v1+v2, confidence 7+7/14)
Statistics
Read error : 0
Jitter error (maybe fixed) : 0
Retry sector count : 0
Damaged sector count : 0

Track 09

CRC32 hash : ED4262AA
CRC32 hash (skip zero) : 4C8F78B3
AccurateRip v1 signature : 8C35616F
AccurateRip v2 signature : 9860373E
->Accurately ripped (v1+v2, confidence 7+7/14)
Statistics
Read error : 0
Jitter error (maybe fixed) : 0
Retry sector count : 3
Damaged sector count : 0

Track 10

CRC32 hash : E15F8A77
CRC32 hash (skip zero) : A8CF191E
AccurateRip v1 signature : 72BBB4B2
AccurateRip v2 signature : 68D667ED
->Accurately ripped (v1+v2, confidence 7+7/14)
Statistics
Read error : 0
Jitter error (maybe fixed) : 0
Retry sector count : 7
Damaged sector count : 0

Track 11

CRC32 hash : FDAE820D
CRC32 hash (skip zero) : 04CDDEDF
AccurateRip v1 signature : 23B1E3B8
AccurateRip v2 signature : B7819EE6
->Accurately ripped (v1+v2, confidence 7+7/14)
Statistics
Read error : 0
Jitter error (maybe fixed) : 0
Retry sector count : 0
Damaged sector count : 0

No errors occurred

End of status report

X Lossless Decoder version 20160920 (149.2)

XLD extraction logfile from 2017-01-16 16:41:53 +0300

Deep Purple / Soundboard Series (Tokyo 2nd Night)

Used drive : OPTIARC DVD RW AD-5630A (revision 2CH9)
Media type : Pressed CD

Ripper mode : XLD Secure Ripper
Disable audio cache : OK for the drive with a cache less than 1375KiB
Make use of C2 pointers : NO
Read offset correction : 48
Max retry count : 20
Gap status : Analyzed, Appended

TOC of the extracted CD
Track | Start | Length | Start sector | End sector
––––––––––––––––––––––––––––-
1 | 00:00:00 | 19:31:02 | 0 | 87826
2 | 19:31:02 | 19:16:59 | 87827 | 174585
3 | 38:47:61 | 14:45:27 | 174586 | 240987
4 | 53:33:13 | 10:29:13 | 240988 | 288175
5 | 64:02:26 | 11:41:22 | 288176 | 340772

AccurateRip Summary (DiscID: 0011473e-004e90d3-3c11bf05)
Track 01 : OK (v1+v2, confidence 12/12)
Track 02 : OK (v1+v2, confidence 15/15)
Track 03 : OK (v1+v2, confidence 15/15)
Track 04 : OK (v1+v2, confidence 15/15)
Track 05 : OK (v1+v2, confidence 15/15)
->All tracks accurately ripped.

All Tracks
Filename : /Users/dima/Documents/torrents/Soundboard Series (Tokyo 2nd Night).flac
CRC32 hash : 2A9E8E8E
CRC32 hash (skip zero) : 205A06FB
Statistics
Read error : 0
Jitter error (maybe fixed) : 0
Retry sector count : 0
Damaged sector count : 0

Track 01
Pre-gap length : 00:02:00

CRC32 hash : 84C48790
CRC32 hash (skip zero) : 2A31B3BA
AccurateRip v1 signature : DD0494BC
AccurateRip v2 signature : 77F13476
->Accurately ripped (v1+v2, confidence 6+6/12)
Statistics
Read error : 0
Jitter error (maybe fixed) : 0
Retry sector count : 0
Damaged sector count : 0

Track 02

CRC32 hash : 71B70087
CRC32 hash (skip zero) : 59C48A0B
AccurateRip v1 signature : 14B1CCBD
AccurateRip v2 signature : D0D22386
->Accurately ripped (v1+v2, confidence 7+8/15)
Statistics
Read error : 0
Jitter error (maybe fixed) : 0
Retry sector count : 0
Damaged sector count : 0

Track 03

CRC32 hash : F12B890B
CRC32 hash (skip zero) : 4A571F48
AccurateRip v1 signature : DD2E6D28
AccurateRip v2 signature : B5D4E315
->Accurately ripped (v1+v2, confidence 7+8/15)
Statistics
Read error : 0
Jitter error (maybe fixed) : 0
Retry sector count : 0
Damaged sector count : 0

Track 04

CRC32 hash : 7F25B5B9
CRC32 hash (skip zero) : 1C590467
AccurateRip v1 signature : FAE048F7
AccurateRip v2 signature : 4FF532AC
->Accurately ripped (v1+v2, confidence 7+8/15)
Statistics
Read error : 0
Jitter error (maybe fixed) : 0
Retry sector count : 0
Damaged sector count : 0

Track 05

CRC32 hash : 273CA122
CRC32 hash (skip zero) : D5A5A92F
AccurateRip v1 signature : 6662B93B
AccurateRip v2 signature : 61ADD5B9
->Accurately ripped (v1+v2, confidence 7+8/15)
Statistics
Read error : 0
Jitter error (maybe fixed) : 0
Retry sector count : 0
Damaged sector count : 0

No errors occurred

End of status report


Deep Purple - The Soundboard Series: Australasian Tour 2001 (2001) 12 CD Box Set


Many thanks to the original uploader: amsterwhat


Black Sabbath 1996 The Best Of Black Sabbath 1970-1987 [Japanese Ed.]
Black Sabbath 2000 The Best Of Black Sabbath [2CD Set]
Black Sabbath 2013 13 [Deluxe 2CD Set]

Blackmore's Night 1997 Shadow Of The Moon [Japanese Ed.]
Blackmore's Night 2001 Fires At Midnight [Japanese Ed.]
Blackmore's Night 2002 Past Times With Good Company [Japanese Ed., 2CD]
Blackmore's Night 2003 Ghost Of A Rose [Japanese Ed.]
Blackmore's Night 2004 All For One ~The Finest Collection Of Blackmore's Night~ [Japanese Ed.]
Blackmore's Night 2006 The Village Lanterne [Japanese Ed.]
Blackmore's Night 2006 Winter Carols [Japanese Ed.]
Blackmore's Night 2008 Secret Voyage [Digipak]
Blackmore's Night 2012 A Knight In York [Japanese Ed.]
Blackmore's Night 2013 Dancer And The Moon [Deluxe Ed. CD+DVD Combo - Digipack]
Blackmore's Night 2015 All Our Yesterdays [Japan SHM-CD]

The Company Of Snakes 2001 Here They Go Again [2CD]

Deep Purple 1980 New, Live And Rare [Japan 1st Press, 1989]
Deep Purple 1991 Knocking At Your Back Door: The Best Of Deep Purple In The 80's
Deep Purple 1999 Shades 1968-1998 [Japanese Ed.] 4CD Box Set
Deep Purple 2005 Rapture Of The Deep
Deep Purple 2008 Around The World Live [4xDVD Box Set]
Deep Purple 2009 History, Hits & Highlights '68-'76 [2xDVD]
Deep Purple 2013 Now What?! [Limited Ed., CD+DVD]

Don Airey 1988 K2 - Tales Of Triumph And Tragedy

Empire 2001 Hypnotica [Japanese Ed. 2002]
Empire 2003 Trading Souls
Empire 2006 The Raven Ride [Japanese Ed.]
Empire 2007 Chasing Shadows [Japanese Ed.]

Gillan & Glover 1988 Accidentally On Purpose [Japan (mini LP) CD, 2007]
Gillian Glover 2007 Red Handed

Ian Gillan 1986 What I Did On My Vacation
Ian Gillan 1990 Naked Thunder [Japan (mini-LP) CD, 2007]
Ian Gillan 1991 Toolbox [Japan (mini-LP) CD, 2007]

Jon Lord 2012 Concerto For Group And Orchestra
Jon Lord 2012 Concerto For Group And Orchestra [DVD 5.1]

Living Loud 2004 Debut Live Concert - Sydney Fox Studios 2004 [DVD]

M3 2005 Rough An' Ready [DVD]
M3 2006 Classic Snake Live [Japanese Ed.] 2CD

Rainbow 1975 Ritchie Blackmore's Rainbow [Japan LTD (mini LP) Platinum SHM-CD 2014]
Rainbow 1979 Down To Earth [Japan 1st Press, 1986]
Rainbow 1981 Difficult To Cure [Japan LTD (mini LP) Platinum SHM-CD 2013]
Rainbow 1981 The Best Of Rainbow [Japanese Ed. 1993, 2CD]
Rainbow 1991 Live In Germany 1976 [Japan Press, 2CD]

Ritchie Blackmore's Rainbow 2013 Black Masquerade [2CD]

Rock Aid Armenia 2010 Smoke On The Water: The Metropolis Sessions [CD+DVD]

Roger Glover And The Guilty Party 2002 Snapshot
Roger Glover And The Guilty Party 2011 If Life Was Easy

Seventh Key 2001 Seventh Key
Seventh Key 2004 The Raging Fire [Japanese Ed.]
Seventh Key 2005 Live In Atlanta
Seventh Key 2013 I Will Survive
Seventh Key 2013 I Will Survive [Japanese Ed. 2014]

The Snakes 1998 Once Bitten… [Japan 1st Press]
The Snakes 1998 Live In Europe [Japan 1st Press]

Tommy Bolin And Friends 2012 Great Gypsy Soul [Deluxe 2CD Collector Edition]

Tony Ashton And Friends 2009 Endangered Species - Live At Abbey Road [2CD+DVD]