Subcategories

Deeper Sublime - Ibiza Balearic Session Vol. 1 (2009)

Posted By: gribovar
Deeper Sublime - Ibiza Balearic Session Vol. 1 (2009)

Deeper Sublime - Ibiza Balearic Session Vol. 1 (2009)
EAC Rip | FLAC (image+.cue+log) - 480 MB | MP3 CBR 320 kbps (LAME 3.93) - 176 MB | Covers - 21 MB
Genre: Chillout, Downtempo | RAR 3% Rec. | Label: Audio Lotion (LOTION026)

Eriq Johnson, a producer, a DJ, a label owner, began making music in 1995. His first musical compositions written for theatre plays gained popularity and recognition at the music festivals in Avignon and Berlin. For a long time he had occupied himself with writing music for television and radio advertisements. Since 2000 he has been working increasingly as a DJ and performed in almost all countries of the European continent, including Russia and Malta. Eric Johnson shows different facets of his talent being very succesful in various music genres such as electro, house, techno and lounge.
In 2008 Eriq initiated a music project Deeper Sublime which reflects his passion for Chillout music. The project involves Eric Johnson's collaboration with such renowned artists as Marga Sol, Matisse, MoVoX etc. The debut album of Deeper Sublime will also include the cover versions of such famous tracks as Merry Christmas Mr. Lawrence and Chariots of Fire.
Tracklist:
01. Deeper Sublime & Eriq Johnson - Femme Fatale
02. Deeper Sublime feat. Natalie Aprille - Radio Chill
03. Deeper Sublime & Krapan - La Musica Sei Tu
04. Deeper Sublime & Eriq Johnson - Ballerina Girl
05. Matisse & Deeper Sublime - Sea Dreams
06. Small NY
07. Katbert & Deeper Sublime - Sea
08. Deeper Sublime & Krapan – Je T'aime
09. Deeper Sublime & Eriq Johnson - Out of your mind
10. Attention France
11. Orange Sky
12. Deeper Sublime feat. Natalie Aprille - Night Breeze
13. Deeper Sublime & Eriq Johnson - Merry Christmas Mr. Lawrence (Bonus Track)

Total time: 01:14:59

Exact Audio Copy V0.99 prebeta 4 from 23. January 2008

EAC extraction logfile from 9. June 2010, 15:50

Deeper Sublime pres. / Ibiza Balearic Session Vol.1

Used drive : PIONEER DVD-RW DVR-112D Adapter: 1 ID: 0

Read mode : Secure
Utilize accurate stream : Yes
Defeat audio cache : Yes
Make use of C2 pointers : No

Read offset correction : 48
Overread into Lead-In and Lead-Out : No
Fill up missing offset samples with silence : Yes
Delete leading and trailing silent blocks : No
Null samples used in CRC calculations : Yes
Used interface : Installed external ASPI interface

Used output format : User Defined Encoder
Selected bitrate : 192 kBit/s
Quality : Low
Add ID3 tag : Yes
Command line compressor : C:\Program Files\E A C Audio\Flac\flac.exe
Additional command line options : -8 -V %s


TOC of the extracted CD

Track | Start | Length | Start sector | End sector
––––––––––––––––––––––––––––-
1 | 0:00.00 | 5:38.00 | 0 | 25349
2 | 5:38.00 | 6:27.53 | 25350 | 54427
3 | 12:05.53 | 5:59.33 | 54428 | 81385
4 | 18:05.11 | 3:57.35 | 81386 | 99195
5 | 22:02.46 | 5:23.42 | 99196 | 123462
6 | 27:26.13 | 8:08.50 | 123463 | 160112
7 | 35:34.63 | 5:16.00 | 160113 | 183812
8 | 40:50.63 | 5:44.64 | 183813 | 209676
9 | 46:35.52 | 4:46.55 | 209677 | 231181
10 | 51:22.32 | 6:40.37 | 231182 | 261218
11 | 58:02.69 | 5:38.08 | 261219 | 286576
12 | 63:41.02 | 6:32.45 | 286577 | 316021
13 | 70:13.47 | 4:45.64 | 316022 | 337460


Range status and errors

Selected range

Filename E:\tvixhd1\Deeper Sublime pres. - Ibiza Balearic Session Vol.1\Deeper Sublime pres. - Ibiza Balearic Session Vol.1.wav

Peak level 95.3 %
Range quality 99.9 %
Test CRC 79991A23
Copy CRC 79991A23
Copy OK

No errors occurred


AccurateRip summary

Track 1 not present in database
Track 2 not present in database
Track 3 not present in database
Track 4 not present in database
Track 5 not present in database
Track 6 not present in database
Track 7 not present in database
Track 8 not present in database
Track 9 not present in database
Track 10 not present in database
Track 11 not present in database
Track 12 not present in database
Track 13 not present in database

None of the tracks are present in the AccurateRip database

End of status report

[CUETools log; Date: 11.10.2017 11:44:36; Version: 2.1.4]
[CTDB TOCID: 0SU_5QU0iSTEFqXhz23hW4dHuRI-] disk not present in database.
[AccurateRip ID: 0024295f-0169cf50-b611930d] disk not present in database.

Track Peak [ CRC32 ] [W/O NULL] [ LOG ]
– 95,3 [79991A23] [B5AB52B5] CRC32
01 94,4 [5A34E278] [EB5348D0]
02 93,7 [B5DE717E] [0449600F]
03 93,7 [9FB93A11] [0D35424D]
04 93,7 [65D04484] [BAF80761]
05 95,3 [D430DFD7] [89427AA9]
06 93,7 [C83427C4] [37BCC9A2]
07 93,7 [FD29613E] [CC97E358]
08 93,7 [50ED826A] [0654A2CC]
09 93,7 [262B8CA4] [353E48AB]
10 94,9 [1DF6888F] [0DC52B78]
11 93,7 [651C53BB] [100C4511]
12 93,7 [E1A01307] [04CE1904]
13 93,5 [26E64116] [81CC3D79]

Thanks to Sklon