Subcategories

Def Leppard - Retro Active (1993) [Japan SHM-CD, 2008]

Posted By: Andi_Deris
Def Leppard - Retro Active (1993) [Japan SHM-CD, 2008]

Def Leppard - Retro Active (1993) [Japan SHM-CD, 2008]
EAC Rip | FLAC: Image+Cue+Log | 451 | MP3 CBR 320 kbps | 165 | Scans | 137 | Time: 01:00:38
Hard Rock, Arena Rock, Pop-Metal | Universal Music K.K. | UICY-91102

Retro Active is an album by English hard rock band Def Leppard, released in 1993. The album features touched-up versions of B-sides and previously unreleased recordings from the band's recording sessions between 1984 and 1993. The album charted at number 9 on the Billboard 200 and No. 6 on the UK Albums Chart. USA - Platinum, Canada-Platinum.

Def Leppard - Retro Active (1993) [Japan SHM-CD, 2008]




Def Leppard - Retro Active (1993) [Japan SHM-CD, 2008]


Track Listing

01. Desert Song (05:20)
02. Fractured Love (05:08)
03. Action (03:40)
04. Two Steps Behind (Acoustic Version) (04:17)
05. She's Too Tough (03:40)
06. Miss You In A Heartbeat (04:04)
07. Only After Dark (03:52)
08. Ride Into The Sun (03:12)
09. From The Inside (04:16)
10. Ring Of Fire (04:42)
11. I Wanna Be Your Hero (04:30)
12. Miss You In A Heartbeat (Electric Version) (04:56)
13. Two Steps Behind (Electric Version) (04:51)
hidden track
14. Miss You In A Heartbeat (Piano Version) (04:09)

Produced by Def Leppard

The Band

• Rick Allen - drums
• Vivian Campbell - electric guitars, acoustic guitars, backing vocals
• Steve Clark - electric guitars
• Phil Collen - electric guitars, acoustic guitars, backing vocals
• Joe Elliott - lead vocals, backing vocals, rhythm guitar, piano, jungle orchestra on "Fractured Love"
• Rick Savage - bass guitar, keyboards, backing vocals

• Ian Hunter - honky tonk messiah on "Ride into the Sun"
• Michael Kamen - string arrangement on "Two Steps Behind" (Acoustic Version)
• Robert John "Mutt" Lange - backing vocals
• Fiachna Ó Braonáin - tin whistle on "From the Inside"
• Liam Ó Maonlaí - grand piano on "From the Inside"
• Peter O'Toole - mandolin on "From the Inside"
• P.J. Smith - backing vocals on "Action"
• Pete Woodroffe - piano on "Miss You in a Heartbeat"

Notes

Release date: 10.8.2008

The first compilation/B Sides album released by the band. The album was intended to 'tie up' the Steve Clark era of the band before the first studio album with Vivian Campbell. Vivian contributed to some of the songs with guitar overdubs, vibraphone and background vocals. It featured finished off old songs and re-recorded/re-worked versions of previously released B-Sides from Hysteria/Adrenalize. Various alternate versions were included with a bonus third version of 'Miss You In A Heartbeat' at the end.

Exact Audio Copy V1.0 beta 3 from 29. August 2011

EAC extraction logfile from 13. February 2013, 20:40

Def Leppard / Retro Active

Used drive : Optiarc BD RW BD-5300S Adapter: 3 ID: 0

Read mode : Secure
Utilize accurate stream : Yes
Defeat audio cache : Yes
Make use of C2 pointers : No

Read offset correction : 6
Overread into Lead-In and Lead-Out : No
Fill up missing offset samples with silence : Yes
Delete leading and trailing silent blocks : No
Null samples used in CRC calculations : Yes
Used interface : Installed external ASPI interface

Used output format : User Defined Encoder
Selected bitrate : 1024 kBit/s
Quality : High
Add ID3 tag : No
Command line compressor : C:\Program Files (x86)\Exact Audio Copy\Flac\flac.exe
Additional command line options : -8 -V -T "Date=%year%" -T "Genre=%genre%" -T "COMMENT=ripped by bvstudio®" %source%


TOC of the extracted CD

Track | Start | Length | Start sector | End sector
––––––––––––––––––––––––––––-
1 | 0:00.00 | 5:19.68 | 0 | 23992
2 | 5:19.68 | 5:07.60 | 23993 | 47077
3 | 10:27.53 | 3:40.30 | 47078 | 63607
4 | 14:08.08 | 4:16.45 | 63608 | 82852
5 | 18:24.53 | 3:40.25 | 82853 | 99377
6 | 22:05.03 | 4:04.22 | 99378 | 117699
7 | 26:09.25 | 3:52.20 | 117700 | 135119
8 | 30:01.45 | 3:11.55 | 135120 | 149499
9 | 33:13.25 | 4:16.20 | 149500 | 168719
10 | 37:29.45 | 4:41.45 | 168720 | 189839
11 | 42:11.15 | 4:29.48 | 189840 | 210062
12 | 46:40.63 | 4:56.07 | 210063 | 232269
13 | 51:36.70 | 4:51.13 | 232270 | 254107
14 | 56:28.08 | 4:08.65 | 254108 | 272772


Range status and errors

Selected range

Filename F:\Def Leppard\1993 - Retro Active (Japan)\Def Leppard - Retro Active.wav

Peak level 100.0 %
Extraction speed 7.3 X
Range quality 100.0 %
Test CRC D197D0D3
Copy CRC D197D0D3
Copy OK

No errors occurred


AccurateRip summary

Track 1 accurately ripped (confidence 2) [862EDE97] (AR v2)
Track 2 accurately ripped (confidence 2) [A6685752] (AR v2)
Track 3 accurately ripped (confidence 2) [0724D260] (AR v2)
Track 4 accurately ripped (confidence 2) [9EC9B15F] (AR v2)
Track 5 accurately ripped (confidence 2) [8A6E33A6] (AR v2)
Track 6 accurately ripped (confidence 2) [4B8DEC59] (AR v2)
Track 7 accurately ripped (confidence 2) [035FA466] (AR v2)
Track 8 accurately ripped (confidence 2) [4D6B8DAA] (AR v2)
Track 9 accurately ripped (confidence 2) [236AC48C] (AR v2)
Track 10 accurately ripped (confidence 2) [BE3F2AAD] (AR v2)
Track 11 accurately ripped (confidence 2) [D6C81A4E] (AR v2)
Track 12 accurately ripped (confidence 2) [40A6D827] (AR v2)
Track 13 accurately ripped (confidence 2) [82B1426E] (AR v2)
Track 14 accurately ripped (confidence 2) [B9AE4CB6] (AR v2)

All tracks accurately ripped

End of status report

–– CUETools DB Plugin V2.1.4

[CTDB TOCID: dgVKIaarZoEYhpFsO9HDgV9EGUA-] found
Submit result: dgVKIaarZoEYhpFsO9HDgV9EGUA- has been confirmed
Track | CTDB Status
1 | (1/1) Accurately ripped
2 | (1/1) Accurately ripped
3 | (1/1) Accurately ripped
4 | (1/1) Accurately ripped
5 | (1/1) Accurately ripped
6 | (1/1) Accurately ripped
7 | (1/1) Accurately ripped
8 | (1/1) Accurately ripped
9 | (1/1) Accurately ripped
10 | (1/1) Accurately ripped
11 | (1/1) Accurately ripped
12 | (1/1) Accurately ripped
13 | (1/1) Accurately ripped
14 | (1/1) Accurately ripped


==== Log checksum 650B69576452693B80C8D29B4E63C1633A1988871FEFF0F00820AE8AB5711AED ====


Many thanks to the original uploader: bvstudio

SEE also:
Def Leppard 1981 High 'n' Dry [Japanese Ed. 1994]
Def Leppard 1983 Pyromania [Japanese Ed. 1990]
Def Leppard 1987 Hysteria [2CD Deluxe Ed. 2006]

Grand Design 2009 Time Elevation
Grand Design 2011 Idolizer
Grand Design 2014 Thrill Of The Night
Grand Design 2014 Thrill Of The Night [Japanese Ed.]
–––––––––
Nitroflare