Del Shannon - Little Town Flirt & Handy Man (1963 & 1964)

Posted By: uff
Del Shannon - Little Town Flirt & Handy Man (1963 & 1964)

Del Shannon - Little Town Flirt & Handy Man (1963 & 1964)
Rock | 2lp on cd | EAC Rip | Flac + Cue + Log | covers
BGO, BGOCD388 | rel: 1998 | 385Mb

Del Shannon's second and third albums appear (after a fashion) together on this Beat Goes On reissue. Actually, what Beat Goes On has re-created is the song lineup of the U.K. version of the Little Town Flirt album, which is a plus, as it contains several songs – including "Runaway" – that were repeated from earlier releases on the U.S. version. In either configuration, Little Town Flirt was one of the better rock & roll LPs of its period and holds up well. Shannon and his producers probably thought they were playing it safe by loading the record up with a fair number of covers, including "Dream Baby" and "Runaround Sue"; they never dreamt that one of his other covers from early 1963, of the Beatles' "From Me to You," would have put him for a moment on the cutting edge of music in England (where the record wasn't issued until later) as well as in front of the leading edge by almost a year in America. That track doesn't eclipse so much as augment the value of the originals, which are mostly the work of Shannon and a composer named Robby McKenzie and are solid early-'60s rock & roll, mostly produced with a Brill Building pop edge provided by the presence of a girl chorus. "Two Kinds of Teardrops," "Little Town Flirt," and the Beatles cover have reappeared on various anthologies, but even the poorest of these tracks are worth hearing, and the album has as much value as any contemporary work by the Beach Boys and the Everly Brothers. Handy Man, released a year later, is the better album of the two, featuring Shannon's harder-rocking persona covering Chuck Berry ("Memphis"), Leiber & Stoller ("Ruby Baby"), Lennon and McCartney ("World Without Love"), Roy Orbison ("Crying"), and the Isley Brothers ("Twist and Shout"). All songs are here in their stereo versions, which allows one to pick out the instruments in close-up if that's where one's interest lies, but are digitized so well that there's no loss of impact either.~Allmusic

Track listing
01. Two Kinds Of Teardrops (2:31)
02. Dream Baby (2:32)
03. Happiness (2:22)
04. Two Silhouettes (2:17)
05. She Thinks I Still Care (2:43)
06. My Wild One (2:00)
07. Runaround Sue (2:38)
08. From Me To You (1:54)
09. Kelly (2:36)
10. Hey Baby (2:25)
11. Go Away Little Girl (2:19)
12. Little Town Flirt (2:48)

13. Memphis (2:35)
14. That's The Way Love Is (2:25)
15. Ruby Baby (2:18)
16. I'll Be Lonely Tomorrow (2:11)
17. I Can't Fool Around Anymore (2:21)
18. Handy Man (2:13)
19. Crying (2:40)
20. Mary Jane (2:26)
21. World Without Love (2:45)
22. Sorry (I Ran All The Way Home) (1:51)
23. Give Her Lots Of Loving (2:04)
24. Twist And Shout (2:38)


Exact Audio Copy V0.99 prebeta 4 from 23. January 2008

Отчёт EAC об извлечении, выполненном 25. марта 2010, 18:09

Del Shannon / Little Town Flirt/Handy Man

Дисковод: HL-DT-STDVDRAM GSA-E40N Adapter: 1 ID: 0

Режим чтения : Достоверность
Использование точного потока : Да
Отключение кэша аудио : Да
Использование указателей C2 : Нет

Коррекция смещения при чтении : 667
Способность читать области Lead-in и Lead-out : Нет
Заполнение пропущенных сэмплов тишиной : Да
Удаление блоков с тишиной в начале и конце : Нет
При вычислениях CRC использовались нулевые сэмплы : Да
Интерфейс : Установленный внешний ASPI-интерфейс
Обработка зазоров : Добавлено к предыдущему треку

Выходной формат : Пользовательский кодировщик
Выбранный битрейт : 768 kBit/s
Качество : Высокий
Добавление ID3-тэга : Нет
Утилита сжатия : C:\Program Files\Exact Audio Copy\FLAC\FLAC.EXE
Дополнительные параметры : -6 -V -T "ARTIST=%a" -T "TITLE=%t" -T "ALBUM=%g" -T "DATE=%y" -T "TRACKNUMBER=%n" -T "GENRE=%m" -T "COMMENT=%e" %s -o %d


TOC извлечённого CD

Трек | Старт | Длительность | Начальный сектор | Конечный сектор
––––––––––––––––––––––––––––––––––-
1 | 0:00.00 | 2:33.47 | 0 | 11521
2 | 2:33.47 | 2:35.00 | 11522 | 23146
3 | 5:08.47 | 2:24.58 | 23147 | 34004
4 | 7:33.30 | 2:20.05 | 34005 | 44509
5 | 9:53.35 | 2:46.12 | 44510 | 56971
6 | 12:39.47 | 2:02.68 | 56972 | 66189
7 | 14:42.40 | 2:39.22 | 66190 | 78136
8 | 17:21.62 | 1:57.03 | 78137 | 86914
9 | 19:18.65 | 2:38.30 | 86915 | 98794
10 | 21:57.20 | 2:27.30 | 98795 | 109849
11 | 24:24.50 | 2:20.70 | 109850 | 120419
12 | 26:45.45 | 2:50.25 | 120420 | 133194
13 | 29:35.70 | 2:37.65 | 133195 | 145034
14 | 32:13.60 | 2:27.45 | 145035 | 156104
15 | 34:41.30 | 2:20.52 | 156105 | 166656
16 | 37:02.07 | 2:13.68 | 166657 | 176699
17 | 39:16.00 | 2:23.30 | 176700 | 187454
18 | 41:39.30 | 2:14.65 | 187455 | 197569
19 | 43:54.20 | 2:42.70 | 197570 | 209789
20 | 46:37.15 | 2:28.62 | 209790 | 220951
21 | 49:06.02 | 2:47.40 | 220952 | 233516
22 | 51:53.42 | 1:52.30 | 233517 | 241946
23 | 53:45.72 | 2:06.50 | 241947 | 251446
24 | 55:52.47 | 2:38.60 | 251447 | 263356


Трек 1

Имя файла H:\Торрент_\Del Shannon - Albums lossless\1963 - Little Town Flirt & Handy Man\01 - Two Kinds Of Teardrops.wav

Длина предзазора 0:00:02.00

Пиковый уровень 98.8 %
Качество трека 100.0 %
CRC теста 87258F46
CRC копии 87258F46
Копирование… OK

Трек 2

Имя файла H:\Торрент_\Del Shannon - Albums lossless\1963 - Little Town Flirt & Handy Man\02 - Dream Baby.wav

Длина предзазора 0:00:02.62

Пиковый уровень 98.8 %
Качество трека 100.0 %
CRC теста 39F76D75
CRC копии 39F76D75
Копирование… OK

Трек 3

Имя файла H:\Торрент_\Del Shannon - Albums lossless\1963 - Little Town Flirt & Handy Man\03 - Happiness.wav

Длина предзазора 0:00:02.46

Пиковый уровень 98.8 %
Качество трека 99.9 %
CRC теста 3C22C877
CRC копии 3C22C877
Копирование… OK

Трек 4

Имя файла H:\Торрент_\Del Shannon - Albums lossless\1963 - Little Town Flirt & Handy Man\04 - Two Silhouettes.wav

Длина предзазора 0:00:02.46

Пиковый уровень 98.8 %
Качество трека 100.0 %
CRC теста 4CEC11A4
CRC копии 4CEC11A4
Копирование… OK

Трек 5

Имя файла H:\Торрент_\Del Shannon - Albums lossless\1963 - Little Town Flirt & Handy Man\05 - She Thinks I Still Care.wav

Длина предзазора 0:00:02.37

Пиковый уровень 98.8 %
Качество трека 100.0 %
CRC теста 7AE6CE19
CRC копии 7AE6CE19
Копирование… OK

Трек 6

Имя файла H:\Торрент_\Del Shannon - Albums lossless\1963 - Little Town Flirt & Handy Man\06 - My Wild One.wav

Длина предзазора 0:00:02.42

Пиковый уровень 98.8 %
Качество трека 100.0 %
CRC теста BEE10560
CRC копии BEE10560
Копирование… OK

Трек 7

Имя файла H:\Торрент_\Del Shannon - Albums lossless\1963 - Little Town Flirt & Handy Man\07 - Runaround Sue.wav

Длина предзазора 0:00:02.26

Пиковый уровень 98.8 %
Качество трека 100.0 %
CRC теста 3489E323
CRC копии 3489E323
Копирование… OK

Трек 8

Имя файла H:\Торрент_\Del Shannon - Albums lossless\1963 - Little Town Flirt & Handy Man\08 - From Me To You.wav

Длина предзазора 0:00:01.16

Пиковый уровень 88.0 %
Качество трека 100.0 %
CRC теста 5364CB20
CRC копии 5364CB20
Копирование… OK

Трек 9

Имя файла H:\Торрент_\Del Shannon - Albums lossless\1963 - Little Town Flirt & Handy Man\09 - Kelly.wav

Длина предзазора 0:00:02.14

Пиковый уровень 98.8 %
Качество трека 99.9 %
CRC теста D8762D15
CRC копии D8762D15
Копирование… OK

Трек 10

Имя файла H:\Торрент_\Del Shannon - Albums lossless\1963 - Little Town Flirt & Handy Man\10 - Hey Baby.wav

Длина предзазора 0:00:01.97

Пиковый уровень 98.8 %
Качество трека 99.9 %
CRC теста C8F78895
CRC копии C8F78895
Копирование… OK

Трек 11

Имя файла H:\Торрент_\Del Shannon - Albums lossless\1963 - Little Town Flirt & Handy Man\11 - Go Away Little Girl.wav

Длина предзазора 0:00:02.04

Пиковый уровень 98.8 %
Качество трека 100.0 %
CRC теста 15555A2D
CRC копии 15555A2D
Копирование… OK

Трек 12

Имя файла H:\Торрент_\Del Shannon - Albums lossless\1963 - Little Town Flirt & Handy Man\12 - Little Town Flirt.wav

Длина предзазора 0:00:01.73

Пиковый уровень 98.8 %
Качество трека 99.9 %
CRC теста D7CA4E91
CRC копии D7CA4E91
Копирование… OK

Трек 13

Имя файла H:\Торрент_\Del Shannon - Albums lossless\1963 - Little Town Flirt & Handy Man\13 - Memphis.wav

Длина предзазора 0:00:02.04

Пиковый уровень 98.8 %
Качество трека 100.0 %
CRC теста 3A06B5DA
CRC копии 3A06B5DA
Копирование… OK

Трек 14

Имя файла H:\Торрент_\Del Shannon - Albums lossless\1963 - Little Town Flirt & Handy Man\14 - That's The Way Love Is.wav

Длина предзазора 0:00:02.64

Пиковый уровень 98.8 %
Качество трека 100.0 %
CRC теста 74D10E4C
CRC копии 74D10E4C
Копирование… OK

Трек 15

Имя файла H:\Торрент_\Del Shannon - Albums lossless\1963 - Little Town Flirt & Handy Man\15 - Ruby Baby.wav

Длина предзазора 0:00:02.30

Пиковый уровень 98.8 %
Качество трека 100.0 %
CRC теста 8BBA994F
CRC копии 8BBA994F
Копирование… OK

Трек 16

Имя файла H:\Торрент_\Del Shannon - Albums lossless\1963 - Little Town Flirt & Handy Man\16 - I'll Be Lonely Tomorrow.wav

Длина предзазора 0:00:02.29

Пиковый уровень 98.8 %
Качество трека 100.0 %
CRC теста 27A21CB3
CRC копии 27A21CB3
Копирование… OK

Трек 17

Имя файла H:\Торрент_\Del Shannon - Albums lossless\1963 - Little Town Flirt & Handy Man\17 - I Can't Fool Around Anymore.wav

Длина предзазора 0:00:02.24

Пиковый уровень 98.8 %
Качество трека 100.0 %
CRC теста 42121397
CRC копии 42121397
Копирование… OK

Трек 18

Имя файла H:\Торрент_\Del Shannon - Albums lossless\1963 - Little Town Flirt & Handy Man\18 - Handy Man.wav

Длина предзазора 0:00:02.04

Пиковый уровень 98.8 %
Качество трека 100.0 %
CRC теста 878F924B
CRC копии 878F924B
Копирование… OK

Трек 19

Имя файла H:\Торрент_\Del Shannon - Albums lossless\1963 - Little Town Flirt & Handy Man\19 - Crying.wav

Длина предзазора 0:00:01.84

Пиковый уровень 98.8 %
Качество трека 100.0 %
CRC теста 88EB96EA
CRC копии 88EB96EA
Копирование… OK

Трек 20

Имя файла H:\Торрент_\Del Shannon - Albums lossless\1963 - Little Town Flirt & Handy Man\20 - Mary Jane.wav

Длина предзазора 0:00:02.46

Пиковый уровень 98.8 %
Качество трека 100.0 %
CRC теста 725AA4D9
CRC копии 725AA4D9
Копирование… OK

Трек 21

Имя файла H:\Торрент_\Del Shannon - Albums lossless\1963 - Little Town Flirt & Handy Man\21 - World Without Love.wav

Длина предзазора 0:00:01.86

Пиковый уровень 98.8 %
Качество трека 100.0 %
CRC теста BDB00700
CRC копии BDB00700
Копирование… OK

Трек 22

Имя файла H:\Торрент_\Del Shannon - Albums lossless\1963 - Little Town Flirt & Handy Man\22 - Sorry (I Ran All The Way Home).wav

Длина предзазора 0:00:02.02

Пиковый уровень 98.8 %
Качество трека 100.0 %
CRC теста 7F2CA675
CRC копии 7F2CA675
Копирование… OK

Трек 23

Имя файла H:\Торрент_\Del Shannon - Albums lossless\1963 - Little Town Flirt & Handy Man\23 - Give Her Lots Of Loving.wav

Длина предзазора 0:00:01.33

Пиковый уровень 98.8 %
Качество трека 100.0 %
CRC теста 80668B9D
CRC копии 80668B9D
Копирование… OK

Трек 24

Имя файла H:\Торрент_\Del Shannon - Albums lossless\1963 - Little Town Flirt & Handy Man\24 - Twist And Shout.wav

Длина предзазора 0:00:01.82

Пиковый уровень 98.8 %
Качество трека 100.0 %
CRC теста 63BF2D4B
CRC копии 63BF2D4B
Копирование… OK

Ошибок не произошло

Конец отчёта




[CUETools log; Date: 2016. 12. 14. 19:05:44; Version: 2.1.6]
[CTDB TOCID: swtcXMyMzfej5nykPtzznfTs4b4-] found.
Track | CTDB Status
1 | (3/3) Accurately ripped
2 | (3/3) Accurately ripped
3 | (3/3) Accurately ripped
4 | (3/3) Accurately ripped
5 | (3/3) Accurately ripped
6 | (3/3) Accurately ripped
7 | (3/3) Accurately ripped
8 | (3/3) Accurately ripped
9 | (3/3) Accurately ripped
10 | (3/3) Accurately ripped
11 | (3/3) Accurately ripped
12 | (3/3) Accurately ripped
13 | (3/3) Accurately ripped
14 | (3/3) Accurately ripped
15 | (3/3) Accurately ripped
16 | (3/3) Accurately ripped
17 | (3/3) Accurately ripped
18 | (3/3) Accurately ripped
19 | (3/3) Accurately ripped
20 | (3/3) Accurately ripped
21 | (3/3) Accurately ripped
22 | (3/3) Accurately ripped
23 | (3/3) Accurately ripped
24 | (3/3) Accurately ripped
[AccurateRip ID: 0032920e-036b4c41-550db718] found.
Track [ CRC | V2 ] Status
01 [62a6f666|3b4085a5] (3+2/5) Accurately ripped
02 [3c139b26|cf6794a8] (3+2/5) Accurately ripped
03 [b9b86422|6bad4426] (3+2/5) Accurately ripped
04 [189250e3|3c84d317] (3+2/5) Accurately ripped
05 [118ec087|fae58e8e] (3+2/5) Accurately ripped
06 [bcfc891c|e335613d] (3+2/5) Accurately ripped
07 [fb1ac802|57c486ae] (3+2/5) Accurately ripped
08 [e87924b9|3d6c7a1c] (3+2/5) Accurately ripped
09 [a9c0f4b2|2c893691] (3+2/5) Accurately ripped
10 [66de0c8f|5db6b56c] (3+2/5) Accurately ripped
11 [02e98c65|adfdabbf] (3+2/5) Accurately ripped
12 [6e22f1b6|82aac136] (3+2/5) Accurately ripped
13 [f3ff0511|4eb485e0] (3+2/5) Accurately ripped
14 [65e859d3|75da4e45] (3+2/5) Accurately ripped
15 [34dbf8eb|43678693] (3+2/5) Accurately ripped
16 [73d286e1|563327ff] (3+2/5) Accurately ripped
17 [298bbce3|279b9365] (3+2/5) Accurately ripped
18 [df322e67|1bc48131] (3+2/5) Accurately ripped
19 [cdd79670|e33c35ed] (3+2/5) Accurately ripped
20 [9d29d15b|4b8c8bd3] (3+2/5) Accurately ripped
21 [89411c15|bc2dd059] (3+2/5) Accurately ripped
22 [83d6deb1|250769cf] (3+2/5) Accurately ripped
23 [e7f5f924|b4dfeefa] (3+2/5) Accurately ripped
24 [99f9845a|242b2aa9] (3+2/5) Accurately ripped

Track Peak [ CRC32 ] [W/O NULL]
– 98,8 [91B95E0C] [8CA033D2]
01 98,8 [87258F46] [FBC64143]
02 98,8 [39F76D75] [C45C8D8E]
03 98,8 [3C22C877] [D218CE6D]
04 98,8 [4CEC11A4] [FCB92FFC]
05 98,8 [7AE6CE19] [4877FC48]
06 98,8 [BEE10560] [DDDA2EFC]
07 98,8 [3489E323] [71B177A0]
08 88,0 [5364CB20] [818809B6]
09 98,8 [D8762D15] [37EA506A]
10 98,8 [C8F78895] [8B127AF2]
11 98,8 [15555A2D] [D5D81544]
12 98,8 [D7CA4E91] [6C427ABE]
13 98,8 [3A06B5DA] [BCDF84DE]
14 98,8 [74D10E4C] [3FC630F5]
15 98,8 [8BBA994F] [B88F306C]
16 98,8 [27A21CB3] [60E0C302]
17 98,8 [42121397] [8D013ED5]
18 98,8 [878F924B] [E99BCD29]
19 98,8 [88EB96EA] [682349FB]
20 98,8 [725AA4D9] [960FB782]
21 98,8 [BDB00700] [03A85BAA]
22 98,8 [7F2CA675] [FACC56E9]
23 98,8 [80668B9D] [6B1B7B8D]
24 98,8 [63BF2D4B] [1273F2E8]


Thx to goldenday
Bigfile
Filefactory

password: asd