Del Shannon - Rock On! (1991) [2007, Reissue]

Posted By: popsakov
Del Shannon - Rock On! (1991) [2007, Reissue]

Del Shannon - Rock On! (1991/2007)
EAC Rip | FLAC (Img) + Cue + Log ~ 382 Mb | MP3 CBR320 ~ 142 Mb
Scans Included (JPG, 600 dpi) | RAR 5% Recovery
Pop/Soft Rock | AcadiA #ACAM 8147

Rock On! is the 12th studio album by American rock singer Del Shannon, released posthumously in 1991. Shannon returned to the studio after a long hiatus in 1990, collaborating with Jeff Lynne of the Electric Light Orchestra, Mike Campbell, Tom Petty, other members of Tom Petty and the Heartbreakers, and Richard Greene. Shannon committed suicide on February 8, 1990, and the album was completed for release on October 1, 1991.
~ Wiki

Del Shannon's final album, 1991's Rock On!, is a fitting testament to a great artist who never lost what it was that made him great. The album is passionate, dramatic, emotional, and full of great songs. Most of all it has that amazing voice, and yes, Shannon's majestic voice is as strong as ever here. Check out his growling vocals on "Walk Away," his soaring croon on "I Go to Pieces," or his aching falsetto on "Callin' Out My Name." This is a singer who was still in his prime, maybe not as nimble as he was when he began recording nearly 30 years earlier but he made up for it with more gravity and vulnerability. His songwriting was still strong too. Tunes like "Who Left Who" and "Lost in a Memory" are rooted in the past but not merely recreations of glory days long gone. Country rocker "Let's Dance" even points Shannon toward Dwight Yoakam territory with startlingly good results. The only problem with the record is the somewhat overly scrubbed and processed production by Jeff Lynne and Heartbreaker Mike Campbell that leaves the record sounding exactly like every other record Lynne produced around that time, like Tom Petty's Into the Great Wide Open or the Traveling Wilburys' first. Shannon's voice keeps the record from sounding too sterile; however, he never sounds anything less than 100 percent committed and involved. This isn't some hack playing out the string; this is an important American artist who never really got his due spilling his guts yet again. Word was that Shannon was going to take Roy Orbison's spot in the Wilburys. It is a tragedy that he didn't give himself the chance to be rediscovered like Roy was. He certainly still had it and had it in spades. Anyone who doubts it only needs to listen to any song on this record. Heck, check out "Let's Dance," a bopping country tune that could have been a hit on the country charts. In fact, if you ever dug Shannon at all, you should do yourself a favor and find a copy of Rock On!. You won't regret it; chances are, you'll enjoy it. Acadia's 2007 reissue included five bonus tracks.
~ Tim Sendra, All Music

***************

Del Shannon - Rock On! (1991) [2007, Reissue]

Track List:

01. Walk Away [03:40]
02. Who Left Who [03:23]
03. Are You Lovin' Me Too [03:17]
04. Callin' Out My Name [03:47]
05. I Go To Pieces [04:01]
06. Lost In A Memory [03:37]
07. I Got You [03:43]
08. What Kind Of Fool Do You Think I Am [03:12]
09. When I Had You [04:20]
10. Let's Dance [03:33]
Bonus Tracks:
11. Hot Love [03:26]
12. One Woman Man [03:57]
13. Nobody's Business [03:25]
14. You Don't Know What You've Got (Until You Lose It) [04:30]
15. Songwriter [03:25]

Musicians:

Del Shannon - vocals, guitar
Jeff Lynne - guitar, keyboards, bass, backing vocals
Mike Campbell - guitar, keyboards, bass, backing vocals
Tom Petty - guitar, backing vocals
Benmont Tench - accordion, organ, piano
Howie Epstein - backing vocals
Phil Jones - drums, backing vocals
Richard Greene - fiddle
Phil Hatton - backing vocals
Randy Jones - backing vocals
Andrew Williams - backing vocals
David Williams - backing vocals
David Campbell - string arrangement

Exact Audio Copy V0.99 prebeta 5 from 4. May 2009

EAC extraction logfile from 23. December 2015, 12:46

Del Shannon / Rock On !

Used drive : ATAPI iHAS122 C Adapter: 1 ID: 1

Read mode : Secure
Utilize accurate stream : Yes
Defeat audio cache : Yes
Make use of C2 pointers : No

Read offset correction : 6
Overread into Lead-In and Lead-Out : No
Fill up missing offset samples with silence : Yes
Delete leading and trailing silent blocks : No
Null samples used in CRC calculations : Yes
Used interface : Native Win32 interface for Win NT & 2000

Used output format : Internal WAV Routines
Sample format : 44.100 Hz; 16 Bit; Stereo


TOC of the extracted CD

Track | Start | Length | Start sector | End sector
––––––––––––––––––––––––––––-
1 | 0:00.00 | 3:39.23 | 0 | 16447
2 | 3:39.23 | 3:22.42 | 16448 | 31639
3 | 7:01.65 | 3:16.34 | 31640 | 46373
4 | 10:18.24 | 3:46.31 | 46374 | 63354
5 | 14:04.55 | 4:00.27 | 63355 | 81381
6 | 18:05.07 | 3:36.53 | 81382 | 97634
7 | 21:41.60 | 3:42.27 | 97635 | 114311
8 | 25:24.12 | 3:11.27 | 114312 | 128663
9 | 28:35.39 | 4:19.07 | 128664 | 148095
10 | 32:54.46 | 3:32.66 | 148096 | 164061
11 | 36:27.37 | 3:25.68 | 164062 | 179504
12 | 39:53.30 | 3:56.56 | 179505 | 197260
13 | 43:50.11 | 3:24.32 | 197261 | 212592
14 | 47:14.43 | 4:29.15 | 212593 | 232782
15 | 51:43.58 | 3:24.08 | 232783 | 248090


Range status and errors

Selected range

Filename C:\Users\arthu\Desktop\Del Shannon - Rock On !.wav

Peak level 98.8 %
Range quality 100.0 %
Test CRC D9664D04
Copy CRC D9664D04
Copy OK

No errors occurred


AccurateRip summary

Track 1 cannot be verified as accurate (confidence 2) [FA0DD856], AccurateRip returned [BC8454D3]
Track 2 cannot be verified as accurate (confidence 2) [15EE766D], AccurateRip returned [70E2606F]
Track 3 cannot be verified as accurate (confidence 2) [249D291D], AccurateRip returned [D4FAF56C]
Track 4 cannot be verified as accurate (confidence 2) [3627D421], AccurateRip returned [3A9038FC]
Track 5 cannot be verified as accurate (confidence 2) [02495034], AccurateRip returned [3A72DFAC]
Track 6 cannot be verified as accurate (confidence 2) [964AF48B], AccurateRip returned [CD8878E8]
Track 7 cannot be verified as accurate (confidence 2) [A55093FF], AccurateRip returned [EBEFB02F]
Track 8 cannot be verified as accurate (confidence 2) [954CB722], AccurateRip returned [3466283A]
Track 9 cannot be verified as accurate (confidence 2) [85A0BFE1], AccurateRip returned [093D088D]
Track 10 cannot be verified as accurate (confidence 2) [D5C1D7BC], AccurateRip returned [687FD8E5]
Track 11 cannot be verified as accurate (confidence 2) [772BC102], AccurateRip returned [BF6F6D68]
Track 12 cannot be verified as accurate (confidence 2) [04A36AE9], AccurateRip returned [0533D8A4]
Track 13 cannot be verified as accurate (confidence 2) [3CD7A514], AccurateRip returned [90683A1A]
Track 14 cannot be verified as accurate (confidence 2) [4F955611], AccurateRip returned [5EB8C81F]
Track 15 cannot be verified as accurate (confidence 2) [CA8F35D1], AccurateRip returned [B8BA4993]

No tracks could be verified as accurate
You may have a different pressing from the one(s) in the database

End of status report

foobar2000 1.2.6 / Dynamic Range Meter 1.1.1
log date: 2015-12-24 09:31:43

––––––––––––––––––––––––––––––––––––––––
Analyzed: Del Shannon / Rock On !
––––––––––––––––––––––––––––––––––––––––

DR Peak RMS Duration Track
––––––––––––––––––––––––––––––––––––––––
DR10 -0.10 dB -11.44 dB 3:39 01-Walk Away
DR9 -0.10 dB -9.63 dB 3:23 02-Who Left Who
DR11 -0.10 dB -12.00 dB 3:16 03-Are You Lovin' Me Too
DR10 -0.10 dB -11.03 dB 3:46 04-Callin' Out My Name
DR10 -0.10 dB -11.17 dB 4:00 05-I Go To Pieces
DR10 -0.10 dB -11.95 dB 3:37 06-Lost In A Memory
DR10 -0.10 dB -11.00 dB 3:42 07-I Got You
DR9 -0.10 dB -10.52 dB 3:11 08-What Kind Of Fool Do You Think I Am
DR11 -0.10 dB -12.59 dB 4:19 09-When I Had You
DR9 -0.10 dB -9.60 dB 3:33 10-Let's Dance
DR13 -0.10 dB -14.74 dB 3:26 11-Hot Love
DR11 -0.10 dB -12.85 dB 3:57 12-One Woman Man
DR12 -0.10 dB -13.91 dB 3:24 13-Nobody's Business
DR12 -0.10 dB -14.21 dB 4:29 14-You Don't Know What You've Got (Until You Lose It)
DR15 -0.10 dB -17.86 dB 3:24 15-Songwriter
––––––––––––––––––––––––––––––––––––––––

Number of tracks: 15
Official DR value: DR11

Samplerate: 44100 Hz
Channels: 2
Bits per sample: 16
Bitrate: 899 kbps
Codec: FLAC
================================================================================

[CUETools log; Date: 24.12.2015 9:31:23; Version: 2.1.5]
[CTDB TOCID: j_PccfBT9M28RD2AIiqLl5_d2Bw-] found.
Track | CTDB Status
1 | (2/2) Accurately ripped
2 | (2/2) Accurately ripped
3 | (2/2) Accurately ripped
4 | (2/2) Accurately ripped
5 | (2/2) Accurately ripped
6 | (2/2) Accurately ripped
7 | (2/2) Accurately ripped
8 | (2/2) Accurately ripped
9 | (2/2) Accurately ripped
10 | (2/2) Accurately ripped
11 | (2/2) Accurately ripped
12 | (2/2) Accurately ripped
13 | (2/2) Accurately ripped
14 | (2/2) Accurately ripped
15 | (2/2) Accurately ripped
[AccurateRip ID: 001df0d9-01548377-c60ceb0f] found.
Track [ CRC | V2 ] Status
01 [fa0dd856|10a7c4e4] (0+2/4) Accurately ripped
02 [15ee766d|61c926e8] (0+2/4) Accurately ripped
03 [249d291d|8f8b6e0b] (0+2/4) Accurately ripped
04 [3627d421|1168af66] (0+2/4) Accurately ripped
05 [02495034|12f9592c] (0+2/4) Accurately ripped
06 [964af48b|c26c2c88] (0+2/4) Accurately ripped
07 [a55093ff|56f82c28] (0+2/4) Accurately ripped
08 [954cb722|0e8dbe17] (0+2/4) Accurately ripped
09 [85a0bfe1|18fb344d] (0+2/4) Accurately ripped
10 [d5c1d7bc|62a77131] (0+2/4) Accurately ripped
11 [772bc102|eb5d4c61] (0+2/4) Accurately ripped
12 [04a36ae9|2e42821d] (0+2/4) Accurately ripped
13 [3cd7a514|fd87d517] (0+2/4) Accurately ripped
14 [4f955611|90550114] (0+2/4) Accurately ripped
15 [ca8f35d1|61648eae] (0+2/4) Accurately ripped
Offsetted by 762:
01 [8047f7c4] (0/4) No match (V2 was not tested)
02 [eef1f807] (0/4) No match (V2 was not tested)
03 [2ba1fded] (0/4) No match (V2 was not tested)
04 [43ac7149] (0/4) No match (V2 was not tested)
05 [19a394a4] (0/4) No match (V2 was not tested)
06 [7ac12e81] (0/4) No match (V2 was not tested)
07 [137f5d05] (0/4) No match (V2 was not tested)
08 [7a5efeb2] (0/4) No match (V2 was not tested)
09 [5d6811bc] (0/4) No match (V2 was not tested)
10 [afa1df4d] (0/4) No match (V2 was not tested)
11 [19a41422] (0/4) No match (V2 was not tested)
12 [c1dd809f] (0/4) No match (V2 was not tested)
13 [960aa78a] (0/4) No match (V2 was not tested)
14 [25c3c209] (0/4) No match (V2 was not tested)
15 [e91ba535] (0/4) No match (V2 was not tested)

Track Peak [ CRC32 ] [W/O NULL] [ LOG ]
– 98,8 [D9664D04] [1B221BB3] CRC32
01 98,8 [03C0F002] [191027A1]
02 98,8 [20F45023] [DE30FE18]
03 98,8 [28A40EBD] [8292E341]
04 98,8 [6E9CCAC3] [3F31BC0C]
05 98,8 [8AC8AFE8] [1D43B385]
06 98,8 [411F2F0A] [4E07E981]
07 98,8 [9FFCA371] [0572E456]
08 98,8 [9EF9DFE7] [205E17B6]
09 98,8 [6DDB24B5] [23259B74]
10 98,8 [18DFF87F] [DCF1344C]
11 98,8 [1DBD39DF] [7A94EF1F]
12 98,8 [4A093519] [EE5F9216]
13 98,8 [9D5DB1FB] [190D7FF9]
14 98,8 [593470A6] [E456B1EC]
15 98,8 [5E1DB9CA] [6231E144]

Del Shannon - Rock On! (1991) [2007, Reissue]

Del Shannon - Rock On! (1991) [2007, Reissue]

All thanks go to London

Visit my blog!

No mirrors, please!

Download:
Nitroflare: FLAC | mp3