Subcategories

Delerium - Karma (1997) 2CD Limited Edition 2008

Posted By: Designol
Delerium - Karma (1997) 2CD Limited Edition 2008

Delerium - Karma (1997) 2CD Limited Edition 2008
EAC | FLAC | Image (Cue&Log) ~ 1 Gb (incl 5%) | Mp3 (CBR320/Stereo) ~ 380 Mb (incl 5%) | Scans included
Genre: Electronic, Ambient Pop, Worldbeat | Label: Nettwerk | # 5 037703 080928 | Time: 02:31:33

Limited two disc edition of the group's 1997 album (which features guest vocals by Sarah McLachlan), plus bonus CD with ten tracks, 'Silence' (3 versions), 'Euphoria (Firefly)' (Rabbit In The Moon Mix), 'Flowers Become Screens' (Frequency Modulation Mix), 'Incantation' (12 Inch Mix Edit), 'Duende' (Bleak Desolation Mix) and 'Heavens Earth' (3 mix versions). A combined total of 21 tracks, also featuring the original version of the hit single 'Silence' with McLachlan singing the lead!
From Enchanted:

'Prowling in the night Hiding 'neath my fright Manipulate my sight - thief'

From the haunting opener of children singing amidst mundane chimes and chilling lyrics by Kristy Thirsk to the angelic female singing of "Wisdom" and "'Til the End of Time", this CD is just too good for words. I've had it for [a few] yrs now and it still sounds new to me…. Sarah McLachlan, Kristy Thirsk, Camille Henderson and Jacqui Hunt definitely contribute to this celestial album which is close to becoming a masterpiece for the ages with ethereal sounscapes of sensual new age/trance beats; not to mention Gregorian style chantings of actual monks, made infamous on songs like the Egyptian "Rememberance" and the Middle Eastern "Lamentation". I extend my thanks to "Euphoria (Firefly)", however, which became my introduction to Delerium from hearing it through the Pure Moods II compilation. And while I'm undecided about which Delerium album is to be my favorite, one thing is for certain:

I will be cherishing this album 'til the end of all time.

This is highly recommended.

Review by Clarissa, Amazon.com
Delerium - Karma (1997) 2CD Limited Edition 2008



Tracklist:

CD1:

01. Enchanted (08:32)
02. Duende (05:23)
03. Twilight (06:07)
04. Silence (06:34)
05. Forgotten Worlds (07:33)
06. Lamentation (08:32)
07. Euphoria (Firefly) (05:28)
08. Remembrance (07:28)
09. Wisdom (04:50)
10. Window To Your Soul (09:23)
11. 'Til The End Of Time (04:37)

CD2:

01. Silence (niels van gogh vs. thomas gold remix) (07:32)
02. Silence (filterheadz remix) (07:32)
03. Silence (sanctuary mix) (11:13)
04. Euphoria (firefly) rabbit in the moon's divine gothic disco mix (09:22)
05. Flowers Become screens (frequency modulation mix) (08:02)
06. Incantation (12' mix edit) (08:58)
07. Duende (bleak desolation mix) (07:59)
08. Heaven's Earth (08:18)
09. Heaven's Earth (matt darey remix edit) (04:26)
10. Heaven's Earth (key south remix edit) (03:45)


Exact Audio Copy V1.0 beta 3 from 29. August 2011

EAC extraction logfile from 22. September 2012, 17:20

Delerium / Karma Disc 1

Used drive : PLEXTOR CD-R PX-240A Adapter: 4 ID: 0

Read mode : Secure
Utilize accurate stream : Yes
Defeat audio cache : Yes
Make use of C2 pointers : No

Read offset correction : 6
Overread into Lead-In and Lead-Out : No
Fill up missing offset samples with silence : Yes
Delete leading and trailing silent blocks : No
Null samples used in CRC calculations : Yes
Used interface : Installed external ASPI interface

Used output format : Internal WAV Routines
Sample format : 44.100 Hz; 16 Bit; Stereo


TOC of the extracted CD

Track | Start | Length | Start sector | End sector
––––––––––––––––––––––––––––-
1 | 0:00.00 | 8:31.47 | 0 | 38371
2 | 8:31.47 | 5:22.48 | 38372 | 62569
3 | 13:54.20 | 6:06.60 | 62570 | 90079
4 | 20:01.05 | 6:33.57 | 90080 | 119611
5 | 26:34.62 | 7:33.05 | 119612 | 153591
6 | 34:07.67 | 8:32.33 | 153592 | 192024
7 | 42:40.25 | 5:28.10 | 192025 | 216634
8 | 48:08.35 | 7:28.52 | 216635 | 250286
9 | 55:37.12 | 4:48.55 | 250287 | 271941
10 | 60:25.67 | 9:25.03 | 271942 | 314319
11 | 69:50.70 | 4:35.40 | 314320 | 334984


Range status and errors

Selected range

Filename J:\Seeding Archive\Delerium\1997-Karma\2008-Nettwerk [UK, 5 037703 080928]\Karma 2008 Disc 1.wav

Peak level 99.8 %
Extraction speed 9.5 X
Range quality 100.0 %
Test CRC D423A54D
Copy CRC D423A54D
Copy OK

No errors occurred


AccurateRip summary

Track 1 accurately ripped (confidence 3) [55E20D5B] (AR v1)
Track 2 accurately ripped (confidence 3) [DF61A298] (AR v1)
Track 3 accurately ripped (confidence 3) [E916BD06] (AR v1)
Track 4 accurately ripped (confidence 3) [C3107C36] (AR v1)
Track 5 accurately ripped (confidence 3) [02D38F8D] (AR v1)
Track 6 accurately ripped (confidence 3) [A097DF82] (AR v1)
Track 7 accurately ripped (confidence 3) [61C8F36B] (AR v1)
Track 8 accurately ripped (confidence 3) [5F961F1A] (AR v1)
Track 9 accurately ripped (confidence 3) [D0CA90C0] (AR v1)
Track 10 accurately ripped (confidence 3) [970F6ECD] (AR v1)
Track 11 accurately ripped (confidence 3) [3CB5862B] (AR v1)

All tracks accurately ripped

End of status report

==== Log checksum 2DED62D13CFDD2F3DBA184B82204AEC3EB7F4083ABCBA998F3C5717520B5166A ====

foobar2000 1.2 / Dynamic Range Meter 1.1.1
log date: 2013-11-12 19:47:04

––––––––––––––––––––––––––––––––––––––––
Analyzed: Delerium / Karma Disc 1
––––––––––––––––––––––––––––––––––––––––

DR Peak RMS Duration Track
––––––––––––––––––––––––––––––––––––––––
DR11 -0.01 dB -13.33 dB 8:32 01-Enchanted
DR9 -0.01 dB -11.18 dB 5:23 02-Duende
DR11 -0.01 dB -12.82 dB 6:07 03-Twilight
DR9 -0.01 dB -11.85 dB 6:34 04-Silence
DR10 -0.01 dB -12.94 dB 7:33 05-Forgotten Worlds
DR10 -0.01 dB -13.23 dB 8:32 06-Lamentation
DR10 -0.01 dB -11.26 dB 5:28 07-Euphoria (Firefly)
DR10 -0.01 dB -11.44 dB 7:29 08-Remembrance
DR11 -0.01 dB -12.32 dB 4:49 09-Wisdom
DR12 -0.11 dB -16.19 dB 9:25 10-Window To Your Soul
DR11 -0.01 dB -12.13 dB 4:36 11-'Til The End Of Time
––––––––––––––––––––––––––––––––––––––––

Number of tracks: 11
Official DR value: DR10

Samplerate: 44100 Hz
Channels: 2
Bits per sample: 16
Bitrate: 847 kbps
Codec: FLAC
================================================================================


Exact Audio Copy V0.99 prebeta 4 from 23. January 2008

EAC extraction logfile from 13. November 2010, 12:23

Delerium / Karma Disc 2

Used drive : HL-DT-STDVD-ROM GDR8082N Adapter: 1 ID: 0

Read mode : Secure
Utilize accurate stream : Yes
Defeat audio cache : Yes
Make use of C2 pointers : No

Read offset correction : 102
Overread into Lead-In and Lead-Out : No
Fill up missing offset samples with silence : Yes
Delete leading and trailing silent blocks : No
Null samples used in CRC calculations : Yes
Used interface : Installed external ASPI interface

Used output format : Internal WAV Routines
Sample format : 44.100 Hz; 16 Bit; Stereo


TOC of the extracted CD

Track | Start | Length | Start sector | End sector
––––––––––––––––––––––––––––-
1 | 0:00.00 | 7:33.65 | 0 | 34039
2 | 7:33.65 | 7:31.61 | 34040 | 67925
3 | 15:05.51 | 11:13.24 | 67926 | 118424
4 | 26:19.00 | 9:22.03 | 118425 | 160577
5 | 35:41.03 | 8:02.15 | 160578 | 196742
6 | 43:43.18 | 8:58.16 | 196743 | 237108
7 | 52:41.34 | 7:58.47 | 237109 | 273005
8 | 60:40.06 | 8:18.28 | 273006 | 310383
9 | 68:58.34 | 4:25.49 | 310384 | 330307
10 | 73:24.08 | 3:42.48 | 330308 | 347005


Range status and errors

Selected range

Filename Z:\data\mp3\Seeding\Delerium\2008-Karma\Karma 2008 Disc 2.wav

Peak level 100.0 %
Range quality 100.0 %
Test CRC A504653D
Copy CRC A504653D
Copy OK

No errors occurred


AccurateRip summary

Track 1 accurately ripped (confidence 2) [B4EC87F7]
Track 2 accurately ripped (confidence 2) [E58DCBA3]
Track 3 accurately ripped (confidence 2) [CB2FC9EE]
Track 4 accurately ripped (confidence 2) [9E6C0950]
Track 5 accurately ripped (confidence 2) [1C692E1F]
Track 6 accurately ripped (confidence 2) [1188609A]
Track 7 accurately ripped (confidence 2) [7A91ED0E]
Track 8 accurately ripped (confidence 2) [43CB5963]
Track 9 accurately ripped (confidence 2) [39438348]
Track 10 accurately ripped (confidence 2) [A163B71F]

All tracks accurately ripped

End of status report

foobar2000 1.2 / Dynamic Range Meter 1.1.1
log date: 2013-11-12 19:53:03

––––––––––––––––––––––––––––––––––––––––
Analyzed: Delerium / Karma Disc 2
––––––––––––––––––––––––––––––––––––––––

DR Peak RMS Duration Track
––––––––––––––––––––––––––––––––––––––––
DR4 -0.20 dB -6.33 dB 7:34 01-Silence (niels van gogh vs. thomas gold remix)
DR6 -0.81 dB -7.72 dB 7:32 02-Silence (filterheadz remix)
DR8 -0.01 dB -9.92 dB 11:13 03-Silence (sanctuary mix)
DR9 -0.30 dB -12.23 dB 9:22 04-Euphoria (firefly) rabbit in the moon's divine gothic disco mix
DR7 0.00 dB -8.43 dB 8:02 05-Flowers Become screens (frequency modulation mix)
DR8 0.00 dB -9.77 dB 8:58 06-Incantation (12' mix edit)
DR7 -0.02 dB -8.66 dB 7:59 07-Duende (bleak desolation mix)
DR9 -0.01 dB -11.97 dB 8:18 08-Heaven's Earth
DR8 -0.01 dB -10.55 dB 4:26 09-Heaven's Earth (matt darey remix edit)
DR5 -0.01 dB -6.47 dB 3:43 10-Heaven's Earth (key south remix edit)
––––––––––––––––––––––––––––––––––––––––

Number of tracks: 10
Official DR value: DR7

Samplerate: 44100 Hz
Channels: 2
Bits per sample: 16
Bitrate: 920 kbps
Codec: FLAC
================================================================================

Delerium - Karma (1997) 2CD Limited Edition 2008

Delerium - Karma (1997) 2CD Limited Edition 2008