Subcategories

Della Reese - The Jubilee Years (2010) 2 CDs

Posted By: Designol
Della Reese - The Jubilee Years (2010) 2 CDs

Della Reese - The Jubilee Years (2010) 2 CDs
EAC | FLAC | Tracks (Cue&Log) ~ 600 Mb | Mp3 (CBR320) ~ 343 Mb | Scans included
Vocal Jazz, Swing, Vocal Pop | Label: Jasmine Records | # JASCD 544 | 02:26:16

The many talents of Della Reese has meant she has enjoyed a long and successful career as top drawer performer of Jazz, Blues, R&B, Gospel and stylish pop music. Here the spotlight is on her two complete albums and a collection of her singles from Jubilee records including the classic hit 'And That Reminds Me'. This is a great introduction to the work of Della Reese and shows exactly why she was to considered one of the foremost interpreters of the American Songbook.

Renowned as both a television star and a top-flight interpreter of jazz, blues, R&B, gospel, and straight-ahead pop music, Della Reese's many talents have ensured a long, varied, and legendary show biz career. In addition to being nominated for both an Emmy and a Grammy and receiving a star on the Hollywood Walk of Fame, Reese is also an ordained minister in the Universal Foundation for Better Living, an association of churches she helped found in the early '80s.

Born Deloreese Patricia Early on July 6, 1931, the young Reese began singing in the Baptist church choir in her hometown of Detroit at age six. In 1945, having developed quite rapidly, she caught the ear of legendary gospel queen Mahalia Jackson, who invited Reese to join her touring choir; Reese did so for the next five summers. Upon entering Wayne State University to study psychology, Reese formed a women's gospel group, the Meditation Singers, but her college career was cut short by the death of her mother and her father's serious illness. Reese worked odd jobs to help support the rest of her family; she also continued to perform with the Meditation Singers and various other gospel groups. Encouraged by her pastor, Reese began singing in night clubs in hopes of getting a singing career off the ground; recently married to a factory worker named Vermont Adolphus Bon Taliaferro, her name was too long to fit on marquees, and she eventually arrived at her performing alias by splitting up her first name. After impressing a New York agent, who promptly signed her, Reese moved to New York and joined the Erskine Hawkins Orchestra in 1953. A year later, she had a recording contract with Jubilee, for whom she scored hits like "And That Reminds Me," a 1957 million-seller.

Switching to RCA Victor, Reese landed her biggest hit in 1959 with "Don't You Know?," a song adapted from Puccini's La Bohème; this cemented her career, leading not only to plentiful appearances on variety shows, but successful nightclub tours of the country and eventually nine years of performances in Las Vegas, as well as recording contracts with a variety of labels over the next few decades.

Building on her previous variety show experience, Reese made a small bit of television history in 1969 when she became the first woman to guest-host The Tonight Show with Johnny Carson. Later that year, she became the first black woman to host her own variety show, the syndicated Della, which ran until 1970. Following its cancellation, Reese returned to her night club tours, often putting in guest appearances on television shows like The Mod Squad, Sanford and Son, and Chico and the Man; after three prior failed marriages, Reese also found a lasting relationship with producer Franklin Lett, whom she married in 1978.

On October 3, 1980, while taping a song for The Tonight Show, Reese suffered a brain aneurysm which nearly proved fatal; however, thanks to a successful operation, she was able to make a full recovery. She kept up her singing career and appeared on television shows like Designing Women, L.A. Law, and Picket Fences, as well as the Eddie Murphy films Harlem Nights and The Distinguished Gentleman. Most recently, Reese starred in the Redd Foxx sitcom The Royal Family from 1991-1992, and in the inspirational drama series Touched by an Angel.

Biography by Steve Huey, Allmusic.com

Della Reese - The Jubilee Years (2010) 2 CDs



Tracklist:

CD1:

The Jubilee Singles

01. In the Still of the Night (3:04)
02. Time After Time (2:46)
03. Fine Sugar (2:10)
04. Years from Now (2:51)
05. I've Got My Love to Keep Me Warm (2:20)
06. Headin' Home (2:21)
07. Daybreak Serenade (2:51)
08. My Melancholy Baby (3:35)
09. One for My Baby (4:02)
10. In the Meantime (2:41)
11. The More I See You (2:41)
12. How Can You Not Believe Me? (2:57)
13. How About You? (2:26)
14. And That Reminds Me (2:30)
15. I Cried for You (2:39)
16. By Love Possessed (2:22)
17. I Only Want to Love You (2:59)
18. How Can You Lose (Whatcha' Never Had?) (2:18)
19. If Not for You (2:25)
20. I've Got a Feelin' You're Foolin' (2:19)
21. C'mon C'mon' (2:20)
22. Wishing (I Wish) (2:32)
23. You Gotta Love Everybody (2:07)
24. Sermonette (2:23)
25. My Dreams End at Dawn (2:43)
26. When I Grow Too Old to Dream (2:33)
27. You're Just in Love (2:49)
28. Time Was (2:45)
29. Once Upon a Dream (2:37)

CD2:

A Date with Della Reese at Mr Kelly's in Chicago (Jubilee LP 1958)

01. Sometime's I'm Happy (2:03)
02. Happiness Is a Thing Called Joe (4:09)
03. Almost Like Being in Love (2:06)
04. Someone to Watch over Me (3:59)
05. The Birth of the Blues (2:46)
06. Pennies from Heaven (1:50)
07. Getting to Know You (2:14)
08. If I Forget You (3:13)
09. All of Me (1:54)
10. The Nearness of You (3:11)
11. Just One of Those Things (3:57)
12. The Party's Over (1:48)

The Story of the Blues (Jubilee LP 1959)

13. The Story of the Blues (1:27)
14. Good Morning Blues (3:51)
15. Empty Bed Blues (3:37)
16. Squeeze Me (3:13)
17. You've Been a Good Old Wagon (3:34)
18. Sent for You Yesterday (2:28)
19. St. James Infirmary (3:56)
20. Lover Man (3:43)
21. Things Ain't What They Used to Be (2:45)
22. Stormy Weather (4:10)
23. There's Always the Blues (3:19)


Exact Audio Copy V1.3 from 2. September 2016

EAC extraction logfile from 15. October 2017, 15:25

Della Reese / The Jubilee Years (CD1)

Used drive : PBDS CD-ROM DH-48N1S Adapter: 1 ID: 0

Read mode : Secure
Utilize accurate stream : Yes
Defeat audio cache : Yes
Make use of C2 pointers : No

Read offset correction : 6
Overread into Lead-In and Lead-Out : No
Fill up missing offset samples with silence : Yes
Delete leading and trailing silent blocks : No
Null samples used in CRC calculations : Yes
Used interface : Native Win32 interface for Win NT & 2000
Gap handling : Appended to previous track

Used output format : User Defined Encoder
Selected bitrate : 768 kBit/s
Quality : High
Add ID3 tag : No
Command line compressor : C:\Program Files (x86)\FLAC\win64\flac.exe
Additional command line options : -8 -V -T "ARTIST=%artist%" -T "TITLE=%title%" -T "ALBUM=%albumtitle%" -T "DATE=%year%" -T "TRACKNUMBER=%tracknr%" -T "GENRE=%genre%" -T "PERFORMER=%albuminterpret%" -T "COMPOSER=%composer%" %haslyrics%–tag-from-file=LYRICS="%lyricsfile%"%haslyrics% -T "ALBUMARTIST=%albumartist%" -T "DISCNUMBER=%cdnumber%" -T "TOTALDISCS=%totalcds%" -T "TOTALTRACKS=%numtracks%" -T "COMMENT=%comment%" %source% -o %dest%


TOC of the extracted CD

Track | Start | Length | Start sector | End sector
––––––––––––––––––––––––––––-
1 | 0:00.00 | 3:03.51 | 0 | 13775
2 | 3:03.51 | 2:45.60 | 13776 | 26210
3 | 5:49.36 | 2:10.13 | 26211 | 35973
4 | 7:59.49 | 2:51.08 | 35974 | 48806
5 | 10:50.57 | 2:19.54 | 48807 | 59285
6 | 13:10.36 | 2:20.59 | 59286 | 69844
7 | 15:31.20 | 2:51.17 | 69845 | 82686
8 | 18:22.37 | 3:34.39 | 82687 | 98775
9 | 21:57.01 | 4:02.36 | 98776 | 116961
10 | 25:59.37 | 2:41.16 | 116962 | 129052
11 | 28:40.53 | 2:41.02 | 129053 | 141129
12 | 31:21.55 | 2:56.54 | 141130 | 154383
13 | 34:18.34 | 2:26.27 | 154384 | 165360
14 | 36:44.61 | 2:30.07 | 165361 | 176617
15 | 39:14.68 | 2:38.45 | 176618 | 188512
16 | 41:53.38 | 2:21.54 | 188513 | 199141
17 | 44:15.17 | 2:58.50 | 199142 | 212541
18 | 47:13.67 | 2:18.13 | 212542 | 222904
19 | 49:32.05 | 2:25.05 | 222905 | 233784
20 | 51:57.10 | 2:19.34 | 233785 | 244243
21 | 54:16.44 | 2:19.56 | 244244 | 254724
22 | 56:36.25 | 2:31.65 | 254725 | 266114
23 | 59:08.15 | 2:06.64 | 266115 | 275628
24 | 61:15.04 | 2:22.73 | 275629 | 286351
25 | 63:38.02 | 2:43.30 | 286352 | 298606
26 | 66:21.32 | 2:32.56 | 298607 | 310062
27 | 68:54.13 | 2:49.00 | 310063 | 322737
28 | 71:43.13 | 2:44.48 | 322738 | 335085
29 | 74:27.61 | 2:37.14 | 335086 | 346874


Track 1

Filename C:\EACRips\01 - In The Still Of The Night.wav

Pre-gap length 0:00:02.00

Peak level 94.3 %
Extraction speed 1.7 X
Track quality 100.0 %
Test CRC 471CFEBB
Copy CRC 471CFEBB
Accurately ripped (confidence 1) [0DDA7A14] (AR v2)
Copy OK

Track 2

Filename C:\EACRips\02 - Time After Time.wav

Pre-gap length 0:00:02.54

Peak level 94.3 %
Extraction speed 4.6 X
Track quality 100.0 %
Test CRC 6B349CA3
Copy CRC 6B349CA3
Accurately ripped (confidence 1) [B171E24E] (AR v2)
Copy OK

Track 3

Filename C:\EACRips\03 - Fine Sugar.wav

Pre-gap length 0:00:02.54

Peak level 89.0 %
Extraction speed 4.1 X
Track quality 100.0 %
Test CRC A83552B5
Copy CRC A83552B5
Accurately ripped (confidence 1) [A1F1D37B] (AR v2)
Copy OK

Track 4

Filename C:\EACRips\04 - Years From Now.wav

Pre-gap length 0:00:02.54

Peak level 84.0 %
Extraction speed 4.9 X
Track quality 100.0 %
Test CRC 4CE2DC3A
Copy CRC 4CE2DC3A
Accurately ripped (confidence 1) [9EE60910] (AR v2)
Copy OK

Track 5

Filename C:\EACRips\05 - I've Got My Love To Keep Me Warm.wav

Pre-gap length 0:00:02.54

Peak level 88.9 %
Extraction speed 5.0 X
Track quality 100.0 %
Test CRC 382D3A3F
Copy CRC 382D3A3F
Accurately ripped (confidence 1) [9D129A18] (AR v2)
Copy OK

Track 6

Filename C:\EACRips\06 - Headin' Home.wav

Pre-gap length 0:00:02.54

Peak level 94.2 %
Extraction speed 5.2 X
Track quality 100.0 %
Test CRC 1F4D8DFD
Copy CRC 1F4D8DFD
Accurately ripped (confidence 1) [D1366C82] (AR v2)
Copy OK

Track 7

Filename C:\EACRips\07 - Daybreak Serenade.wav

Pre-gap length 0:00:02.54

Peak level 89.0 %
Extraction speed 5.5 X
Track quality 100.0 %
Test CRC 2FE1F923
Copy CRC 2FE1F923
Accurately ripped (confidence 1) [54B7ABB3] (AR v2)
Copy OK

Track 8

Filename C:\EACRips\08 - My Melancholy Baby.wav

Pre-gap length 0:00:02.54

Peak level 84.0 %
Extraction speed 5.6 X
Track quality 100.0 %
Test CRC 6F3D5C47
Copy CRC 6F3D5C47
Accurately ripped (confidence 1) [B6AD81B9] (AR v2)
Copy OK

Track 9

Filename C:\EACRips\09 - One For My Baby.wav

Pre-gap length 0:00:02.54

Peak level 94.2 %
Extraction speed 5.9 X
Track quality 100.0 %
Test CRC 5605B08B
Copy CRC 5605B08B
Accurately ripped (confidence 1) [98BBFBFA] (AR v2)
Copy OK

Track 10

Filename C:\EACRips\10 - In The Meantime.wav

Pre-gap length 0:00:02.54

Peak level 88.9 %
Extraction speed 6.3 X
Track quality 100.0 %
Test CRC 22241ACB
Copy CRC 22241ACB
Accurately ripped (confidence 1) [E532A057] (AR v2)
Copy OK

Track 11

Filename C:\EACRips\11 - The More I See You.wav

Pre-gap length 0:00:02.54

Peak level 84.0 %
Extraction speed 5.2 X
Track quality 99.9 %
Test CRC 3C0370A7
Copy CRC 3C0370A7
Accurately ripped (confidence 1) [2A38F370] (AR v2)
Copy OK

Track 12

Filename C:\EACRips\12 - How Can You Not Believe Me~.wav

Pre-gap length 0:00:02.54

Peak level 89.0 %
Extraction speed 6.8 X
Track quality 100.0 %
Test CRC D58209F2
Copy CRC D58209F2
Accurately ripped (confidence 1) [0FED9536] (AR v2)
Copy OK

Track 13

Filename C:\EACRips\13 - How About You~.wav

Pre-gap length 0:00:02.54

Peak level 94.3 %
Extraction speed 6.7 X
Track quality 100.0 %
Test CRC 38489C1B
Copy CRC 38489C1B
Accurately ripped (confidence 1) [55D12772] (AR v2)
Copy OK

Track 14

Filename C:\EACRips\14 - And That Reminds Me.wav

Pre-gap length 0:00:02.54

Peak level 84.0 %
Extraction speed 6.8 X
Track quality 100.0 %
Test CRC 4CCA51FC
Copy CRC 4CCA51FC
Accurately ripped (confidence 1) [5322BEDD] (AR v2)
Copy OK

Track 15

Filename C:\EACRips\15 - I Cried For You.wav

Pre-gap length 0:00:02.54

Peak level 89.0 %
Extraction speed 7.1 X
Track quality 100.0 %
Test CRC 87D0BE37
Copy CRC 87D0BE37
Accurately ripped (confidence 1) [1B76B5A1] (AR v2)
Copy OK

Track 16

Filename C:\EACRips\16 - By Love Possessed.wav

Pre-gap length 0:00:02.54

Peak level 89.0 %
Extraction speed 5.6 X
Track quality 99.9 %
Test CRC D7A30CB2
Copy CRC D7A30CB2
Accurately ripped (confidence 1) [A840F133] (AR v2)
Copy OK

Track 17

Filename C:\EACRips\17 - I Only Want To Love You.wav

Pre-gap length 0:00:02.54

Peak level 89.0 %
Extraction speed 7.6 X
Track quality 100.0 %
Test CRC F0282C5D
Copy CRC F0282C5D
Accurately ripped (confidence 1) [BDEB9272] (AR v2)
Copy OK

Track 18

Filename C:\EACRips\18 - How Can You Lose (Whatcha' Never Had~).wav

Pre-gap length 0:00:02.54

Peak level 94.3 %
Extraction speed 7.3 X
Track quality 100.0 %
Test CRC 1C076111
Copy CRC 1C076111
Accurately ripped (confidence 1) [4BCCC54E] (AR v2)
Copy OK

Track 19

Filename C:\EACRips\19 - If Not For You.wav

Pre-gap length 0:00:02.54

Peak level 94.3 %
Extraction speed 5.9 X
Track quality 99.9 %
Test CRC 474C291E
Copy CRC 474C291E
Accurately ripped (confidence 1) [7F02A865] (AR v2)
Copy OK

Track 20

Filename C:\EACRips\20 - I've Got A Feelin' You're Foolin'.wav

Pre-gap length 0:00:02.54

Peak level 94.2 %
Extraction speed 6.0 X
Track quality 99.9 %
Test CRC C006C0D5
Copy CRC C006C0D5
Accurately ripped (confidence 1) [1D3B441C] (AR v2)
Copy OK

Track 21

Filename C:\EACRips\21 - C'mon C'mon.wav

Pre-gap length 0:00:02.54

Peak level 84.0 %
Extraction speed 6.1 X
Track quality 99.9 %
Test CRC 3E807890
Copy CRC 3E807890
Accurately ripped (confidence 1) [97C78A03] (AR v2)
Copy OK

Track 22

Filename C:\EACRips\22 - Wishing (I Wish).wav

Pre-gap length 0:00:02.54

Peak level 94.3 %
Extraction speed 7.9 X
Track quality 100.0 %
Test CRC 5443781A
Copy CRC 5443781A
Accurately ripped (confidence 1) [574D394E] (AR v2)
Copy OK

Track 23

Filename C:\EACRips\23 - You Gotta Love Everybody.wav

Pre-gap length 0:00:02.54

Peak level 94.3 %
Extraction speed 7.7 X
Track quality 100.0 %
Test CRC D28604E7
Copy CRC D28604E7
Accurately ripped (confidence 1) [A133FEC9] (AR v2)
Copy OK

Track 24

Filename C:\EACRips\24 - Sermonette.wav

Pre-gap length 0:00:02.54

Peak level 84.0 %
Extraction speed 7.9 X
Track quality 100.0 %
Test CRC F702AEA5
Copy CRC F702AEA5
Accurately ripped (confidence 1) [6E494967] (AR v2)
Copy OK

Track 25

Filename C:\EACRips\25 - My Dreams End At Dawn.wav

Pre-gap length 0:00:02.54

Peak level 89.0 %
Extraction speed 8.3 X
Track quality 100.0 %
Test CRC 3820D58E
Copy CRC 3820D58E
Accurately ripped (confidence 1) [D354D57A] (AR v2)
Copy OK

Track 26

Filename C:\EACRips\26 - When I Grow Too Old To Dream.wav

Pre-gap length 0:00:02.54

Peak level 94.2 %
Extraction speed 8.4 X
Track quality 100.0 %
Test CRC D746D1AA
Copy CRC D746D1AA
Accurately ripped (confidence 1) [C4467B3F] (AR v2)
Copy OK

Track 27

Filename C:\EACRips\27 - You're Just In Love.wav

Pre-gap length 0:00:02.54

Peak level 84.0 %
Extraction speed 7.0 X
Track quality 99.9 %
Test CRC 8EF8F8F4
Copy CRC 8EF8F8F4
Accurately ripped (confidence 1) [A294D5CE] (AR v2)
Copy OK

Track 28

Filename C:\EACRips\28 - Time Was.wav

Pre-gap length 0:00:02.54

Peak level 84.0 %
Extraction speed 7.0 X
Track quality 99.9 %
Test CRC DCF4DF36
Copy CRC DCF4DF36
Accurately ripped (confidence 1) [AE543437] (AR v2)
Copy OK

Track 29

Filename C:\EACRips\29 - Once Upon A Dream.wav

Pre-gap length 0:00:02.54

Peak level 94.3 %
Extraction speed 8.5 X
Track quality 100.0 %
Test CRC AD992B07
Copy CRC AD992B07
Accurately ripped (confidence 1) [4635F5BB] (AR v2)
Copy OK


All tracks accurately ripped

No errors occurred

End of status report

–– CUETools DB Plugin V2.1.6

[CTDB TOCID: 5nILQbT0DGCCDsdS2uB4S_b4b6k-] found
Submit result: already submitted
Track | CTDB Status
1 | (1/1) Accurately ripped
2 | (1/1) Accurately ripped
3 | (1/1) Accurately ripped
4 | (1/1) Accurately ripped
5 | (1/1) Accurately ripped
6 | (1/1) Accurately ripped
7 | (1/1) Accurately ripped
8 | (1/1) Accurately ripped
9 | (1/1) Accurately ripped
10 | (1/1) Accurately ripped
11 | (1/1) Accurately ripped
12 | (1/1) Accurately ripped
13 | (1/1) Accurately ripped
14 | (1/1) Accurately ripped
15 | (1/1) Accurately ripped
16 | (1/1) Accurately ripped
17 | (1/1) Accurately ripped
18 | (1/1) Accurately ripped
19 | (1/1) Accurately ripped
20 | (1/1) Accurately ripped
21 | (1/1) Accurately ripped
22 | (1/1) Accurately ripped
23 | (1/1) Accurately ripped
24 | (1/1) Accurately ripped
25 | (1/1) Accurately ripped
26 | (1/1) Accurately ripped
27 | (1/1) Accurately ripped
28 | (1/1) Accurately ripped
29 | (1/1) Accurately ripped


==== Log checksum 724C83695FEDF043177A8D810D7FAAF6EB1831F207CE306F6941AEB1DE2E2133 ====

[CUETools log; Date: 20.10.2017 0:33:19; Version: 2.1.5]
[CTDB TOCID: 5nILQbT0DGCCDsdS2uB4S_b4b6k-] found.
Track | CTDB Status
1 | (1/1) Accurately ripped
2 | (1/1) Accurately ripped
3 | (1/1) Accurately ripped
4 | (1/1) Accurately ripped
5 | (1/1) Accurately ripped
6 | (1/1) Accurately ripped
7 | (1/1) Accurately ripped
8 | (1/1) Accurately ripped
9 | (1/1) Accurately ripped
10 | (1/1) Accurately ripped
11 | (1/1) Accurately ripped
12 | (1/1) Accurately ripped
13 | (1/1) Accurately ripped
14 | (1/1) Accurately ripped
15 | (1/1) Accurately ripped
16 | (1/1) Accurately ripped
17 | (1/1) Accurately ripped
18 | (1/1) Accurately ripped
19 | (1/1) Accurately ripped
20 | (1/1) Accurately ripped
21 | (1/1) Accurately ripped
22 | (1/1) Accurately ripped
23 | (1/1) Accurately ripped
24 | (1/1) Accurately ripped
25 | (1/1) Accurately ripped
26 | (1/1) Accurately ripped
27 | (1/1) Accurately ripped
28 | (1/1) Accurately ripped
29 | (1/1) Accurately ripped
[AccurateRip ID: 00511e5f-0682565e-b112111d] found.
Track [ CRC | V2 ] Status
01 [66ddb81d|0dda7a14] (0+1/1) Accurately ripped
02 [3a57eb2f|b171e24e] (0+1/1) Accurately ripped
03 [b8a5914a|a1f1d37b] (0+1/1) Accurately ripped
04 [6597e044|9ee60910] (0+1/1) Accurately ripped
05 [c0ce2bda|9d129a18] (0+1/1) Accurately ripped
06 [b05ac8ba|d1366c82] (0+1/1) Accurately ripped
07 [4ff443cc|54b7abb3] (0+1/1) Accurately ripped
08 [8fa981db|b6ad81b9] (0+1/1) Accurately ripped
09 [715ed239|98bbfbfa] (0+1/1) Accurately ripped
10 [b65ce98a|e532a057] (0+1/1) Accurately ripped
11 [4981d520|2a38f370] (0+1/1) Accurately ripped
12 [c2782b33|0fed9536] (0+1/1) Accurately ripped
13 [3e41b2b0|55d12772] (0+1/1) Accurately ripped
14 [6d2d0011|5322bedd] (0+1/1) Accurately ripped
15 [26a860f1|1b76b5a1] (0+1/1) Accurately ripped
16 [b6372e71|a840f133] (0+1/1) Accurately ripped
17 [85b2c329|bdeb9272] (0+1/1) Accurately ripped
18 [9b176553|4bccc54e] (0+1/1) Accurately ripped
19 [99c73eb9|7f02a865] (0+1/1) Accurately ripped
20 [dcb1e6cb|1d3b441c] (0+1/1) Accurately ripped
21 [e4c044ca|97c78a03] (0+1/1) Accurately ripped
22 [dacbf964|574d394e] (0+1/1) Accurately ripped
23 [61d8015a|a133fec9] (0+1/1) Accurately ripped
24 [60401e80|6e494967] (0+1/1) Accurately ripped
25 [a35d830d|d354d57a] (0+1/1) Accurately ripped
26 [0400dc43|c4467b3f] (0+1/1) Accurately ripped
27 [565b6015|a294d5ce] (0+1/1) Accurately ripped
28 [c36a2452|ae543437] (0+1/1) Accurately ripped
29 [4174f497|4635f5bb] (0+1/1) Accurately ripped

Track Peak [ CRC32 ] [W/O NULL] [ LOG ]
– 94,3 [8FFAC995] [CB123DE1]
01 94,3 [471CFEBB] [557823FE] CRC32
02 94,3 [6B349CA3] [FE45233A] CRC32
03 89,0 [A83552B5] [5CBDD000] CRC32
04 84,0 [4CE2DC3A] [99376154] CRC32
05 88,9 [382D3A3F] [9DBDCDBA] CRC32
06 94,2 [1F4D8DFD] [C9AF2641] CRC32
07 89,0 [2FE1F923] [B5196C73] CRC32
08 84,0 [6F3D5C47] [31E87C76] CRC32
09 94,2 [5605B08B] [0586B106] CRC32
10 88,9 [22241ACB] [40AB2202] CRC32
11 84,0 [3C0370A7] [8F36E749] CRC32
12 89,0 [D58209F2] [3F5088FB] CRC32
13 94,3 [38489C1B] [F6EC6CD6] CRC32
14 84,0 [4CCA51FC] [23A73FDE] CRC32
15 89,0 [87D0BE37] [D3A93101] CRC32
16 89,0 [D7A30CB2] [38A2B67E] CRC32
17 89,0 [F0282C5D] [51C523A3] CRC32
18 94,3 [1C076111] [38BA10EB] CRC32
19 94,3 [474C291E] [74AF3854] CRC32
20 94,2 [C006C0D5] [DBA01029] CRC32
21 84,0 [3E807890] [E7590C9B] CRC32
22 94,3 [5443781A] [74AF964E] CRC32
23 94,3 [D28604E7] [894D16CF] CRC32
24 84,0 [F702AEA5] [4ADF8AE2] CRC32
25 89,0 [3820D58E] [F9195CF6] CRC32
26 94,2 [D746D1AA] [1303DF8C] CRC32
27 84,0 [8EF8F8F4] [92104E39] CRC32
28 84,0 [DCF4DF36] [7712D8F6] CRC32
29 94,3 [AD992B07] [FD862003] CRC32

foobar2000 1.2 / Dynamic Range Meter 1.1.1
log date: 2017-10-20 04:35:35

––––––––––––––––––––––––––––––––––––––––
Analyzed: Della Reese / The Jubilee Years CD1
––––––––––––––––––––––––––––––––––––––––

DR Peak RMS Duration Track
––––––––––––––––––––––––––––––––––––––––
DR13 -0.51 dB -16.55 dB 3:04 01-In the Still of the Night
DR14 -0.51 dB -19.20 dB 2:46 02-Time After Time
DR14 -1.01 dB -17.95 dB 2:10 03-Fine Sugar
DR12 -1.51 dB -16.00 dB 2:51 04-Years from Now
DR12 -1.01 dB -15.47 dB 2:20 05-I've Got My Love to Keep Me Warm
DR12 -0.51 dB -16.68 dB 2:21 06-Headin' Home
DR14 -1.01 dB -19.10 dB 2:51 07-Daybreak Serenade
DR13 -1.51 dB -18.85 dB 3:35 08-My Melancholy Baby
DR14 -0.51 dB -17.97 dB 4:02 09-One for My Baby
DR15 -1.01 dB -17.75 dB 2:41 10-In the Meantime
DR12 -1.51 dB -16.94 dB 2:41 11-The More I See You
DR13 -1.01 dB -18.03 dB 2:57 12-How Can You Not Believe Me?
DR14 -0.51 dB -16.97 dB 2:26 13-How About You?
DR11 -1.51 dB -15.63 dB 2:30 14-And That Reminds Me
DR12 -1.01 dB -15.77 dB 2:39 15-I Cried for You
DR12 -1.01 dB -15.74 dB 2:22 16-By Love Possessed
DR13 -1.01 dB -16.88 dB 2:59 17-I Only Want to Love You
DR13 -0.51 dB -16.26 dB 2:18 18-How Can You Lose (Whatcha' Never Had?)
DR13 -0.51 dB -18.61 dB 2:25 19-If Not for You
DR13 -0.51 dB -16.95 dB 2:19 20-I've Got a Feelin' You're Foolin'
DR12 -1.51 dB -17.62 dB 2:20 21-C'mon C'mon'
DR12 -0.51 dB -16.56 dB 2:32 22-Wishing (I Wish)
DR12 -0.51 dB -15.25 dB 2:07 23-You Gotta Love Everybody
DR12 -1.51 dB -16.90 dB 2:23 24-Sermonette
DR11 -1.01 dB -15.70 dB 2:43 25-My Dreams End at Dawn
DR14 -0.51 dB -18.87 dB 2:33 26-When I Grow Too Old to Dream
DR13 -1.51 dB -18.68 dB 2:49 27-You're Just in Love
DR11 -1.51 dB -15.27 dB 2:45 28-Time Was
DR12 -0.51 dB -16.32 dB 2:37 29-Once Upon a Dream
––––––––––––––––––––––––––––––––––––––––

Number of tracks: 29
Official DR value: DR13

Samplerate: 44100 Hz
Channels: 2
Bits per sample: 16
Bitrate: 412 kbps
Codec: FLAC
================================================================================


Exact Audio Copy V1.3 from 2. September 2016

EAC extraction logfile from 15. October 2017, 14:47

Della Reese / The Jubilee Years (CD2)

Used drive : PBDS CD-ROM DH-48N1S Adapter: 1 ID: 0

Read mode : Secure
Utilize accurate stream : Yes
Defeat audio cache : Yes
Make use of C2 pointers : No

Read offset correction : 6
Overread into Lead-In and Lead-Out : No
Fill up missing offset samples with silence : Yes
Delete leading and trailing silent blocks : No
Null samples used in CRC calculations : Yes
Used interface : Native Win32 interface for Win NT & 2000
Gap handling : Appended to previous track

Used output format : User Defined Encoder
Selected bitrate : 768 kBit/s
Quality : High
Add ID3 tag : No
Command line compressor : C:\Program Files (x86)\FLAC\win64\flac.exe
Additional command line options : -8 -V -T "ARTIST=%artist%" -T "TITLE=%title%" -T "ALBUM=%albumtitle%" -T "DATE=%year%" -T "TRACKNUMBER=%tracknr%" -T "GENRE=%genre%" -T "PERFORMER=%albuminterpret%" -T "COMPOSER=%composer%" %haslyrics%–tag-from-file=LYRICS="%lyricsfile%"%haslyrics% -T "ALBUMARTIST=%albumartist%" -T "DISCNUMBER=%cdnumber%" -T "TOTALDISCS=%totalcds%" -T "TOTALTRACKS=%numtracks%" -T "COMMENT=%comment%" %source% -o %dest%


TOC of the extracted CD

Track | Start | Length | Start sector | End sector
––––––––––––––––––––––––––––-
1 | 0:00.00 | 2:02.50 | 0 | 9199
2 | 2:02.50 | 4:09.07 | 9200 | 27881
3 | 6:11.57 | 2:05.63 | 27882 | 37319
4 | 8:17.45 | 3:58.43 | 37320 | 55212
5 | 12:16.13 | 2:45.57 | 55213 | 67644
6 | 15:01.70 | 1:49.73 | 67645 | 75892
7 | 16:51.68 | 2:14.04 | 75893 | 85946
8 | 19:05.72 | 3:12.57 | 85947 | 100403
9 | 22:18.54 | 1:53.42 | 100404 | 108920
10 | 24:12.21 | 3:10.46 | 108921 | 123216
11 | 27:22.67 | 3:57.06 | 123217 | 140997
12 | 31:19.73 | 1:48.24 | 140998 | 149121
13 | 33:08.22 | 1:26.70 | 149122 | 155641
14 | 34:35.17 | 3:50.53 | 155642 | 172944
15 | 38:25.70 | 3:37.24 | 172945 | 189243
16 | 42:03.19 | 3:13.05 | 189244 | 203723
17 | 45:16.24 | 3:33.55 | 203724 | 219753
18 | 48:50.04 | 2:28.16 | 219754 | 230869
19 | 51:18.20 | 3:56.08 | 230870 | 248577
20 | 55:14.28 | 3:42.43 | 248578 | 265270
21 | 58:56.71 | 2:45.20 | 265271 | 277665
22 | 61:42.16 | 4:09.62 | 277666 | 296402
23 | 65:52.03 | 3:18.72 | 296403 | 311324


Track 1

Filename C:\EACRips\01 - Sometimes I'm Happy.wav

Pre-gap length 0:00:02.00

Peak level 90.2 %
Extraction speed 3.5 X
Track quality 100.0 %
Test CRC 9B92CA51
Copy CRC 9B92CA51
Accurately ripped (confidence 1) [63A60B63] (AR v2)
Copy OK

Track 2

Filename C:\EACRips\02 - Happiness Is A Thing Called Joe.wav

Peak level 74.7 %
Extraction speed 4.3 X
Track quality 100.0 %
Test CRC 1D983DD3
Copy CRC 1D983DD3
Accurately ripped (confidence 1) [D3CA5506] (AR v2)
Copy OK

Track 3

Filename C:\EACRips\03 - Almost Like Being In Love.wav

Peak level 82.2 %
Extraction speed 3.2 X
Track quality 99.9 %
Test CRC F7B18DF1
Copy CRC F7B18DF1
Accurately ripped (confidence 1) [C1C9FAF7] (AR v2)
Copy OK

Track 4

Filename C:\EACRips\04 - Someone To Watch Over Me.wav

Peak level 73.0 %
Extraction speed 4.9 X
Track quality 100.0 %
Test CRC 3129101E
Copy CRC 3129101E
Accurately ripped (confidence 1) [ECFBB603] (AR v2)
Copy OK

Track 5

Filename C:\EACRips\05 - The Birth Of The Blues.wav

Peak level 94.3 %
Extraction speed 4.9 X
Track quality 100.0 %
Test CRC E9BDACF4
Copy CRC E9BDACF4
Accurately ripped (confidence 1) [882436A5] (AR v2)
Copy OK

Track 6

Filename C:\EACRips\06 - Pennies From Heaven.wav

Peak level 81.5 %
Extraction speed 4.5 X
Track quality 100.0 %
Test CRC F9384559
Copy CRC F9384559
Accurately ripped (confidence 1) [711B2D7D] (AR v2)
Copy OK

Track 7

Filename C:\EACRips\07 - Getting To Know You.wav

Peak level 77.2 %
Extraction speed 5.0 X
Track quality 100.0 %
Test CRC DCD07FFD
Copy CRC DCD07FFD
Accurately ripped (confidence 1) [83D0402D] (AR v2)
Copy OK

Track 8

Filename C:\EACRips\08 - If I Forget You.wav

Peak level 78.8 %
Extraction speed 5.6 X
Track quality 100.0 %
Test CRC 27435C71
Copy CRC 27435C71
Accurately ripped (confidence 1) [27BDC3F4] (AR v2)
Copy OK

Track 9

Filename C:\EACRips\09 - All Of Me.wav

Peak level 86.3 %
Extraction speed 4.9 X
Track quality 100.0 %
Test CRC 0F45FC93
Copy CRC 0F45FC93
Accurately ripped (confidence 1) [CF919564] (AR v2)
Copy OK

Track 10

Filename C:\EACRips\10 - The Nearness Of You.wav

Peak level 82.3 %
Extraction speed 5.8 X
Track quality 100.0 %
Test CRC 2DA086EF
Copy CRC 2DA086EF
Accurately ripped (confidence 1) [C3FB6752] (AR v2)
Copy OK

Track 11

Filename C:\EACRips\11 - Just One Of Those Things.wav

Peak level 89.3 %
Extraction speed 6.2 X
Track quality 100.0 %
Test CRC D27353D7
Copy CRC D27353D7
Accurately ripped (confidence 1) [D316CCEB] (AR v2)
Copy OK

Track 12

Filename C:\EACRips\12 - The Party's Over.wav

Peak level 90.3 %
Extraction speed 5.5 X
Track quality 100.0 %
Test CRC 9424E8FC
Copy CRC 9424E8FC
Accurately ripped (confidence 1) [7BE1F7C5] (AR v2)
Copy OK

Track 13

Filename C:\EACRips\13 - The Story Of The Blues.wav

Pre-gap length 0:00:05.00

Peak level 70.3 %
Extraction speed 3.8 X
Track quality 99.8 %
Test CRC 9D07EC34
Copy CRC 9D07EC34
Accurately ripped (confidence 1) [B8240A52] (AR v2)
Copy OK

Track 14

Filename C:\EACRips\14 - Good Morning Blues.wav

Peak level 70.2 %
Extraction speed 5.6 X
Track quality 99.9 %
Test CRC AF9C5E6D
Copy CRC AF9C5E6D
Accurately ripped (confidence 1) [67A0798F] (AR v2)
Copy OK

Track 15

Filename C:\EACRips\15 - Empty Bed Blues.wav

Pre-gap length 0:00:02.34

Peak level 66.2 %
Extraction speed 6.9 X
Track quality 100.0 %
Test CRC 623DEEA8
Copy CRC 623DEEA8
Accurately ripped (confidence 1) [EAB0C212] (AR v2)
Copy OK

Track 16

Filename C:\EACRips\16 - Squeeze Me.wav

Pre-gap length 0:00:02.02

Peak level 76.0 %
Extraction speed 6.9 X
Track quality 100.0 %
Test CRC 77047D10
Copy CRC 77047D10
Accurately ripped (confidence 1) [39B8A60A] (AR v2)
Copy OK

Track 17

Filename C:\EACRips\17 - You've Been A Good Old Wagon.wav

Pre-gap length 0:00:01.76

Peak level 77.7 %
Extraction speed 7.2 X
Track quality 100.0 %
Test CRC B3D8F746
Copy CRC B3D8F746
Accurately ripped (confidence 1) [A4CCA120] (AR v2)
Copy OK

Track 18

Filename C:\EACRips\18 - Sent For You Yesterday.wav

Pre-gap length 0:00:01.46

Peak level 83.9 %
Extraction speed 6.9 X
Track quality 100.0 %
Test CRC 9E784C11
Copy CRC 9E784C11
Accurately ripped (confidence 1) [240CFCFC] (AR v2)
Copy OK

Track 19

Filename C:\EACRips\19 - St. James Infirmary.wav

Pre-gap length 0:00:02.21

Peak level 94.3 %
Extraction speed 7.6 X
Track quality 100.0 %
Test CRC 6E43B580
Copy CRC 6E43B580
Accurately ripped (confidence 1) [34648E70] (AR v2)
Copy OK

Track 20

Filename C:\EACRips\20 - Lover Man.wav

Peak level 84.7 %
Extraction speed 7.6 X
Track quality 100.0 %
Test CRC 5FD1AC0C
Copy CRC 5FD1AC0C
Accurately ripped (confidence 1) [35B7BB9D] (AR v2)
Copy OK

Track 21

Filename C:\EACRips\21 - Things Ain't What They Used To Be.wav

Pre-gap length 0:00:01.00

Peak level 79.0 %
Extraction speed 7.2 X
Track quality 100.0 %
Test CRC BA60BD0D
Copy CRC BA60BD0D
Accurately ripped (confidence 1) [1AE8DA73] (AR v2)
Copy OK

Track 22

Filename C:\EACRips\22 - Stormy Weather.wav

Pre-gap length 0:00:01.53

Peak level 80.7 %
Extraction speed 6.4 X
Track quality 100.0 %
Test CRC 8DB8ADC1
Copy CRC 8DB8ADC1
Accurately ripped (confidence 1) [5BE797A9] (AR v2)
Copy OK

Track 23

Filename C:\EACRips\23 - There's Always The Blues.wav

Pre-gap length 0:00:02.20

Peak level 89.0 %
Extraction speed 8.0 X
Track quality 100.0 %
Test CRC 381E7BF9
Copy CRC 381E7BF9
Accurately ripped (confidence 1) [8D85907E] (AR v2)
Copy OK


All tracks accurately ripped

No errors occurred

End of status report

–– CUETools DB Plugin V2.1.6

[CTDB TOCID: bHXxiippkSIomIcekQUax2E2gm0-] disk not present in database
Submit result: bHXxiippkSIomIcekQUax2E2gm0- has been uploaded


==== Log checksum CB74562F5F6589748C6D5704828FAB06CBEEC9E1473BDDF65BA7E65530B9B411 ====

[CUETools log; Date: 20.10.2017 0:33:44; Version: 2.1.5]
[CTDB TOCID: bHXxiippkSIomIcekQUax2E2gm0-] found.
Track | CTDB Status
1 | (1/1) Accurately ripped
2 | (1/1) Accurately ripped
3 | (1/1) Accurately ripped
4 | (1/1) Accurately ripped
5 | (1/1) Accurately ripped
6 | (1/1) Accurately ripped
7 | (1/1) Accurately ripped
8 | (1/1) Accurately ripped
9 | (1/1) Accurately ripped
10 | (1/1) Accurately ripped
11 | (1/1) Accurately ripped
12 | (1/1) Accurately ripped
13 | (1/1) Accurately ripped
14 | (1/1) Accurately ripped
15 | (1/1) Accurately ripped
16 | (1/1) Accurately ripped
17 | (1/1) Accurately ripped
18 | (1/1) Accurately ripped
19 | (1/1) Accurately ripped
20 | (1/1) Accurately ripped
21 | (1/1) Accurately ripped
22 | (1/1) Accurately ripped
23 | (1/1) Accurately ripped
[AccurateRip ID: 003637a0-038e9a95-41103717] found.
Track [ CRC | V2 ] Status
01 [58aab47c|63a60b63] (0+1/1) Accurately ripped
02 [45fdb5b2|d3ca5506] (0+1/1) Accurately ripped
03 [269b2172|c1c9faf7] (0+1/1) Accurately ripped
04 [663afc49|ecfbb603] (0+1/1) Accurately ripped
05 [3e1b7434|882436a5] (0+1/1) Accurately ripped
06 [fd823d67|711b2d7d] (0+1/1) Accurately ripped
07 [a7e7230e|83d0402d] (0+1/1) Accurately ripped
08 [039f647f|27bdc3f4] (0+1/1) Accurately ripped
09 [e8d6663f|cf919564] (0+1/1) Accurately ripped
10 [0870384a|c3fb6752] (0+1/1) Accurately ripped
11 [5f45366e|d316cceb] (0+1/1) Accurately ripped
12 [e8a17f94|7be1f7c5] (0+1/1) Accurately ripped
13 [1ea6d3bc|b8240a52] (0+1/1) Accurately ripped
14 [3d237e7d|67a0798f] (0+1/1) Accurately ripped
15 [c7ab22dd|eab0c212] (0+1/1) Accurately ripped
16 [8892f881|39b8a60a] (0+1/1) Accurately ripped
17 [5380b3ce|a4cca120] (0+1/1) Accurately ripped
18 [9862ef6b|240cfcfc] (0+1/1) Accurately ripped
19 [db86fa51|34648e70] (0+1/1) Accurately ripped
20 [2a433277|35b7bb9d] (0+1/1) Accurately ripped
21 [49a1a09a|1ae8da73] (0+1/1) Accurately ripped
22 [ba06186d|5be797a9] (0+1/1) Accurately ripped
23 [c93786ee|8d85907e] (0+1/1) Accurately ripped

Track Peak [ CRC32 ] [W/O NULL] [ LOG ]
– 94,3 [40272FAE] [BCCD8793]
01 90,2 [9B92CA51] [B113480F] CRC32
02 74,7 [1D983DD3] [F0B602CA] CRC32
03 82,2 [F7B18DF1] [59C78F84] CRC32
04 73,0 [3129101E] [6B300A89] CRC32
05 94,3 [E9BDACF4] [F0A350C3] CRC32
06 81,5 [F9384559] [396A40B4] CRC32
07 77,2 [DCD07FFD] [4D9FBD18] CRC32
08 78,8 [27435C71] [073750A1] CRC32
09 86,3 [0F45FC93] [7A5FB9A6] CRC32
10 82,3 [2DA086EF] [AE346BC4] CRC32
11 89,3 [D27353D7] [E7D31FEE] CRC32
12 90,3 [9424E8FC] [A7A5D1EE] CRC32
13 70,3 [9D07EC34] [537D397F] CRC32
14 70,2 [AF9C5E6D] [A57B6F22] CRC32
15 66,2 [623DEEA8] [F5D1B2C5] CRC32
16 76,0 [77047D10] [4F2FD92F] CRC32
17 77,7 [B3D8F746] [8BC6C583] CRC32
18 83,9 [9E784C11] [1D944031] CRC32
19 94,3 [6E43B580] [FB6601E7] CRC32
20 84,7 [5FD1AC0C] [8AAF9E87] CRC32
21 79,0 [BA60BD0D] [2455F4B0] CRC32
22 80,7 [8DB8ADC1] [2413BF8A] CRC32
23 89,0 [381E7BF9] [11633A4A] CRC32

foobar2000 1.2 / Dynamic Range Meter 1.1.1
log date: 2017-10-20 04:36:03

––––––––––––––––––––––––––––––––––––––––
Analyzed: Della Reese / The Jubilee Years CD2
––––––––––––––––––––––––––––––––––––––––

DR Peak RMS Duration Track
––––––––––––––––––––––––––––––––––––––––
DR12 -0.89 dB -16.68 dB 2:03 01-Sometime's I'm Happy
DR13 -2.53 dB -23.46 dB 4:09 02-Happiness Is a Thing Called Joe
DR12 -1.69 dB -18.33 dB 2:06 03-Almost Like Being in Love
DR14 -2.72 dB -23.79 dB 3:59 04-Someone to Watch over Me
DR13 -0.51 dB -18.17 dB 2:46 05-The Birth of the Blues
DR12 -1.77 dB -17.76 dB 1:50 06-Pennies from Heaven
DR12 -2.25 dB -18.97 dB 2:14 07-Getting to Know You
DR14 -2.06 dB -23.30 dB 3:13 08-If I Forget You
DR11 -1.27 dB -15.96 dB 1:54 09-All of Me
DR14 -1.69 dB -22.61 dB 3:11 10-The Nearness of You
DR12 -0.98 dB -15.95 dB 3:57 11-Just One of Those Things
DR12 -0.88 dB -18.67 dB 1:48 12-The Party's Over
DR12 -3.06 dB -18.45 dB 1:27 13-The Story of the Blues
DR13 -3.06 dB -19.71 dB 3:51 14-Good Morning Blues
DR13 -3.58 dB -20.66 dB 3:37 15-Empty Bed Blues
DR12 -2.38 dB -17.73 dB 3:13 16-Squeeze Me
DR13 -2.18 dB -18.79 dB 3:34 17-You've Been a Good Old Wagon
DR12 -1.52 dB -17.54 dB 2:28 18-Sent for You Yesterday
DR11 -0.51 dB -16.60 dB 3:56 19-St. James Infirmary
DR13 -1.44 dB -19.04 dB 3:43 20-Lover Man
DR12 -2.04 dB -17.37 dB 2:45 21-Things Ain't What They Used to Be
DR12 -1.86 dB -18.02 dB 4:10 22-Stormy Weather
DR13 -1.01 dB -18.24 dB 3:19 23-There's Always the Blues
––––––––––––––––––––––––––––––––––––––––

Number of tracks: 23
Official DR value: DR12

Samplerate: 44100 Hz
Channels: 2
Bits per sample: 16
Bitrate: 791 kbps
Codec: FLAC
================================================================================

Della Reese - The Jubilee Years (2010) 2 CDs

Della Reese - The Jubilee Years (2010) 2 CDs

All thanks to original releaser - leontrotsky

More interesting music in My Blog