Subcategories

Demis Roussos - On The Greek Side Of My Mind (1971)

Posted By: uff
Demis Roussos - On The Greek Side Of My Mind (1971)

Demis Roussos - On The Greek Side Of My Mind (1971)
Rock | 1cd | EAC Rip | Flac + Cue + Log | covers
BR Music, BR CD 94 | rel: 1989 | 305Mb

As Psychedelic as it was atmospheric, On The Greek Side Of My Mind is essential to The Aphrodite's Child jigsaw. And essential for any fan of Roussos. Before Greece's Progressive Rock legends Aphrodite's Child bowed out in 1972 with the double concept album 666, their singer Demis Roussos had already made his own, solo, concept album, On The Greek Side Of My Mind. He became an international star in 1973 with "Forever And Ever", but the unsung On The Greek Side Of My Mind was where his solo career began. Made with Aphrodite's Child lyricist Boris Bergman and French musicians as well as Aphrodite's Child drummer Lucas Sideras, On The Greek Side Of My Mind is the missing link between the band and his solo success - even though it was made while Aphrodite's Child were still going. On The Greek Side Of My Mind is a dramatic exploration of his roots, the legends of his home country and the journey he was on, weaving the themes of Greek folk into a rich orchestrated progressive pop that transports with its rich imagery.

Track listing
01. on the Greek side of my Mind (3:49)
02. She came up from the North (3:26)
03. Good days have Gone (3:42)
04. We shall Dance (3:30)
05. I know I'LL do it Again (2:48)
06. Fire and Ice (4:33)
07. No way Out (3:20)
08. End of the Line (2:10)
09. My blue Ship's A-Sailin (3:47)
10. Mountains Beyond (4:15)
11. O My Friends you've been untrue to Me (4:45)
12. Lord of the Flies (4:21)
13. Without You (1:58)


Exact Audio Copy V0.99 prebeta 5 from 4. May 2009

Отчёт EAC об извлечении, выполненном 22. апреля 2010, 23:09

Demis Roussos / on the Greek side of my Mind

Дисковод: HL-DT-STDVDRAM GSA-T20N Adapter: 1 ID: 0

Режим чтения : Достоверность
Использование точного потока : Да
Отключение кэша аудио : Да
Использование указателей C2 : Нет

Коррекция смещения при чтении : 667
Способность читать области Lead-in и Lead-out : Нет
Заполнение пропущенных сэмплов тишиной : Да
Удаление блоков с тишиной в начале и конце : Нет
При вычислениях CRC использовались нулевые сэмплы : Да
Интерфейс : Встроенный Win32-интерфейс для Win NT/2000

Выходной формат : Пользовательский кодировщик
Выбранный битрейт : 768 kBit/s
Качество : Высокий
Добавление ID3-тэга : Нет
Утилита сжатия : C:\Program Files\Exact Audio Copy\FLAC\FLAC.EXE
Дополнительные параметры : -8 -V %s


TOC извлечённого CD

Трек | Старт | Длительность | Начальный сектор | Конечный сектор
––––––––––––––––––––––––––––––––––-
1 | 0:00.33 | 3:51.50 | 33 | 17407
2 | 3:52.08 | 3:28.65 | 17408 | 33072
3 | 7:20.73 | 3:43.62 | 33073 | 49859
4 | 11:04.60 | 3:31.68 | 49860 | 65752
5 | 14:36.53 | 2:50.35 | 65753 | 78537
6 | 17:27.13 | 4:35.40 | 78538 | 99202
7 | 22:02.53 | 3:22.25 | 99203 | 114377
8 | 25:25.03 | 2:11.30 | 114378 | 124232
9 | 27:36.33 | 3:48.65 | 124233 | 141397
10 | 31:25.23 | 4:17.07 | 141398 | 160679
11 | 35:42.30 | 4:47.23 | 160680 | 182227
12 | 40:29.53 | 4:23.22 | 182228 | 201974
13 | 44:53.00 | 1:58.00 | 201975 | 210824


Характеристики диапазона извлечения и сообщения об ошибках

Выбранный диапазон

Имя файла D:\uTorrent.compl\Demis Roussos - 'On The Greek Side Of My Mind' 1971 ( 1st Sweden press )\Demis Roussos - on the Greek side of my Mind.wav

Пиковый уровень 92.4 %
Качество диапазона 100.0 %
CRC теста 19B55C12
CRC копии 19B55C12
Копирование… OK

Ошибок не произошло


AccurateRip: сводка

Трек 1 нет в базе данных
Трек 2 нет в базе данных
Трек 3 нет в базе данных
Трек 4 нет в базе данных
Трек 5 нет в базе данных
Трек 6 нет в базе данных
Трек 7 нет в базе данных
Трек 8 нет в базе данных
Трек 9 нет в базе данных
Трек 10 нет в базе данных
Трек 11 нет в базе данных
Трек 12 нет в базе данных
Трек 13 нет в базе данных

Ни одного трека нет в базе AccurateRip

Конец отчёта



[CUETools log; Date: 2016. 08. 20. 14:31:38; Version: 2.1.6]
Pregap length 00:00:33.
[AccurateRip ID: 001693a1-00e1edc0-bc0afb0d] found.
Track [ CRC | V2 ] Status
01 [cbc4fd7d|37bf77cb] (0+3/3) Accurately ripped
02 [7dd30a9d|6067510a] (0+3/3) Accurately ripped
03 [dcdfa7ae|6773d7a8] (0+3/3) Accurately ripped
04 [f255630f|7ee670f0] (0+3/3) Accurately ripped
05 [5e050f47|ce30de6b] (0+3/3) Accurately ripped
06 [fb7e6341|1a0b5bcb] (0+3/3) Accurately ripped
07 [7376fd3a|dcafaa1c] (0+3/3) Accurately ripped
08 [dbdd8848|8a4e3837] (0+3/3) Accurately ripped
09 [344aebc8|e53b06ed] (0+3/3) Accurately ripped
10 [31b2558c|a4885641] (0+3/3) Accurately ripped
11 [53a99cbe|f400a692] (0+3/3) Accurately ripped
12 [63f7f49e|3a2a7313] (0+3/3) Accurately ripped
13 [57249822|8318d4e4] (0+3/3) Accurately ripped

Track Peak [ CRC32 ] [W/O NULL]
– 92,4 [19B55C12] [AB6DD139]
01 75,8 [4ACC1AC4] [C00823A9]
02 83,8 [3635C1DD] [3548AD73]
03 92,4 [B25E44DB] [C173A398]
04 79,7 [BB313265] [E9141745]
05 88,1 [D8CB0363] [2CB7A577]
06 90,2 [89F8161F] [09E85110]
07 80,5 [74BE11A8] [CDC3DF7E]
08 81,1 [FF957A31] [3728706E]
09 84,4 [76147151] [08B8C2D0]
10 85,7 [DD3D56F8] [B722D24C]
11 86,1 [50D2F535] [CAB829D3]
12 82,5 [124B69F5] [762D494B]
13 71,0 [C8F964CA] [7325C71F]


Thx to kurok79
Bigfile
Datafile

password: asd