Dennis Chambers - Planet Earth (2005) {BHM}

Posted By: tiburon
Dennis Chambers - Planet Earth (2005) {BHM}

Dennis Chambers - Planet Earth (2005) {BHM}
EAC 0.99pb4 | FLAC tracks level 8 | Cue+Log+M3U | Full Scans 300dpi | 440MB + 5% Recovery
MP3 CBR 320 Kbps | 176MB + 5% Recovery
Genre: Jazz, Fusion, Jazz-Funk

A formidable and ultra-funky presence behind the kit, from Santana to Brecker Brothers, from George Clinton to John Scofield Dennis Chambers is everyone s choice for all-world drummer. On "PLANET EARTH" his third outing as a leader, he s supported by producer Jim Beard. The remarkably versatile drummer says This is the best one yet!
Among others this album features Kenny Garrett, Adam Rogers, Will Lee, Dean Brown, Anthony Jackson, Bob Malach, the Borneo Horns and Jim Beard.
Track List
01 Planet Earth (Sun Ra) 4:40
02 Dance Music For Borneo Horns #3 (Lenny Pickett) 2:24
03 Amos Ignored (Jim Beard) 4:40
04 Elroy (Adam Rogers) 6:06
05 El Is The Sound of Joy (Sun Ra) 5:03
06 Camel Hump (Dean Brown) 6:08
07 Dance Music For Borneo Horns #6 (Lenny Pickett) 4:19
08 Overtones of China (Sun Ra) 10:14
09 Giphini's Song (Jim Beard) 2:33
10 ANT (Adam Rogers) 4:34
11 Loose Bloose (Bill Evans) 6:20
12 Dance Music For Borneo Horns #4 (Lenny Pickett) 3:13

musicians
Drums – Dennis Chambers
Acoustic Guitar – Dean Brown (tracks: 9)
Alto Saxophone – Kenny Garrett (tracks: 3, 8, 11)
Alto Saxophone – Bob Malach (tracks: 5, ), Kenny Garrett (tracks: 3, 8, 11)
Bass Guitar – Anthony Jackson (tracks: 4, 10, 11)
Bass Guitar – Will Lee (tracks: 1, 3, 5, 6, 8, 9)
Bass Saxophone – Bob Malach (tracks: 3, 5, 8)
Clavinet – Jim Beard (tracks: 3, 6, 8)
Electric Piano – Jim Beard (tracks: 1, 6, 8, 10)
Flute – Bob Malach (tracks: 5, 8)
Guitar – Adam Rogers (2) (tracks: 4, 10, 11), Dean Brown (tracks: 1, 3, 5, 6, 8)
Horns – The Borneo Horns (tracks: 2, 7, 12)
Organ – Jim Beard (tracks: 1), Jim Beard (tracks: 3, 5)
Piano – Jim Beard (tracks: 5, 9)
Synthesizer – Jim Beard (tracks: 6)
Tenor Saxophone – Bob Malach (tracks: 1, 3, 5, 6, 8, 9)
Trombone – Mike Davis (tracks: 3, 5)
Trumpet – Jim Hynes (tracks: 3, 5)
The Borneo Horns:
Tenor Saxophone – Lenny Pickett (tracks: 2, 7, 12)
Alto Saxophone – Stan Harrison (tracks: 2, 7, 12)
Baritone Saxophone – Steve Elson (tracks: 2, 7, 12)

Produced by Jim Beard


Exact Audio Copy V0.99 prebeta 4 from 23. January 2008

EAC extraction logfile from 26. March 2009, 18:43

Dennis Chambers / Planet Earth

Used drive : TEAC CD-W540E Adapter: 6 ID: 0

Read mode : Secure
Utilize accurate stream : Yes
Defeat audio cache : Yes
Make use of C2 pointers : No

Read offset correction : 686
Overread into Lead-In and Lead-Out : No
Fill up missing offset samples with silence : Yes
Delete leading and trailing silent blocks : No
Null samples used in CRC calculations : Yes
Used interface : Native Win32 interface for Win NT & 2000
Gap handling : Appended to previous track

Used output format : User Defined Encoder
Selected bitrate : 1024 kBit/s
Quality : High
Add ID3 tag : No
Command line compressor : C:\Program Files (x86)\Exact Audio Copy\Flac\flac.exe
Additional command line options : -8 -V -T "ARTIST=%a" -T "TITLE=%t" -T "ALBUM=%g" -T "DATE=%y" -T "TRACKNUMBER=%n" -T "GENRE=%m" -T "COMMENT=EAC FLAC -8" %s


TOC of the extracted CD

Track | Start | Length | Start sector | End sector
––––––––––––––––––––––––––––-
1 | 0:00.00 | 4:40.01 | 0 | 21000
2 | 4:40.01 | 2:24.34 | 21001 | 31834
3 | 7:04.35 | 4:40.19 | 31835 | 52853
4 | 11:44.54 | 6:05.56 | 52854 | 80284
5 | 17:50.35 | 5:03.02 | 80285 | 103011
6 | 22:53.37 | 6:07.74 | 103012 | 130610
7 | 29:01.36 | 4:18.74 | 130611 | 150034
8 | 33:20.35 | 10:14.24 | 150035 | 196108
9 | 43:34.59 | 2:32.48 | 196109 | 207556
10 | 46:07.32 | 4:34.32 | 207557 | 228138
11 | 50:41.64 | 6:20.31 | 228139 | 256669
12 | 57:02.20 | 3:13.15 | 256670 | 271159


Track 1

Filename E:\upload for btmusic\Dennis Chambers - Planet Earth (2005) [FLAC]\01 - Planet Earth.wav

Pre-gap length 0:00:02.00

Peak level 98.7 %
Track quality 100.0 %
Test CRC 74EF96E9
Copy CRC 74EF96E9
Cannot be verified as accurate (confidence 4) [16B6211D], AccurateRip returned [F036D884]
Copy OK

Track 2

Filename E:\upload for btmusic\Dennis Chambers - Planet Earth (2005) [FLAC]\02 - Dance Music For Borneo Horns #3.wav

Peak level 98.7 %
Track quality 99.9 %
Test CRC 7C51D218
Copy CRC 7C51D218
Cannot be verified as accurate (confidence 4) [794064CB], AccurateRip returned [873D69C2]
Copy OK

Track 3

Filename E:\upload for btmusic\Dennis Chambers - Planet Earth (2005) [FLAC]\03 - Amos Ignored.wav

Peak level 98.7 %
Track quality 99.9 %
Test CRC BCF61494
Copy CRC BCF61494
Cannot be verified as accurate (confidence 4) [B107EAB3], AccurateRip returned [7E2B6B7B]
Copy OK

Track 4

Filename E:\upload for btmusic\Dennis Chambers - Planet Earth (2005) [FLAC]\04 - Elroy.wav

Peak level 98.7 %
Track quality 100.0 %
Test CRC 8E557728
Copy CRC 8E557728
Cannot be verified as accurate (confidence 4) [5904FBCA], AccurateRip returned [82027230]
Copy OK

Track 5

Filename E:\upload for btmusic\Dennis Chambers - Planet Earth (2005) [FLAC]\05 - El Is The Sound of Joy.wav

Peak level 98.7 %
Track quality 100.0 %
Test CRC 2D714CA3
Copy CRC 2D714CA3
Cannot be verified as accurate (confidence 4) [F8254510], AccurateRip returned [163B5030]
Copy OK

Track 6

Filename E:\upload for btmusic\Dennis Chambers - Planet Earth (2005) [FLAC]\06 - Camel Hump.wav

Peak level 98.7 %
Track quality 100.0 %
Test CRC D09E7426
Copy CRC D09E7426
Cannot be verified as accurate (confidence 4) [D2C4CDC3], AccurateRip returned [B16DDC23]
Copy OK

Track 7

Filename E:\upload for btmusic\Dennis Chambers - Planet Earth (2005) [FLAC]\07 - Dance Music For Borneo Horns #6.wav

Peak level 99.8 %
Track quality 99.9 %
Test CRC E7E211DF
Copy CRC E7E211DF
Cannot be verified as accurate (confidence 4) [4C6D47CC], AccurateRip returned [E0C86342]
Copy OK

Track 8

Filename E:\upload for btmusic\Dennis Chambers - Planet Earth (2005) [FLAC]\08 - Overtones of China.wav

Peak level 98.7 %
Track quality 99.9 %
Test CRC 41867F0C
Copy CRC 41867F0C
Cannot be verified as accurate (confidence 4) [B2E3CB03], AccurateRip returned [D71E1B58]
Copy OK

Track 9

Filename E:\upload for btmusic\Dennis Chambers - Planet Earth (2005) [FLAC]\09 - Giphini's Song.wav

Peak level 85.0 %
Track quality 100.0 %
Test CRC AB403643
Copy CRC AB403643
Cannot be verified as accurate (confidence 4) [83CCA292], AccurateRip returned [886836F1]
Copy OK

Track 10

Filename E:\upload for btmusic\Dennis Chambers - Planet Earth (2005) [FLAC]\10 - ANT.wav

Peak level 98.7 %
Track quality 100.0 %
Test CRC 12D48E22
Copy CRC 12D48E22
Cannot be verified as accurate (confidence 4) [50A6F63B], AccurateRip returned [76F9F96F]
Copy OK

Track 11

Filename E:\upload for btmusic\Dennis Chambers - Planet Earth (2005) [FLAC]\11 - Loose Bloose.wav

Peak level 98.7 %
Track quality 100.0 %
Test CRC 9EDE0368
Copy CRC 9EDE0368
Cannot be verified as accurate (confidence 4) [D79A6009], AccurateRip returned [DDBC0A81]
Copy OK

Track 12

Filename E:\upload for btmusic\Dennis Chambers - Planet Earth (2005) [FLAC]\12 - Dance Music For Borneo Horns #4.wav

Peak level 98.7 %
Track quality 100.0 %
Test CRC 563A190B
Copy CRC 563A190B
Cannot be verified as accurate (confidence 4) [3D3EB993], AccurateRip returned [AE57D515]
Copy OK


No tracks could be verified as accurate
You may have a different pressing from the one(s) in the database

No errors occurred

End of status report


––––––––––––––––––––––––––––––––––––––––
Analyzed: Dennis Chambers / Planet Earth
––––––––––––––––––––––––––––––––––––––––

DR Peak RMS Duration Track
––––––––––––––––––––––––––––––––––––––––
DR6 -0.11 dB -8.79 dB 4:40 01-Planet Earth
DR8 -0.11 dB -10.19 dB 2:24 02-Dance Music For Borneo Horns #3
DR7 -0.11 dB -8.68 dB 4:40 03-Amos Ignored
DR7 -0.11 dB -7.90 dB 6:06 04-Elroy
DR8 -0.11 dB -9.93 dB 5:03 05-El Is The Sound of Joy
DR7 -0.11 dB -9.22 dB 6:08 06-Camel Hump
DR8 -0.01 dB -10.01 dB 4:19 07-Dance Music For Borneo Horns #6
DR5 -0.11 dB -7.29 dB 10:14 08-Overtones of China
DR10 -1.41 dB -14.09 dB 2:33 09-Giphini's Song
DR9 -0.11 dB -9.97 dB 4:34 10-ANT
DR9 -0.11 dB -10.76 dB 6:20 11-Loose Bloose
DR8 -0.11 dB -9.82 dB 3:13 12-Dance Music For Borneo Horns #4
––––––––––––––––––––––––––––––––––––––––

Number of tracks: 12
Official DR value: DR8

Samplerate: 44100 Hz
Channels: 2
Bits per sample: 16
Bitrate: 950 kbps
Codec: FLAC
================================================================================

Dennis Chambers - Planet Earth (2005) {BHM}
Dennis Chambers - Planet Earth (2005) {BHM}
Dennis Chambers - Planet Earth (2005) {BHM}


Thanks to the original ripper