Subcategories

Devin Townsend Project - Ki (2009)

Posted By: Necromandus
Devin Townsend Project - Ki (2009)

Devin Townsend Project - Ki (2009)
EAC Rip | WV, IMG+CUE+LOG | 410 MB | MP3 CBR 320 Kbps | 160 MB | Complete Scans | 40 MB
Progressive Metal | Label: InsideOut/SPV | Catalog Number: SPV 28032 CD | RAR 3% Rec. | RS.com
… Released with booklet and label in 3-D print …

Devin Townsend is one nutty gentleman – as it's almost impossible to predict what his next stylistic move will be throughout his long and winding career. But no one – not even his most hardcore worshippers – could have predicted the approach he has taken on his first release of 2009, Ki. Equal parts restrained, melodic, and tranquil, this release is a sharp contrast to the wackoid metal of his Strapping Young Lad days – as evidenced by such tracks as "Coast," "Heaven Send," and "Winter." Supposedly, Ki is the first of a four-part series of recordings that Townsend plans on issuing in 2009, with the next one returning to his metal roots – with Ki serving as a "palate cleanser" of sorts for what's upcoming. While it's not the most gripping or groundbreaking album he has ever been a part of, Ki proves once and for all that Townsend is willing to take on any musical detour that feels right at the time. And with most rock acts wallowing in the quagmire of predictability (probably now more than ever), a fearless chap like Townsend is sorely needed.

~ by Greg Prato, allmusic.com
Tracklist:

1. A Monday - 1:43
2. Coast - 4:36
3. Disruptr - 5:49
4. Gato - 5:23
5. Terminal - 6:58
6. Heaven Send - 8:54
7. Ain't Never Gonna Win… - 3:17
8. Winter - 4:48
9. Trainfire - 5:58
10. Lady Helen - 6:05
11. Ki - 7:21
12. Quiet Riot - 3:02
13. Demon League - 2:55

Exact Audio Copy V0.99 prebeta 4 from 23. January 2008

EAC extraction logfile from 23. February 2010, 11:01

Devin Townsend Project / Ki

Used drive : SONY DVD RW AW-G170A Adapter: 0 ID: 0

Read mode : Secure
Utilize accurate stream : Yes
Defeat audio cache : Yes
Make use of C2 pointers : No

Read offset correction : 48
Overread into Lead-In and Lead-Out : No
Fill up missing offset samples with silence : Yes
Delete leading and trailing silent blocks : No
Null samples used in CRC calculations : Yes
Used interface : Installed external ASPI interface

Used output format : Internal WAV Routines
Sample format : 44.100 Hz; 16 Bit; Stereo


TOC of the extracted CD

Track | Start | Length | Start sector | End sector
––––––––––––––––––––––––––––-
1 | 0:00.00 | 1:42.45 | 0 | 7694
2 | 1:42.45 | 4:35.52 | 7695 | 28371
3 | 6:18.22 | 5:49.13 | 28372 | 54559
4 | 12:07.35 | 5:23.32 | 54560 | 78816
5 | 17:30.67 | 6:58.14 | 78817 | 110180
6 | 24:29.06 | 8:54.15 | 110181 | 150245
7 | 33:23.21 | 3:17.32 | 150246 | 165052
8 | 36:40.53 | 4:47.61 | 165053 | 186638
9 | 41:28.39 | 5:58.33 | 186639 | 213521
10 | 47:26.72 | 6:05.02 | 213522 | 240898
11 | 53:31.74 | 7:20.46 | 240899 | 273944
12 | 60:52.45 | 3:02.07 | 273945 | 287601
13 | 63:54.52 | 2:55.01 | 287602 | 300727


Range status and errors

Selected range

Filename D:\Music\Devin Townsend Project - Ki.wav

Peak level 99.8 %
Range quality 100.0 %
Test CRC EA78F102
Copy CRC EA78F102
Copy OK

No errors occurred


AccurateRip summary

Track 1 accurately ripped (confidence 15) [136795B4]
Track 2 accurately ripped (confidence 15) [D127FCA2]
Track 3 accurately ripped (confidence 14) [8AC73CF2]
Track 4 accurately ripped (confidence 15) [34F352B6]
Track 5 accurately ripped (confidence 15) [522D403A]
Track 6 accurately ripped (confidence 15) [6C76FAF7]
Track 7 accurately ripped (confidence 15) [A0B86B20]
Track 8 accurately ripped (confidence 15) [973C6DA3]
Track 9 accurately ripped (confidence 15) [DBF4036B]
Track 10 accurately ripped (confidence 15) [40C4075B]
Track 11 accurately ripped (confidence 15) [0D047E44]
Track 12 accurately ripped (confidence 15) [7EA5471B]
Track 13 accurately ripped (confidence 14) [05375612]

All tracks accurately ripped

End of status report

• Devin Townsend - vocals, guitar, fretless bass, ambience and programming
• Jean Savoie - bass and support
• Duris Maxwell - drums and guidance
• Dave Young - keyboards, piano, ambience and kick-ass-ery

Additional vocals - Che Dorval, Ryan Dahle, Bjorn, Christopher, Corey, Grant, Jeremy, Peter, Ryan.

Produced, mixed and engineered by Devin @ Devestate and Studio D.
Assisted by Adrian Mottrim (recording), Mike St-Jean (prepro) and Brennan Chambers (mix).
Mastered by T-roy @ Spectre.