Dexter Gordon - Go! (1962) {1999, Reissue, Remastered, RVG Edition}

Posted By: popsakov
Dexter Gordon - Go! (1962) {1999, Reissue, Remastered, RVG Edition}

Dexter Gordon - Go! (1999)
EAC Rip | FLAC (Img) + Cue + Log ~ 322 Mb | MP3 CBR320 ~ 123 Mb
Scans Included (JPG, 600 dpi) | RAR 5% Recovery
Jazz, Hard Bop, Saxophone | Blue Note #7243 4 98794 2 3
Remastered By Rudy Van Gelder

Go is the tenth studio album by jazz musician Dexter Gordon, recorded on August 27, 1962 and released in the same year on Blue Note. According to the liner notes by Ira Gitler, this session was "not recorded in a nightclub performance but, in its informal symmetry, it matches the relaxed atmosphere that the best of those made in that manner engender. Everyone was really together, in all the most positive meanings of that word." It was recorded by Rudy Van Gelder at the Van Gelder Studio in Englewood Cliffs. Since its release, Go has received very positive reviews from critics, with Allmusic giving it a five star rating. The album was re-released in March 1999 as part of Blue Note's RVG Series, produced by Michael Cuscuna.
~ Wiki


From the first moments when Dexter Gordon sails into the opening song full of brightness and confidence, it is obvious that Go is going to be one of those albums where everything just seems to come together magically. A stellar quartet including the stylish pianist Sonny Clark, the agile drummer Billy Higgins, and the solid yet flexible bassist Butch Warren are absolutely crucial in making this album work, but it is still Gordon who shines. Whether he is dropping quotes into "Three O'Clock in the Morning" or running around with spritely bop phrases in "Cheese Cake," the album pops and crackles with energy and exuberance. Beautiful ballads like "I Guess I'll Hang My Tears Out to Dry" metamorphosize that energy into emotion and passion, but you can still see it there nonetheless. Gordon had many high points in his five decade-long career, but this is certainly the peak of it all.
~ Stacia Proefrock, All Music

Dexter Gordon - Go! (1962) {1999, Reissue, Remastered, RVG Edition}


***************

Dexter Gordon - Go! (1962) {1999, Reissue, Remastered, RVG Edition}

Track List:

01. Cheese Cake [06:34]
02. I Guess I'll Hang My Tears Out To Dry [05:22]
03. Second Balcony Jump [07:06]
04. Love For Sale [07:38]
05. Where Are You [05:22]
06. Three O'Clock In The Morning [05:42]

Personnel:

Bass – Butch Warren
Drums – Billy Higgins
Piano – Sonny Clark
Tenor Saxophone – Dexter Gordon

Exact Audio Copy V1.0 beta 6 from 9. April 2015

EAC extraction logfile from 13. September 2015, 18:50

Dexter Gordon / Go!

Used drive : TSSTcorpCDDVDW SH-224DB Adapter: 1 ID: 0

Read mode : Secure
Utilize accurate stream : Yes
Defeat audio cache : Yes
Make use of C2 pointers : No

Read offset correction : 6
Overread into Lead-In and Lead-Out : No
Fill up missing offset samples with silence : Yes
Delete leading and trailing silent blocks : No
Null samples used in CRC calculations : Yes
Used interface : Native Win32 interface for Win NT & 2000

Used output format : User Defined Encoder
Selected bitrate : 1024 kBit/s
Quality : High
Add ID3 tag : No
Command line compressor : C:\Program Files (x86)\Exact Audio Copy\wavpack.exe
Additional command line options : -hm %source% %dest%


TOC of the extracted CD

Track | Start | Length | Start sector | End sector
––––––––––––––––––––––––––––-
1 | 0:00.00 | 6:33.56 | 0 | 29530
2 | 6:33.56 | 5:22.00 | 29531 | 53680
3 | 11:55.56 | 7:05.72 | 53681 | 85627
4 | 19:01.53 | 7:37.42 | 85628 | 119944
5 | 26:39.20 | 5:21.28 | 119945 | 144047
6 | 32:00.48 | 5:41.50 | 144048 | 169672


Range status and errors

Selected range

Filename G:\iso\Dexter Gordon - Go!\Dexter Gordon - Go!.wav

Peak level 97.9 %
Extraction speed 2.6 X
Range quality 100.0 %
Test CRC B05E5C0A
Copy CRC B05E5C0A
Copy OK

No errors occurred


AccurateRip summary

Track 1 accurately ripped (confidence 66) [4811FEDE] (AR v2)
Track 2 accurately ripped (confidence 66) [402D2573] (AR v2)
Track 3 accurately ripped (confidence 66) [398AC115] (AR v2)
Track 4 accurately ripped (confidence 66) [C7303859] (AR v2)
Track 5 accurately ripped (confidence 65) [CD2993F9] (AR v2)
Track 6 accurately ripped (confidence 66) [00DE9F6C] (AR v2)

All tracks accurately ripped

End of status report

–– CUETools DB Plugin V2.1.6

[CTDB TOCID: 4XXgE5CyDHi3aszCC1BMoRpEeaA-] found
Submit result: 4XXgE5CyDHi3aszCC1BMoRpEeaA- has been confirmed
Track | CTDB Status
1 | (89/89) Accurately ripped
2 | (89/89) Accurately ripped
3 | (87/89) Accurately ripped
4 | (89/89) Accurately ripped
5 | (89/89) Accurately ripped
6 | (89/89) Accurately ripped


==== Log checksum B6A5B2BCC77582B9C66033B5FE863C2DC6D84D9DE4C782F25D0E5774848A9BF9 ====

foobar2000 1.2.6 / Dynamic Range Meter 1.1.1
log date: 2016-05-11 17:48:12

––––––––––––––––––––––––––––––––––––––––
Analyzed: Dexter Gordon / Go!
––––––––––––––––––––––––––––––––––––––––

DR Peak RMS Duration Track
––––––––––––––––––––––––––––––––––––––––
DR10 -0.18 dB -10.83 dB 6:34 01-Cheese Cake
DR11 -0.18 dB -12.96 dB 5:22 02-I Guess I'll Hang My Tears Out To Dry
DR9 -0.18 dB -10.89 dB 7:06 03-Second Balcony Jump
DR9 -0.18 dB -10.59 dB 7:38 04-Love For Sale
DR10 -0.18 dB -11.83 dB 5:21 05-Where Are You
DR10 -0.18 dB -11.54 dB 5:42 06-Three O'Clock In The Morning
––––––––––––––––––––––––––––––––––––––––

Number of tracks: 6
Official DR value: DR10

Samplerate: 44100 Hz
Channels: 2
Bits per sample: 16
Bitrate: 1016 kbps
Codec: FLAC
================================================================================

[CUETools log; Date: 11.05.2016 17:48:07; Version: 2.1.5]
[CTDB TOCID: 4XXgE5CyDHi3aszCC1BMoRpEeaA-] found.
Track | CTDB Status
1 | (122/122) Accurately ripped
2 | (122/122) Accurately ripped
3 | (120/122) Accurately ripped
4 | (122/122) Accurately ripped
5 | (122/122) Accurately ripped
6 | (122/122) Accurately ripped
[AccurateRip ID: 0009318a-00310c06-4108d606] found.
Track [ CRC | V2 ] Status
01 [51f01015|4811fede] (025+071/214) Accurately ripped
02 [82081981|402d2573] (025+071/215) Accurately ripped
03 [76c6b1a4|398ac115] (025+071/215) Accurately ripped
04 [9032977a|c7303859] (025+071/215) Accurately ripped
05 [794ce3fc|cd2993f9] (025+070/212) Accurately ripped
06 [2ab56287|00de9f6c] (025+071/215) Accurately ripped
Offsetted by -68:
01 [a2adf4bd] (007/214) Accurately ripped
02 [fe21468d] (007/215) Accurately ripped
03 [b4df64c4] (007/215) Accurately ripped
04 [f8ffb972] (007/215) Accurately ripped
05 [89bea400] (007/212) Accurately ripped
06 [c8d3f34b] (007/215) Accurately ripped
Offsetted by 18:
01 [c4182661] (053/214) Accurately ripped
02 [68b6242b] (054/215) Accurately ripped
03 [8474dc94] (054/215) Accurately ripped
04 [21a1f05e] (054/215) Accurately ripped
05 [fc7a130a] (053/212) Accurately ripped
06 [449e3c35] (054/215) Accurately ripped
Offsetted by 609:
01 [e83c57cb] (000/214) No match (V2 was not tested)
02 [5408824e] (000/215) No match (V2 was not tested)
03 [704b5e5c] (000/215) No match (V2 was not tested)
04 [1e14819c] (000/215) No match (V2 was not tested)
05 [cf7046ab] (000/212) No match (V2 was not tested)
06 [1750d206] (000/215) No match (V2 was not tested)

Track Peak [ CRC32 ] [W/O NULL] [ LOG ]
– 97,9 [B05E5C0A] [718C8038] CRC32
01 97,9 [BD7F829F] [D82845F5]
02 97,9 [EC581F53] [D2CD84C9]
03 97,9 [FE7E5A25] [5E6002C3]
04 97,9 [E7D8A469] [E98150C5]
05 97,9 [BCD73A81] [2565609F]
06 97,9 [8944EAEF] [61C4A1DC]

Dexter Gordon - Go! (1962) {1999, Reissue, Remastered, RVG Edition}

Dexter Gordon - Go! (1962) {1999, Reissue, Remastered, RVG Edition}

All thanks go to the original ripper(s) …

Visit my blog!

Download:
Nitroflare: FLAC | mp3
Salefiles: FLAC | mp3