Subcategories

Diana Ross - Almighty Presents: We Love Diana Ross (The Remix Collection) [3CD] (2009)

Posted By: BlondStyle
Diana Ross - Almighty Presents: We Love Diana Ross (The Remix Collection) [3CD] (2009)

Diana Ross - Almighty Presents: We Love Diana Ross (The Remix Collection) [3CD] (2009)
R&B, Soul/Funk, Electronic | EAC Rip | FLAC, Img+CUE+LOG+Scans (JPEG) | 02:35:40 h. | 1,24 Gb
Label: Almighty Records Ltd. (UK) | Cat.# ALMYPRCD71 | Released: 2009-11-16

Almighty Records made a fantastic job of updating Diana Ross classics for the modern dancefloor.
Diana Ross - Almighty Presents: We Love Diana Ross (The Remix Collection) [3CD] (2009)

Diana Ross - Almighty Presents: We Love Diana Ross (The Remix Collection) [3CD] (2009)


Release of this 3CD-R Set: 2009, November, 7 [CD Almighty Records Ltd. (UK), Cat.# ALMYPRCD71 / UPC: no barcode]
℗© 2009 Almighty Records Ltd.
Made in England

Tracklist:

Disc 1

01. Love Hangover (Almighty 12 Inch Mix) (11:24)
02. The Boss (Almighty 12 Inch Essential Mix) (07:45)
03. I'm Coming Out (Almighty 12 Inch Anthem Mix) (08:05)
04. Remember Me (Almighty 12 Inch Anthem Mix) (07:51)
05. No-One Gets The Prize (Almighty 12 Inch Anthem Radio Edit) (04:04)
06. Ain't No Mountain High Enough (Almighty 12 Inch Essential Mix) (08:12)
07. I Thought It Took A Little Time (Almighty 12 Inch Anthem Radio Edit) (03:56)

Disc 2

01. Lovin', Livin' And Givin' (Almighty Definitive Mix) (07:53)
02. Upside Down (Almighty 12 Inch Anthem Mix) (07:28)
03. Surrender (Almighty Anthem Album Mix) (03:47)
04. Touch Me In The Morning (Almighty Definitive Mix) (07:10)
05. I'm Still Waiting (Almighty Breeze Mix) (04:49)
06. Reach Out And Touch (Somebody's Hand) (Almighty Breeze Mix) (05:10)

Disc 3

01. In The Mix (01:08:07)
a. Love Hangover
b. Upside Down
c. I'm Coming Out
d. I'm Still Waiting
e. Is Not No Mountain High Enough
f. The Boss
g. Remember Me
h. I Thought It Took A Little Time
i. No-One Gets The Prize
j. Reach Out And Touch (Somebody's Hand)
k. Touch Me In The Morning
q. Lovin', Livin' And Givin'

Exact Audio Copy V1.3 from 2. September 2016

Отчёт EAC об извлечении, выполненном 5. июня 2017, 18:47

Diana Ross / We Love Diana Ross (CD1)

Дисковод: Optiarc DVD RW AD-7243S Adapter: 1 ID: 0

Режим чтения : Достоверность
Использование точного потока : Да
Отключение кэша аудио : Да
Использование указателей C2 : Нет

Коррекция смещения при чтении : 48
Способность читать области Lead-in и Lead-out : Нет
Заполнение пропущенных сэмплов тишиной : Да
Удаление блоков с тишиной в начале и конце : Нет
При вычислениях CRC использовались нулевые сэмплы : Да
Интерфейс : Встроенный Win32-интерфейс для Win NT/2000

Выходной формат : Пользовательский кодировщик
Выбранный битрейт : 768 kBit/s
Качество : Высокий
Добавление ID3-тега : Нет
Утилита сжатия : C:\Program Files (x86)\Exact Audio Copy\FLAC\FLAC.EXE
Дополнительные параметры : -6 -V -T "ARTIST=%artist%" -T "TITLE=%title%" -T "ALBUM=%albumtitle%" -T "DATE=%year%" -T "TRACKNUMBER=%tracknr%" -T "GENRE=%genre%" -T "COMMENT=%comment%" -T "BAND=%albuminterpret%" -T "ALBUMARTIST=%albuminterpret%" -T "COMPOSER=%composer%" %haslyrics%–tag-from-file=LYRICS="%lyricsfile%"%haslyrics% -T "DISCNUMBER=%cdnumber%" -T "TOTALDISCS=%totalcds%" -T "TOTALTRACKS=%numtracks%" %hascover%–picture="%coverfile%"%hascover% %source% -o %dest%


TOC извлечённого CD

Трек | Старт | Длительность | Начальный сектор | Конечный сектор
––––––––––––––––––––––––––––––––––-
1 | 0:00.00 | 11:24.19 | 0 | 51318
2 | 11:24.19 | 7:44.50 | 51319 | 86168
3 | 19:08.69 | 8:04.49 | 86169 | 122517
4 | 27:13.43 | 7:51.15 | 122518 | 157857
5 | 35:04.58 | 4:03.41 | 157858 | 176123
6 | 39:08.24 | 8:11.64 | 176124 | 213012
7 | 47:20.13 | 3:55.42 | 213013 | 230679


Характеристики диапазона извлечения и сообщения об ошибках

Выбранный диапазон

Имя файла G:\Временная\Diana Ross - We Love Diana Ross (CD1).wav

Пиковый уровень 98.9 %
Скорость извлечения 3.9 X
Качество диапазона 99.9 %
CRC теста 9256AF10
CRC копии 9256AF10
Копирование… OK

Ошибок не произошло


AccurateRip: сводка

Трек 1 отсутствует в базе данных
Трек 2 отсутствует в базе данных
Трек 3 отсутствует в базе данных
Трек 4 отсутствует в базе данных
Трек 5 отсутствует в базе данных
Трек 6 отсутствует в базе данных
Трек 7 отсутствует в базе данных

Ни одного трека нет в базе AccurateRip

Конец отчёта

==== Контрольная сумма отчёта AA56A412D289B3A366D63BCF64C16D73E9886DF4EE163C8FF2643FA04BEBFD98 ====

––––––––––––––––––––––––––––––––––––––––
Analyzed: Diana Ross / We Love Diana Ross (CD1)
––––––––––––––––––––––––––––––––––––––––

DR Peak RMS Duration Track
––––––––––––––––––––––––––––––––––––––––
DR7 -0.10 dB -8.80 dB 11:24 01-Love Hangover (Almighty 12' Mix)
DR6 -0.10 dB -7.47 dB 7:45 02-The Boss (Almighty 12' Essential Mix)
DR6 -0.10 dB -8.03 dB 8:05 03-I'm Coming Out (Almighty 12' Anthem Mix)
DR6 -0.10 dB -7.11 dB 7:51 04-Remember Me (Almighty 12' Anthem Mix)
DR5 -0.10 dB -6.96 dB 4:04 05-No-One Gets The Prize (Almighty Anthem Radio Edit)
DR6 -0.10 dB -7.21 dB 8:12 06-Ain't No Mountain High Enough (Almighty 12' Essential Mix)
DR6 -0.10 dB -6.93 dB 3:56 07-I Thought It Took A Little Time (Almighty Anthem Radio Edit)
––––––––––––––––––––––––––––––––––––––––

Number of tracks: 7
Official DR value: DR6

Samplerate: 44100 Hz
Channels: 2
Bits per sample: 16
Bitrate: 1024 kbps
Codec: FLAC
================================================================================

Exact Audio Copy V1.3 from 2. September 2016

Отчёт EAC об извлечении, выполненном 5. июня 2017, 21:24

Diana Ross / We Love Diana Ross (CD2)

Дисковод: Optiarc DVD RW AD-7243S Adapter: 1 ID: 0

Режим чтения : Достоверность
Использование точного потока : Да
Отключение кэша аудио : Да
Использование указателей C2 : Нет

Коррекция смещения при чтении : 48
Способность читать области Lead-in и Lead-out : Нет
Заполнение пропущенных сэмплов тишиной : Да
Удаление блоков с тишиной в начале и конце : Нет
При вычислениях CRC использовались нулевые сэмплы : Да
Интерфейс : Встроенный Win32-интерфейс для Win NT/2000

Выходной формат : Пользовательский кодировщик
Выбранный битрейт : 768 kBit/s
Качество : Высокий
Добавление ID3-тега : Нет
Утилита сжатия : C:\Program Files (x86)\Exact Audio Copy\FLAC\FLAC.EXE
Дополнительные параметры : -6 -V -T "ARTIST=%artist%" -T "TITLE=%title%" -T "ALBUM=%albumtitle%" -T "DATE=%year%" -T "TRACKNUMBER=%tracknr%" -T "GENRE=%genre%" -T "COMMENT=%comment%" -T "BAND=%albuminterpret%" -T "ALBUMARTIST=%albuminterpret%" -T "COMPOSER=%composer%" %haslyrics%–tag-from-file=LYRICS="%lyricsfile%"%haslyrics% -T "DISCNUMBER=%cdnumber%" -T "TOTALDISCS=%totalcds%" -T "TOTALTRACKS=%numtracks%" %hascover%–picture="%coverfile%"%hascover% %source% -o %dest%


TOC извлечённого CD

Трек | Старт | Длительность | Начальный сектор | Конечный сектор
––––––––––––––––––––––––––––––––––-
1 | 0:00.00 | 7:53.17 | 0 | 35491
2 | 7:53.17 | 7:28.23 | 35492 | 69114
3 | 15:21.40 | 3:47.15 | 69115 | 86154
4 | 19:08.55 | 7:09.66 | 86155 | 118395
5 | 26:18.46 | 4:48.42 | 118396 | 140037
6 | 31:07.13 | 5:09.49 | 140038 | 163261


Характеристики диапазона извлечения и сообщения об ошибках

Выбранный диапазон

Имя файла G:\Временная\Diana Ross - We Love Diana Ross (CD2).wav

Пиковый уровень 98.3 %
Скорость извлечения 3.5 X
Качество диапазона 99.9 %
CRC теста D9C95806
CRC копии D9C95806
Копирование… OK

Ошибок не произошло


AccurateRip: сводка

Трек 1 отсутствует в базе данных
Трек 2 отсутствует в базе данных
Трек 3 отсутствует в базе данных
Трек 4 отсутствует в базе данных
Трек 5 отсутствует в базе данных
Трек 6 отсутствует в базе данных

Ни одного трека нет в базе AccurateRip

Конец отчёта

==== Контрольная сумма отчёта B00B27D56113EFC0FD979CFF015F0E7683B1D78EDB27526A6E614BBA02B96249 ====

––––––––––––––––––––––––––––––––––––––––
Analyzed: Diana Ross / We Love Diana Ross (CD2)
––––––––––––––––––––––––––––––––––––––––

DR Peak RMS Duration Track
––––––––––––––––––––––––––––––––––––––––
DR5 -0.90 dB -7.07 dB 7:53 01-Lovin', Livin' And Givin' (Almighty Definitive Mix)
DR7 -0.22 dB -8.07 dB 7:28 02-Upside Down (Almighty 12' Anthem Mix)
DR6 -0.32 dB -7.15 dB 3:47 03-Surrender (Almighty Anthem Album Mix)
DR5 -0.25 dB -7.32 dB 7:10 04-Touch Me In The Morning (Almighty Definitive Mix)
DR6 -0.34 dB -8.42 dB 4:49 05-I'm Still Waiting (Almighty Breeze Mix)
DR6 -0.15 dB -8.32 dB 5:10 06-Reach Out And Touch (Somebody's Hand) (Almighty Breeze Mix)
––––––––––––––––––––––––––––––––––––––––

Number of tracks: 6
Official DR value: DR6

Samplerate: 44100 Hz
Channels: 2
Bits per sample: 16
Bitrate: 1041 kbps
Codec: FLAC
================================================================================

Exact Audio Copy V1.3 from 2. September 2016

Отчёт EAC об извлечении, выполненном 5. июня 2017, 20:33

Diana Ross / We Love Diana Ross (CD3)

Дисковод: Optiarc DVD RW AD-7243S Adapter: 1 ID: 0

Режим чтения : Достоверность
Использование точного потока : Да
Отключение кэша аудио : Да
Использование указателей C2 : Нет

Коррекция смещения при чтении : 48
Способность читать области Lead-in и Lead-out : Нет
Заполнение пропущенных сэмплов тишиной : Да
Удаление блоков с тишиной в начале и конце : Нет
При вычислениях CRC использовались нулевые сэмплы : Да
Интерфейс : Встроенный Win32-интерфейс для Win NT/2000

Выходной формат : Пользовательский кодировщик
Выбранный битрейт : 768 kBit/s
Качество : Высокий
Добавление ID3-тега : Нет
Утилита сжатия : C:\Program Files (x86)\Exact Audio Copy\FLAC\FLAC.EXE
Дополнительные параметры : -6 -V -T "ARTIST=%artist%" -T "TITLE=%title%" -T "ALBUM=%albumtitle%" -T "DATE=%year%" -T "TRACKNUMBER=%tracknr%" -T "GENRE=%genre%" -T "COMMENT=%comment%" -T "BAND=%albuminterpret%" -T "ALBUMARTIST=%albuminterpret%" -T "COMPOSER=%composer%" %haslyrics%–tag-from-file=LYRICS="%lyricsfile%"%haslyrics% -T "DISCNUMBER=%cdnumber%" -T "TOTALDISCS=%totalcds%" -T "TOTALTRACKS=%numtracks%" %hascover%–picture="%coverfile%"%hascover% %source% -o %dest%


TOC извлечённого CD

Трек | Старт | Длительность | Начальный сектор | Конечный сектор
––––––––––––––––––––––––––––––––––-
1 | 0:00.00 | 68:07.37 | 0 | 306561


Характеристики диапазона извлечения и сообщения об ошибках

Выбранный диапазон

Имя файла G:\Временная\Diana Ross - We Love Diana Ross (CD3).wav

Пиковый уровень 98.9 %
Скорость извлечения 4.2 X
Качество диапазона 99.9 %
CRC теста 8C0D4AD6
CRC копии 8C0D4AD6
Копирование… OK

Ошибок не произошло


AccurateRip: сводка

Трек 1 отсутствует в базе данных

Ни одного трека нет в базе AccurateRip

Конец отчёта

==== Контрольная сумма отчёта 1FD971636C1108C2FC48AC310317A8DBC7F2FB6F23BA4A0631B722E395A3EBE0 ====

––––––––––––––––––––––––––––––––––––––––
Statistics for: 01-In The Mix
Number of samples: 180258456
Duration: 1:08:07
––––––––––––––––––––––––––––––––––––––––

Left Right

Peak Value: -0.09 dB –- -0.10 dB
Avg RMS: -8.45 dB –- -8.40 dB
DR channel: 6.91 dB –- 6.84 dB
––––––––––––––––––––––––––––––––––––––––

Official DR Value: DR7

Samplerate: 44100 Hz
Channels: 2
Bits per sample: 16
Bitrate: 1082 kbps
Codec: FLAC
================================================================================

All thanks to avtouriki

password: BlondStyle