Subcategories

Diana Ross - The Motown Anthology [2CD] (2001) [Original Recording Remastered]

Posted By: BlondStyle
Diana Ross - The Motown Anthology [2CD] (2001) [Original Recording Remastered]

Diana Ross - The Motown Anthology [2CD] (2001) [Original Recording Remastered]
Motown, Pop-Soul, Disco, Urban | EAC Rip | FLAC, Img+CUE + LOG + Full Scans-600dpi | 77:47+78:49 Min | 556,55+572,08 Mb
Label: Motown / A Universal Music Company (US) | Released: 2001, March, 27
Diana Ross - The Motown Anthology [2CD] (2001) [Original Recording Remastered]

Looking for a thorough collection of Diana Ross's post-Supremes material? Your search ends here. This 38-track compilation includes all of her well-known solo singles, as well as rare unreleased works,set in chronological order. From the oldies standards through to her more dance-flavored 1980s jams, it's all here - over two hours of music from an unparalleled legend. Spanning 30 years and encompassing 38 tracks, including some rescued from the vaults, this anthology of Miss Ross's solo output is essential for any diva wannabe. The hits alone will keep a fan satisfied. And what hits: "Ain't No Mountain High Enough," "Reach out and Touch," "Theme from Mahogany," the still sublime "Love Hangover," the endlessly sampled and still funky "Upside Down," and "Good Morning Heartache" from Lady Sings the Blues, are just a few of the jewels in Ross's musical crown. Among the rarities that help make this collection a treat is a previously unreleased cover of Laura Nyro's wise and soulful "Time and Love," which back in 1970 was slated to be Ross's debut solo single. Sounding girlish and joyful, the cut, like the rest of this collection, reminds you why Diana Ross remains a touchstone for female pop and R&B. Up until this release, consumers had a difficult task of finding a definitive compilation highlighting the post-Supremes career of Diana Ross - mainly because there wasn't one. This double-disc set gathers 27 of the diva's finest solo sides, plus an additional 11 tracks that are making their domestic debut. As a retrospective, The Motown Anthology succeeds in gathering all of Ross' major singles. Some are available here in a previously unissued form. Such is the case for "Remember Me," "My Mistake (Was to Love You)," and "Lovin' Livin' & Givin'" - from the Thank God It's Friday soundtrack. Those looking for chart-toppers should note that The Motown Anthology not only delivers rare material, but also all the hits that would render most other collections superfluous. The producers have also hit upon a favorable ratio of hits to rarities. After covering all the bases on the popular and familiar material, the previously unearthed nuggets - which are spread throughout the chronologically organized set - are a treat for both the intense as well as the casual fan. Of particular note is the leadoff track "Time and Love" - a Laura Nyro composition which had been scheduled, and then withdrawn, as Ross' first solo single. The sound is uniformly excellent with the caveat that some of the early recordings on disc one - "Reach Out and Touch (Somebody's Hand)" for example - never were known for their fidelity. Likewise, the sound of mid-to-late '70s tracks such as "Love Hangover" and "The Boss" are marked improvements. Clocking in at over two and a half hours, The Motown Anthology is a tremendous value.
Release of this CD Set: 2001, March, 27 (EAN: 0044001358326)
Label: ℗&© 2001 Motown Record Company
CD Set distributed by: Universal Music & Video Distribution, Inc. (USA)

Diana Ross - The Motown Anthology [2CD] (2001) [Original Recording Remastered]


Tracklist:

DISC 1:

01. Time And Love - 03:58
02. Reach Out And Touch (Somebody's Hand) - 03:06
03. Ain't No Mountain High Enough (Single Version) - 03:31
04. Remember Me (Alternate Vocal Version) - 03:41
05. Reach Out, I'll Be There - 05:35
06. Surrender - 02:45
07. I'm Still Waiting - 03:46
08. DoobeDood 'nDoobe, DoobeDood 'nDoobe, DoobeDood 'nDoo - 04:54
09. Good Morning Heartache - 02:22
10. Touch Me In The Morning - 03:53
11. My Mistake (Was To Love You) (Duet with Marvin Gaye) (Alternate Mix) - 03:00
12. Last Time I Saw Him (Unedited Version) - 03:42
13. Sorry Doesn't Always Make It Right (Single Version) - 03:33
14. Theme From Mahogany (Do You Know Where You're Going To) - 03:24
15. I Thought It Took A Little Time (But Today I Fell In Love) (Single Version) - 03:22
16. Love Hangover - 07:49
17. One Love In My Lifetime (Single Version) - 04:05
18. Gettin' Ready For Love - 02:48
19. Lovin', Livin' And Givin' (Unedited 'TGIF' Mix) - 04:51
20. Home (Motown Version) - 03:42

DISC 2:

01. The Boss - 03:55
02. It's My House - 04:32
03. No One Gets The Prize (12-Inch Mix) - 06:22
04. Upside Down - 04:05
05. I'm Coming Out - 05:23
06. It's My Turn - 03:58
07. Stay With Me - 03:43
08. One More Chance - 04:24
09. Endless Love (Duet with Lionel Richie) - 04:29
10. We Can Never Light That Old Flame Again (Non-LP Single) - 04:21
11. Old Funky Rolls (Non-LP Single) - 03:41
12. If We Hold On Together - 04:11
13. Workin' Overtime (Radio Edit) - 04:21.
14. When You Tell Me That You Love Me - 04:12
15. The Best Years Of My Life - 04:24
16. Take Me Higher - 04:17
17. I Will Survive - 04:48
18. Until We Meet Again (Love To Infinity Remix) (Radio Edit) - 03:43

Exact Audio Copy V1.0 beta 3 from 29. August 2011

EAC extraction logfile from 4. November 2011, 19:12

Diana Ross / The Motown Anthology (Disc 1)

Used drive : ATAPI DVD DW 8X16X8X16 Adapter: 0 ID: 2

Read mode : Secure
Utilize accurate stream : Yes
Defeat audio cache : Yes
Make use of C2 pointers : No

Read offset correction : 618
Overread into Lead-In and Lead-Out : No
Fill up missing offset samples with silence : Yes
Delete leading and trailing silent blocks : No
Null samples used in CRC calculations : Yes
Used interface : Native Win32 interface for Win NT & 2000

Used output format : Internal WAV Routines
Sample format : 44.100 Hz; 16 Bit; Stereo


TOC of the extracted CD

Track | Start | Length | Start sector | End sector
––––––––––––––––––––––––––––-
1 | 0:00.00 | 3:58.72 | 0 | 17921
2 | 3:58.72 | 3:06.23 | 17922 | 31894
3 | 7:05.20 | 3:31.57 | 31895 | 47776
4 | 10:37.02 | 3:41.10 | 47777 | 64361
5 | 14:18.12 | 5:35.35 | 64362 | 89521
6 | 19:53.47 | 2:45.25 | 89522 | 101921
7 | 22:38.72 | 3:46.38 | 101922 | 118909
8 | 26:25.35 | 4:54.22 | 118910 | 140981
9 | 31:19.57 | 2:22.20 | 140982 | 151651
10 | 33:42.02 | 3:53.18 | 151652 | 169144
11 | 37:35.20 | 3:00.20 | 169145 | 182664
12 | 40:35.40 | 3:42.20 | 182665 | 199334
13 | 44:17.60 | 3:33.25 | 199335 | 215334
14 | 47:51.10 | 3:24.15 | 215335 | 230649
15 | 51:15.25 | 3:22.05 | 230650 | 245804
16 | 54:37.30 | 7:49.00 | 245805 | 280979
17 | 62:26.30 | 4:05.40 | 280980 | 299394
18 | 66:31.70 | 2:48.05 | 299395 | 311999
19 | 69:20.00 | 4:51.22 | 312000 | 333846
20 | 74:11.22 | 3:42.50 | 333847 | 350546


Range status and errors

Selected range

Filename C:\BlondStyle\Disc 1.wav

Peak level 100.0 %
Extraction speed 9.8 X
Range quality 100.0 %
Test CRC 04971644
Copy CRC 04971644
Copy OK

No errors occurred


AccurateRip summary

Track 1 accurately ripped (confidence 2) [D52FE35D] (AR v1)
Track 2 accurately ripped (confidence 2) [C3A5EDA2] (AR v1)
Track 3 accurately ripped (confidence 2) [697D6ADE] (AR v1)
Track 4 accurately ripped (confidence 2) [D8D44C08] (AR v1)
Track 5 accurately ripped (confidence 2) [8310B72C] (AR v1)
Track 6 accurately ripped (confidence 2) [CC2A2179] (AR v1)
Track 7 accurately ripped (confidence 2) [649A157C] (AR v1)
Track 8 accurately ripped (confidence 2) [3C2BB293] (AR v1)
Track 9 accurately ripped (confidence 2) [AB9BB700] (AR v1)
Track 10 accurately ripped (confidence 2) [C8915567] (AR v1)
Track 11 accurately ripped (confidence 2) [5447435B] (AR v1)
Track 12 accurately ripped (confidence 2) [5AE55CDA] (AR v1)
Track 13 accurately ripped (confidence 2) [2E45D9F7] (AR v1)
Track 14 accurately ripped (confidence 2) [C0B0CF67] (AR v1)
Track 15 accurately ripped (confidence 2) [551A3953] (AR v1)
Track 16 accurately ripped (confidence 2) [F260F58A] (AR v1)
Track 17 accurately ripped (confidence 2) [0B852D78] (AR v1)
Track 18 accurately ripped (confidence 2) [2305BA24] (AR v1)
Track 19 accurately ripped (confidence 2) [8030951E] (AR v1)
Track 20 accurately ripped (confidence 2) [D65ADB02] (AR v1)

All tracks accurately ripped

End of status report

==== Log checksum 349105CB24D8A54BA31CA67ED75FDC06BF6966F10696F364FDCA5822090D58DA ====

Exact Audio Copy V1.0 beta 3 from 29. August 2011

EAC extraction logfile from 4. November 2011, 20:38

Diana Ross / The Motown Anthology (Disc 2)

Used drive : ATAPI DVD DW 8X16X8X16 Adapter: 0 ID: 2

Read mode : Secure
Utilize accurate stream : Yes
Defeat audio cache : Yes
Make use of C2 pointers : No

Read offset correction : 618
Overread into Lead-In and Lead-Out : No
Fill up missing offset samples with silence : Yes
Delete leading and trailing silent blocks : No
Null samples used in CRC calculations : Yes
Used interface : Native Win32 interface for Win NT & 2000

Used output format : Internal WAV Routines
Sample format : 44.100 Hz; 16 Bit; Stereo


TOC of the extracted CD

Track | Start | Length | Start sector | End sector
––––––––––––––––––––––––––––-
1 | 0:00.00 | 3:55.00 | 0 | 17624
2 | 3:55.00 | 4:32.70 | 17625 | 38094
3 | 8:27.70 | 6:22.52 | 38095 | 66796
4 | 14:50.47 | 4:05.65 | 66797 | 85236
5 | 18:56.37 | 5:23.58 | 85237 | 109519
6 | 24:20.20 | 3:58.62 | 109520 | 127431
7 | 28:19.07 | 3:43.60 | 127432 | 144216
8 | 32:02.67 | 4:24.20 | 144217 | 164036
9 | 36:27.12 | 4:29.03 | 164037 | 184214
10 | 40:56.15 | 4:21.05 | 184215 | 203794
11 | 45:17.20 | 3:41.37 | 203795 | 220406
12 | 48:58.57 | 4:11.50 | 220407 | 239281
13 | 53:10.32 | 4:21.38 | 239282 | 258894
14 | 57:31.70 | 4:12.27 | 258895 | 277821
15 | 61:44.22 | 4:24.55 | 277822 | 297676
16 | 66:09.02 | 4:17.73 | 297677 | 317024
17 | 70:27.00 | 4:48.07 | 317025 | 338631
18 | 75:15.07 | 3:43.23 | 338632 | 355379


Range status and errors

Selected range

Filename C:\BlondStyle\Disc 2.wav

Peak level 100.0 %
Extraction speed 9.9 X
Range quality 100.0 %
Test CRC 1217B3F5
Copy CRC 1217B3F5
Copy OK

No errors occurred


AccurateRip summary

Track 1 accurately ripped (confidence 4) [0A2D14F4] (AR v1)
Track 2 accurately ripped (confidence 5) [AA708E99] (AR v1)
Track 3 accurately ripped (confidence 5) [EB57D3FE] (AR v1)
Track 4 accurately ripped (confidence 5) [4F51D542] (AR v1)
Track 5 accurately ripped (confidence 5) [CEED0F1B] (AR v1)
Track 6 accurately ripped (confidence 5) [3894F78D] (AR v1)
Track 7 accurately ripped (confidence 5) [383AE7F7] (AR v1)
Track 8 accurately ripped (confidence 5) [9B7736B9] (AR v1)
Track 9 accurately ripped (confidence 5) [430C9306] (AR v1)
Track 10 accurately ripped (confidence 5) [C2A913A7] (AR v1)
Track 11 accurately ripped (confidence 5) [7E18798A] (AR v1)
Track 12 accurately ripped (confidence 5) [FBF00703] (AR v1)
Track 13 accurately ripped (confidence 5) [7522E087] (AR v1)
Track 14 accurately ripped (confidence 5) [2115E26A] (AR v1)
Track 15 accurately ripped (confidence 5) [4BECDCC4] (AR v1)
Track 16 accurately ripped (confidence 5) [CCE8CA31] (AR v1)
Track 17 accurately ripped (confidence 5) [81EA614C] (AR v1)
Track 18 accurately ripped (confidence 5) [961E7FA3] (AR v1)

All tracks accurately ripped

End of status report

==== Log checksum F2C2F82F229AC42598B0149356963696580FC2BB47C442617EB11BBF2478EE96 ====

[Disc ID: 0036b288-0325e50f-3a124114]
Track [ CRC ] Status
01 [d52fe35d] (02/06) Accurately ripped as in pressing(s) #2
02 [c3a5eda2] (02/06) Accurately ripped as in pressing(s) #2
03 [697d6ade] (02/06) Accurately ripped as in pressing(s) #2
04 [d8d44c08] (02/06) Accurately ripped as in pressing(s) #2
05 [8310b72c] (02/06) Accurately ripped as in pressing(s) #2
06 [cc2a2179] (02/06) Accurately ripped as in pressing(s) #2
07 [649a157c] (02/06) Accurately ripped as in pressing(s) #2
08 [3c2bb293] (02/06) Accurately ripped as in pressing(s) #2
09 [ab9bb700] (02/06) Accurately ripped as in pressing(s) #2
10 [c8915567] (02/06) Accurately ripped as in pressing(s) #2
11 [5447435b] (02/06) Accurately ripped as in pressing(s) #2
12 [5ae55cda] (02/06) Accurately ripped as in pressing(s) #2
13 [2e45d9f7] (02/06) Accurately ripped as in pressing(s) #2
14 [c0b0cf67] (02/06) Accurately ripped as in pressing(s) #2
15 [551a3953] (02/06) Accurately ripped as in pressing(s) #2
16 [f260f58a] (02/06) Accurately ripped as in pressing(s) #2
17 [0b852d78] (02/06) Accurately ripped as in pressing(s) #2
18 [2305ba24] (02/06) Accurately ripped as in pressing(s) #2
19 [8030951e] (02/06) Accurately ripped as in pressing(s) #2
20 [d65adb02] (02/06) Accurately ripped as in pressing(s) #2

[Disc ID: 0034954a-02b89d20-10128212]
Track [ CRC ] Status
01 [0a2d14f4] (04/04) Accurately ripped as in pressing(s) #1
02 [aa708e99] (05/05) Accurately ripped as in pressing(s) #1
03 [eb57d3fe] (05/05) Accurately ripped as in pressing(s) #1
04 [4f51d542] (05/05) Accurately ripped as in pressing(s) #1
05 [ceed0f1b] (05/05) Accurately ripped as in pressing(s) #1
06 [3894f78d] (05/05) Accurately ripped as in pressing(s) #1
07 [383ae7f7] (05/05) Accurately ripped as in pressing(s) #1
08 [9b7736b9] (05/05) Accurately ripped as in pressing(s) #1
09 [430c9306] (05/05) Accurately ripped as in pressing(s) #1
10 [c2a913a7] (05/05) Accurately ripped as in pressing(s) #1
11 [7e18798a] (05/05) Accurately ripped as in pressing(s) #1
12 [fbf00703] (05/05) Accurately ripped as in pressing(s) #1
13 [7522e087] (05/05) Accurately ripped as in pressing(s) #1
14 [2115e26a] (05/05) Accurately ripped as in pressing(s) #1
15 [4becdcc4] (05/05) Accurately ripped as in pressing(s) #1
16 [cce8ca31] (05/05) Accurately ripped as in pressing(s) #1
17 [81ea614c] (05/05) Accurately ripped as in pressing(s) #1
18 [961e7fa3] (05/05) Accurately ripped as in pressing(s) #1

–––––––––––––––––––––––-
Statistics for: Disc 1.wav
Number of Samples: 206121636
–––––––––––––––––––––––-

left right

Peak value: -0.00 dB –- -0.00 dB
Avg RMS: -11.85 dB –- -11.94 dB
DR channel: 9.01 dB –- 9.21 dB
–––––––––––––––––––––––-

Official DR value: DR9
===============================================

–––––––––––––––––––––––-
Statistics for: Disc 2.wav
Number of Samples: 208963440
–––––––––––––––––––––––-

left right

Peak value: -0.00 dB –- -0.00 dB
Avg RMS: -11.71 dB –- -11.94 dB
DR channel: 8.78 dB –- 9.17 dB
–––––––––––––––––––––––-

Official DR value: DR9
===============================================


No Mirror Please
DISC 1:
Filesonic
part 1 / part 2 / part 3
Wupload
part 1 / part 2 / part 3

DISC 2:
Filesonic
part 1 / part 2 / part 3
Wupload
part 1 / part 2 / part 3

ARTWORK:
Filesonic
Full Scans@600dpi (JPEG)
Wupload
Full Scans@600dpi (JPEG)

Password: BlondStyle