Subcategories

Dido - Greatest Hits (2013) [Deluxe Edition] 2CD

Posted By: Andi_Deris
Dido - Greatest Hits (2013) [Deluxe Edition] 2CD

Dido - Greatest Hits (2013) [Deluxe Edition] 2CD
EAC Rip | FLAC: Tracks+Cue+Log | 956 Mb | MP3 CBR 320 kbps | 349 Mb | Scans
Sony Music/RCA | 88883785222
Pop, Electronic, Downtempo, Singer-Songwriter

The album compiles all of Dido's singles since her first album No Angel (1999), through to her latest material, Girl Who Got Away (2013). Deluxe Edition of 18-track hits set with bonus 13-track REMIX CD.

Dido - Greatest Hits (2013) [Deluxe Edition] 2CD




CD 01
01:16:31

01. Here With Me (04:16)
02. Thank You (03:38)
03. Hunter (03:58)
04. White Flag (04:02)
05. Life For Rent (03:43)
06. Don't Leave Home (03:48)
07. Sand In My Shoes (05:01)
08. Don't Believe In Love (03:55)
09. Quiet Times (03:18)
10. Grafton Street (05:57)
11. Everything To Lose (04:34)
12. Let Us Move On (featuring Kendrick Lamar) (04:12)
13. No Freedom (03:17)
14. End Of Night (04:00)
15. One Step Too Far (Radio Edit) (Faithless featuring Dido) (03:27)
16. Stan (Eminem featuring Dido) (06:45)
17. If I Rise (with A. R. Rahman) (04:40)
18. NYC (Previously unreleased) (04:01)

CD 02
01:05:37

01. Here With Me (Chillin' With The Family Mix) (05:17)
02. Thank You (Deep Dish Radio Edit) (04:11)
03. Hunter (M J Cole Remix) (06:08)
04. White Flag (Timbaland Remix) (03:30)
05. Life For Rent (Skinny 4 Rent Mix) (04:55)
06. Sand In My Shoes (Above & Beyond Radio Edit) (03:21)
07. Don't Leave Home (Gabriel & Dresden Radio Mix) (04:15)
08. Don't Believe In Love (Dennis Ferrer's Objektivity Radio Mix) (04:33)
09. No Freedom (DJ Cobra Mix) (06:21)
10. End Of Night (Cedric Gervais Remix) (05:54)
11. Go Dreaming (Mantronix Remix) (04:32)
12. Blackbird (Moguai Remix) (06:47)
13. Northern Skies (Rollo Remix) (05:53)

Produced by Rollo Armstrong, Dido, Rick Nowels, Jon Brion, Brian Eno, The 45 King, Eminem

Exact Audio Copy V1.0 beta 3 from 29. August 2011

EAC extraction logfile from 26. September 2014, 18:34

Dido / Greatest Hits CD01

Used drive : HL-DT-STDVDRAM GSA-T50L Adapter: 1 ID: 0

Read mode : Secure
Utilize accurate stream : Yes
Defeat audio cache : No
Make use of C2 pointers : No

Read offset correction : 667
Overread into Lead-In and Lead-Out : No
Fill up missing offset samples with silence : Yes
Delete leading and trailing silent blocks : No
Null samples used in CRC calculations : Yes
Used interface : Native Win32 interface for Win NT & 2000
Gap handling : Appended to previous track

Used output format : User Defined Encoder
Selected bitrate : 1024 kBit/s
Quality : High
Add ID3 tag : No
Command line compressor : C:\Program Files\Exact Audio Copy\Flac\flac.exe
Additional command line options : -8 -V -T "ARTIST=%artist%" -T "TITLE=%title%" -T "ALBUM=%albumtitle%" -T "DATE=%year%" -T "TRACKNUMBER=%tracknr%" -T "GENRE=%genre%" -T "PERFORMER=%albuminterpret%" -T "COMPOSER=%composer%" %haslyrics%–tag-from-file=LYRICS="%lyricsfile%"%haslyrics% -T "ALBUMARTIST=%albumartist%" -T "DISCNUMBER=%cdnumber%" -T "TOTALDISCS=%totalcds%" -T "TOTALTRACKS=%numtracks%" -T "COMMENT=%comment%" %source% -o %dest%


TOC of the extracted CD

Track | Start | Length | Start sector | End sector
––––––––––––––––––––––––––––-
1 | 0:00.00 | 4:16.17 | 0 | 19216
2 | 4:16.17 | 3:37.54 | 19217 | 35545
3 | 7:53.71 | 3:57.52 | 35546 | 53372
4 | 11:51.48 | 4:01.46 | 53373 | 71493
5 | 15:53.19 | 3:42.53 | 71494 | 88196
6 | 19:35.72 | 3:48.02 | 88197 | 105298
7 | 23:23.74 | 5:00.68 | 105299 | 127866
8 | 28:24.67 | 3:54.40 | 127867 | 145456
9 | 32:19.32 | 3:18.24 | 145457 | 160330
10 | 35:37.56 | 5:56.73 | 160331 | 187103
11 | 41:34.54 | 4:33.32 | 187104 | 207610
12 | 46:08.11 | 4:11.53 | 207611 | 226488
13 | 50:19.64 | 3:17.20 | 226489 | 241283
14 | 53:37.09 | 3:59.60 | 241284 | 259268
15 | 57:36.69 | 3:26.64 | 259269 | 274782
16 | 61:03.58 | 6:45.33 | 274783 | 305190
17 | 67:49.16 | 4:39.50 | 305191 | 326165
18 | 72:28.66 | 4:01.26 | 326166 | 344266


Track 1

Filename C:\FLAC\01 Here With Me.wav

Pre-gap length 0:00:02.00

Peak level 99.8 %
Extraction speed 4.2 X
Track quality 100.0 %
Test CRC 5F4C9826
Copy CRC 5F4C9826
Accurately ripped (confidence 23) [94823551] (AR v2)
Copy OK

Track 2

Filename C:\FLAC\02 Thank You.wav

Peak level 99.8 %
Extraction speed 4.6 X
Track quality 100.0 %
Test CRC 333F3A6E
Copy CRC 333F3A6E
Accurately ripped (confidence 23) [B7538FD5] (AR v2)
Copy OK

Track 3

Filename C:\FLAC\03 Hunter.wav

Peak level 99.8 %
Extraction speed 5.0 X
Track quality 99.9 %
Test CRC B15C4D46
Copy CRC B15C4D46
Accurately ripped (confidence 22) [EA4AD6B5] (AR v2)
Copy OK

Track 4

Filename C:\FLAC\04 White Flag.wav

Peak level 99.8 %
Extraction speed 5.3 X
Track quality 100.0 %
Test CRC 693A37EB
Copy CRC 693A37EB
Accurately ripped (confidence 23) [2C783F7E] (AR v2)
Copy OK

Track 5

Filename C:\FLAC\05 Life For Rent.wav

Peak level 99.8 %
Extraction speed 5.6 X
Track quality 100.0 %
Test CRC FABF88A9
Copy CRC FABF88A9
Accurately ripped (confidence 23) [25A76E21] (AR v2)
Copy OK

Track 6

Filename C:\FLAC\06 Don't Leave Home.wav

Peak level 99.8 %
Extraction speed 5.9 X
Track quality 100.0 %
Test CRC 6D2CCAA2
Copy CRC 6D2CCAA2
Accurately ripped (confidence 23) [DC9641AB] (AR v2)
Copy OK

Track 7

Filename C:\FLAC\07 Sand In My Shoes.wav

Peak level 99.8 %
Extraction speed 6.5 X
Track quality 100.0 %
Test CRC B8F7EA98
Copy CRC B8F7EA98
Accurately ripped (confidence 23) [BFDF6877] (AR v2)
Copy OK

Track 8

Filename C:\FLAC\08 Don't Believe In Love.wav

Peak level 99.8 %
Extraction speed 6.6 X
Track quality 100.0 %
Test CRC FB407F12
Copy CRC FB407F12
Accurately ripped (confidence 22) [3F9CD5E2] (AR v2)
Copy OK

Track 9

Filename C:\FLAC\09 Quiet Times.wav

Peak level 99.7 %
Extraction speed 7.0 X
Track quality 100.0 %
Test CRC ECA3468D
Copy CRC ECA3468D
Accurately ripped (confidence 23) [BC22103B] (AR v2)
Copy OK

Track 10

Filename C:\FLAC\10 Grafton Street.wav

Peak level 99.8 %
Extraction speed 7.3 X
Track quality 100.0 %
Test CRC 70ADA68A
Copy CRC 70ADA68A
Accurately ripped (confidence 23) [56AB9E99] (AR v2)
Copy OK

Track 11

Filename C:\FLAC\11 Everything To Lose.wav

Peak level 91.5 %
Extraction speed 7.4 X
Track quality 100.0 %
Test CRC 183AE8B0
Copy CRC 183AE8B0
Accurately ripped (confidence 22) [9ADAD538] (AR v2)
Copy OK

Track 12

Filename C:\FLAC\12 Let Us Move On (Featuring Kendrick Lamar).wav

Peak level 99.7 %
Extraction speed 7.9 X
Track quality 100.0 %
Test CRC 58A04488
Copy CRC 58A04488
Accurately ripped (confidence 22) [E9A16C7F] (AR v2)
Copy OK

Track 13

Filename C:\FLAC\13 No Freedom.wav

Peak level 99.7 %
Extraction speed 8.1 X
Track quality 100.0 %
Test CRC 1543A824
Copy CRC 1543A824
Accurately ripped (confidence 23) [81B6D589] (AR v2)
Copy OK

Track 14

Filename C:\FLAC\14 End Of Night.wav

Peak level 94.2 %
Extraction speed 8.3 X
Track quality 100.0 %
Test CRC 79237BB1
Copy CRC 79237BB1
Accurately ripped (confidence 23) [7267ABD3] (AR v2)
Copy OK

Track 15

Filename C:\FLAC\15 One Step Too Far (Radio Edit) (Faithless Featuring Dido).wav

Peak level 99.2 %
Extraction speed 8.5 X
Track quality 100.0 %
Test CRC 4EE7EE25
Copy CRC 4EE7EE25
Accurately ripped (confidence 23) [E2CB1BB6] (AR v2)
Copy OK

Track 16

Filename C:\FLAC\16 Stan (Eminem Featuring Dido).wav

Peak level 98.9 %
Extraction speed 8.8 X
Track quality 100.0 %
Test CRC 1772D6D4
Copy CRC 1772D6D4
Accurately ripped (confidence 22) [2FAFDC22] (AR v2)
Copy OK

Track 17

Filename C:\FLAC\17 If I Rise (Dido & A. R. Rahman).wav

Peak level 97.6 %
Extraction speed 9.0 X
Track quality 100.0 %
Test CRC E2BC55D3
Copy CRC E2BC55D3
Accurately ripped (confidence 23) [D8E16640] (AR v2)
Copy OK

Track 18

Filename C:\FLAC\18 NYC.wav

Peak level 94.2 %
Extraction speed 9.2 X
Track quality 99.9 %
Test CRC 98322FBB
Copy CRC 98322FBB
Accurately ripped (confidence 23) [AF786D62] (AR v2)
Copy OK


All tracks accurately ripped

No errors occurred

End of status report

–– CUETools DB Plugin V2.1.3

[CTDB TOCID: wNazqOgNwoftCx5tdr86csYhhbw-] found, Submit result: wNazqOgNwoftCx5tdr86csYhhbw- has been confirmed
[b6e3d699] (41/42) Accurately ripped
[176b959a] (01/42) No match


==== Log checksum 5E45B7BC603BEDD9DE0CCC357FFAB8203A039C53751AE80D4D7FAE3A74C26195 ====

Exact Audio Copy V1.0 beta 3 from 29. August 2011

EAC extraction logfile from 26. September 2014, 19:08

Dido / Greatest Hits CD02

Used drive : HL-DT-STDVDRAM GSA-T50L Adapter: 1 ID: 0

Read mode : Secure
Utilize accurate stream : Yes
Defeat audio cache : No
Make use of C2 pointers : No

Read offset correction : 667
Overread into Lead-In and Lead-Out : No
Fill up missing offset samples with silence : Yes
Delete leading and trailing silent blocks : No
Null samples used in CRC calculations : Yes
Used interface : Native Win32 interface for Win NT & 2000
Gap handling : Appended to previous track

Used output format : User Defined Encoder
Selected bitrate : 1024 kBit/s
Quality : High
Add ID3 tag : No
Command line compressor : C:\Program Files\Exact Audio Copy\Flac\flac.exe
Additional command line options : -8 -V -T "ARTIST=%artist%" -T "TITLE=%title%" -T "ALBUM=%albumtitle%" -T "DATE=%year%" -T "TRACKNUMBER=%tracknr%" -T "GENRE=%genre%" -T "PERFORMER=%albuminterpret%" -T "COMPOSER=%composer%" %haslyrics%–tag-from-file=LYRICS="%lyricsfile%"%haslyrics% -T "ALBUMARTIST=%albumartist%" -T "DISCNUMBER=%cdnumber%" -T "TOTALDISCS=%totalcds%" -T "TOTALTRACKS=%numtracks%" -T "COMMENT=%comment%" %source% -o %dest%


TOC of the extracted CD

Track | Start | Length | Start sector | End sector
––––––––––––––––––––––––––––-
1 | 0:00.00 | 5:16.58 | 0 | 23757
2 | 5:16.58 | 4:11.11 | 23758 | 42593
3 | 9:27.69 | 6:08.07 | 42594 | 70200
4 | 15:36.01 | 3:30.18 | 70201 | 85968
5 | 19:06.19 | 4:55.05 | 85969 | 108098
6 | 24:01.24 | 3:21.18 | 108099 | 123191
7 | 27:22.42 | 4:14.45 | 123192 | 142286
8 | 31:37.12 | 4:32.40 | 142287 | 162726
9 | 36:09.52 | 6:20.38 | 162727 | 191264
10 | 42:30.15 | 5:53.42 | 191265 | 217781
11 | 48:23.57 | 4:31.70 | 217782 | 238176
12 | 52:55.52 | 6:46.44 | 238177 | 268670
13 | 59:42.21 | 5:53.30 | 268671 | 295175


Track 1

Filename C:\FLAC\01 Here With Me (Chillin With The Family Mix).wav

Pre-gap length 0:00:02.00

Peak level 99.6 %
Extraction speed 4.5 X
Track quality 100.0 %
Test CRC 54084998
Copy CRC 54084998
Accurately ripped (confidence 16) [DC8FCFCD] (AR v2)
Copy OK

Track 2

Filename C:\FLAC\02 Thank You (Deep Dish Radio Edit).wav

Peak level 94.2 %
Extraction speed 4.8 X
Track quality 100.0 %
Test CRC C6BFB511
Copy CRC C6BFB511
Accurately ripped (confidence 16) [4E0F058E] (AR v2)
Copy OK

Track 3

Filename C:\FLAC\03 Hunter (MJ Cole Remix).wav

Peak level 99.8 %
Extraction speed 5.3 X
Track quality 100.0 %
Test CRC BE88184B
Copy CRC BE88184B
Accurately ripped (confidence 15) [0ADF3230] (AR v2)
Copy OK

Track 4

Filename C:\FLAC\04 White Flag (Timbaland Remix).wav

Peak level 99.8 %
Extraction speed 5.8 X
Track quality 100.0 %
Test CRC F13365E1
Copy CRC F13365E1
Accurately ripped (confidence 16) [77007591] (AR v2)
Copy OK

Track 5

Filename C:\FLAC\05 Life For Rent (Skinny 4 Rent Mix).wav

Peak level 99.8 %
Extraction speed 6.0 X
Track quality 100.0 %
Test CRC DB94167A
Copy CRC DB94167A
Accurately ripped (confidence 16) [EA71B36A] (AR v2)
Copy OK

Track 6

Filename C:\FLAC\06 Sand In My Shoes (Above & Beyond Radio Edit).wav

Peak level 94.2 %
Extraction speed 6.5 X
Track quality 100.0 %
Test CRC 47DBCB0F
Copy CRC 47DBCB0F
Accurately ripped (confidence 15) [3D59D35C] (AR v2)
Copy OK

Track 7

Filename C:\FLAC\07 Don't Leave Home (Gabriel & Dresden Radio Mix).wav

Peak level 99.8 %
Extraction speed 6.5 X
Track quality 99.9 %
Test CRC 95CADAB4
Copy CRC 95CADAB4
Accurately ripped (confidence 16) [0B0418C7] (AR v2)
Copy OK

Track 8

Filename C:\FLAC\08 Don't Believe In Love (Dennis Ferrer's Objektivity Radio Mix).wav

Peak level 93.1 %
Extraction speed 6.9 X
Track quality 100.0 %
Test CRC 3E6E4832
Copy CRC 3E6E4832
Accurately ripped (confidence 15) [99CDF147] (AR v2)
Copy OK

Track 9

Filename C:\FLAC\09 No Freedom (DJ Cobra Mix).wav

Peak level 92.1 %
Extraction speed 7.4 X
Track quality 100.0 %
Test CRC 67FEADB7
Copy CRC 67FEADB7
Accurately ripped (confidence 16) [F052C2EF] (AR v2)
Copy OK

Track 10

Filename C:\FLAC\10 End Of Night (Cedric Gervais Remix).wav

Peak level 79.2 %
Extraction speed 7.6 X
Track quality 99.9 %
Test CRC 86600658
Copy CRC 86600658
Accurately ripped (confidence 15) [26CA2F1F] (AR v2)
Copy OK

Track 11

Filename C:\FLAC\11 Go Dreaming (Mantronix Remix).wav

Peak level 99.8 %
Extraction speed 7.8 X
Track quality 99.9 %
Test CRC 3D83A25F
Copy CRC 3D83A25F
Accurately ripped (confidence 16) [DFB73344] (AR v2)
Copy OK

Track 12

Filename C:\FLAC\12 Blackbird (Moguai Remix).wav

Peak level 88.1 %
Extraction speed 8.3 X
Track quality 100.0 %
Test CRC C05A08D6
Copy CRC C05A08D6
Accurately ripped (confidence 15) [85CCC982] (AR v2)
Copy OK

Track 13

Filename C:\FLAC\13 Northern Skies (Rollo Remix).wav

Peak level 99.8 %
Extraction speed 8.7 X
Track quality 100.0 %
Test CRC FB880170
Copy CRC FB880170
Accurately ripped (confidence 16) [6C98DBB2] (AR v2)
Copy OK


All tracks accurately ripped

No errors occurred

End of status report

–– CUETools DB Plugin V2.1.3

[CTDB TOCID: a0r7KOoZDnwMMBxqqTrFQhAbCVw-] found, Submit result: a0r7KOoZDnwMMBxqqTrFQhAbCVw- has been confirmed
[6ce29745] (15/16) Accurately ripped
[b7f90d76] (01/16) No match


==== Log checksum ACC07F41FF490963D0BCC7930FA5F8BCE83F2DB0442D468CFC0EE4D642AFCCD4 ====


Many thanks to the original uploader: becasiana

SEE also:
Dido 1999 No Anglel
Dido 2000 No Angel [2001, Japan 1st Press, Promo]
Dido 2003 Life For Rent
Dido 2013 Girl Who Got Away [Japanese Ed.]