Subcategories

Die Krupps ‎- II: The Final Option + The Final Option Remixed (2011)

Posted By: v3122
Die Krupps ‎- II: The Final Option + The Final Option Remixed (2011)

Die Krupps ‎- II: The Final Option + The Final Option Remixed (2011)
EAC | Flac(Image) + Cue + Log & MP3 CBR 320Kbps
2CD | SPV 308622 2CD | ~ 736 or 266 Mb | Artwork(png) -> 508 Mb
EBM, Electro-Industrial, Heavy Metal

Along with Front 242, the German group Die Krupps stands as one of the innovators of the subgenre of Euro-rock dubbed body music, a sound characterized by its dense electronic makeup as well as its harsh, visceral execution. Die Krupps came together in 1981 as a duo comprised of vocalist, guitarist, keyboardist, and mouthpiece Jurgen Engler, formerly of the German punk outfit Male, and ex-Propaganda member Ralf Dorper. Over the course of the group's first three records – 1981's Stahlwerksinfonie, 1982's Volle Kraft Voraus, and 1984's Entering the Arena – Die Krupps continued to refine its lyrically bleak, synth-based sound. (A two-record retrospective covering these three LPs, Metalle Maschinen Musik: 91-81 Past Forward, appeared in 1991.)

not until the 1992 release of the album I that it became clear exactly what Die Krupps had been doing over the preceding eight years – basically, listening to Metallica and other metal innovators. Both I and its 1992 follow-up, Die Krupps II: The Final Option found the group's signature sound augmented by metal guitars, which enabled Die Krupps to cross over to hard rock audiences while still maintaining its electronic music fan base.

1993's Die Krupps Box, a three-disc box set, preceded the same year's release of Die Krupps II: The Final Option, which found Engler and Dorper joined by ex-Heathen guitarist Lee Altus and drummer Darren Minter. In 1994, a remix album, The Final Mixes, featured contributions from artists like the Sisters of Mercy's Andrew Eldritch, Nitzer Ebb's Julian Beeston, Gunshot, and Jim Martin, formerly of Faith No More. A year later, Odyssey of the Mind found the group moving even further from its electronic roots. Isolation, a collection of Odyssey of the Mind remixes and live tracks, appeared in 1996 and in 1997, following the release of their seventh album, the metal-influenced Paradise Now, Die Krupps disbanded. Various solo and side projects appeared in the coming years before Engler and Dorper reunited to celebrate the band's 25th anniversary with a series of shows in 2005. A trio of anthologies called Too Much History appeared in 2007, followed a year later by a remix project on their 1982 album Volle Kraft Voraus. Their first collection of new material since 1997 arrived in the form of a 2010 mini-album Als Wären Wir für Immer, which preceded a major European tour with fellow Germans industrialists Nitzer Ebb. The Machinists of Joy, Die Krupps' first full-length studio album in 16 years, was released in 2013 and hailed as a return to the group's old-school industrial/EBM style. They followed it up in 2015 with their ninth album, V: Metal Machine Music.

by Jason Ankeny, allmusic
Die Krupps ‎- II: The Final Option + The Final Option Remixed (2011):

Die Krupps ‎- II: The Final Option + The Final Option Remixed (2011)

Tracklist CD1 - The Final Option (Reissue, Remastered):

01. Crossfire [04:45]
02. Language Of Reality [04:11]
03. Bloodsuckers [03:55]
04. Fatherland [04:12]
05. To The Hilt [04:51]
06. Iron Man [04:36]
07. Inside Out [04:22]
08. Paradise Of Sin [04:08]
09. Worst Case Scenario [04:22]
10. Shellshocked [03:36]
11. New Temptation [03:58]

Exact Audio Copy V1.1 from 23. June 2015

Отчёт EAC об извлечении, выполненном 8. апреля 2016, 20:08

Die Krupps / II The Final Option CD1 (SPV 308622 2CD)

Дисковод: PIONEER BD-RW BDR-206 Adapter: 1 ID: 0

Режим чтения : Достоверность
Использование точного потока : Да
Отключение кэша аудио : Да
Использование указателей C2 : Нет

Коррекция смещения при чтении : 667
Способность читать области Lead-in и Lead-out : Нет
Заполнение пропущенных сэмплов тишиной : Да
Удаление блоков с тишиной в начале и конце : Нет
При вычислениях CRC использовались нулевые сэмплы : Да
Интерфейс : Встроенный Win32-интерфейс для Win NT/2000

Выходной формат : Пользовательский кодировщик
Выбранный битрейт : 1024 kBit/s
Качество : Высокий
Добавление ID3-тега : Нет
Утилита сжатия : C:\Program Files (x86)\Exact Audio Copy\FLAC\FLAC.EXE
Дополнительные параметры : -V -8 -T "Date=%year%" -T "COMMENT=Ripped by SergeyJD" -T "Genre=%genre%" %source%


TOC извлечённого CD

Трек | Старт | Длительность | Начальный сектор | Конечный сектор
––––––––––––––––––––––––––––––––––-
1 | 0:00.00 | 4:44.10 | 0 | 21309
2 | 4:44.10 | 4:10.70 | 21310 | 40129
3 | 8:55.05 | 3:54.45 | 40130 | 57724
4 | 12:49.50 | 4:11.50 | 57725 | 76599
5 | 17:01.25 | 4:50.22 | 76600 | 98371
6 | 21:51.47 | 4:35.23 | 98372 | 119019
7 | 26:26.70 | 4:21.72 | 119020 | 138666
8 | 30:48.67 | 4:08.00 | 138667 | 157266
9 | 34:56.67 | 4:21.23 | 157267 | 176864
10 | 39:18.15 | 3:35.52 | 176865 | 193041
11 | 42:53.67 | 3:57.43 | 193042 | 210859


Характеристики диапазона извлечения и сообщения об ошибках

Выбранный диапазон

Имя файла D:\РАЗДАЧИ!!!!\Die Krupps - Collection\2011 - II The Final Option + The Final Option Remixed (SPV 308622 2CD)\Disc 1 - The Final Option\Die Krupps - II The Final Option CD1 (SPV 308622 2CD).wav

Пиковый уровень 31.4 %
Скорость извлечения 7.1 X
Качество диапазона 100.0 %
CRC теста 0CF3E36A
CRC копии 0CF3E36A
Копирование… OK

Ошибок не произошло


AccurateRip: сводка

Трек 1 : извлечено точно (доверие 5) [5E412000] (AR v2)
Трек 2 : извлечено точно (доверие 5) [FE60D3C5] (AR v2)
Трек 3 : извлечено точно (доверие 5) [8AF2E1A4] (AR v2)
Трек 4 : извлечено точно (доверие 5) [AB4E486B] (AR v2)
Трек 5 : извлечено точно (доверие 5) [544E0F82] (AR v2)
Трек 6 : извлечено точно (доверие 5) [367EFA47] (AR v2)
Трек 7 : извлечено точно (доверие 5) [74708D7F] (AR v2)
Трек 8 : извлечено точно (доверие 5) [04424210] (AR v2)
Трек 9 : извлечено точно (доверие 5) [EB3088D6] (AR v2)
Трек 10 : извлечено точно (доверие 5) [5D30FE91] (AR v2)
Трек 11 : извлечено точно (доверие 5) [5C7E9B20] (AR v2)

Все треки извлечены точно

Конец отчёта

–– CUETools DB Plugin V2.1.6

[CTDB TOCID: aEkO8sThJhvOggmnGEKmzVL_y7s-] found
Submit result: aEkO8sThJhvOggmnGEKmzVL_y7s- has been confirmed
Track | CTDB Status
1 | (11/11) Accurately ripped
2 | (11/11) Accurately ripped
3 | (11/11) Accurately ripped
4 | (11/11) Accurately ripped
5 | (11/11) Accurately ripped
6 | (11/11) Accurately ripped
7 | (11/11) Accurately ripped
8 | (11/11) Accurately ripped
9 | (11/11) Accurately ripped
10 | (11/11) Accurately ripped
11 | (11/11) Accurately ripped


==== Контрольная сумма отчёта FF1EE13DDCF4796B5374D207FC0C16BE2CF8B7539FE6B6208328F30C0C4B3205 ====


[CUETools log; Date: 08.08.2019 16:31:37; Version: 2.1.4]
[AccurateRip ID: 0013ae82-00aa18be-930afb0b] found.
Track [ CRC | V2 ] Status
01 [55e2dedc|5e412000] (06+08/14) Accurately ripped
02 [e66fc905|fe60d3c5] (06+08/14) Accurately ripped
03 [2a631c22|8af2e1a4] (06+08/14) Accurately ripped
04 [cfd8c2ed|ab4e486b] (06+08/14) Accurately ripped
05 [d2acda28|544e0f82] (06+08/14) Accurately ripped
06 [413266ec|367efa47] (06+08/14) Accurately ripped
07 [7d1a7a2e|74708d7f] (06+08/14) Accurately ripped
08 [e92d8cb0|04424210] (06+08/14) Accurately ripped
09 [f90d4f4b|eb3088d6] (06+08/14) Accurately ripped
10 [46f0ffb5|5d30fe91] (06+08/14) Accurately ripped
11 [427b67fc|5c7e9b20] (06+08/14) Accurately ripped

Track Peak [ CRC32 ] [W/O NULL] [ LOG ]
– 31,4 [0CF3E36A] [6C662CCB] CRC32
01 29,3 [37D019BE] [4B4187A0]
02 24,8 [9681D090] [FC19D949]
03 24,8 [E31C4501] [8CD6287B]
04 29,3 [FCAA5289] [8AC2EF6E]
05 30,6 [6C7DD2F5] [F8D990AA]
06 26,7 [1AACD509] [4C35FC5C]
07 31,4 [8D621EB5] [A2984EC6]
08 25,8 [08179F6E] [358A4853]
09 30,1 [3FDAD38B] [6A61F8BE]
10 27,5 [10EB009E] [29FD4F8F]
11 30,3 [EB875CCA] [78302D5D]


Die Krupps ‎- II: The Final Option + The Final Option Remixed (2011)

Tracklist CD2 - The Final Option Remixed (Remastered):

01. Crossfire (Faith No More remix) [04:33]
02. Crossfire (Gunshot remix) [04:10]
03. Language of Reality (Nine Inch Nails remix) [04:45]
04. Bloodsuckers (Die Aerzte remix) [05:41]
05. Bloodsuckers (Biohazard remix) [04:07]
06. Fatherland (The Sisters of Mercy remix) [04:40]
07. To the Hilt (Clawfinger remix) [03:44]
08. Iron Man (KMFDM remix) [04:53]
09. Iron Man (Phillip Boa remix) [04:30]
10. Inside Out (Carcass remix) [05:12]
11. Paradise of Sin (Revolting Cocks remix) [04:05]
12. DWorst Case Scenario (Gunshot remix) [03:38]
13. Shellshocked (Paradise Lost remix) [04:07]
14. Shellshocked (Einstuerzende Neubauten remix) [03:57]
15. New Temptation (Einstuerzende Neubauten remix) [03:37]

Exact Audio Copy V1.1 from 23. June 2015

Отчёт EAC об извлечении, выполненном 8. апреля 2016, 20:36

Die Krupps / II The Final Option Remixed CD2 (SPV 308622 2CD)

Дисковод: PIONEER BD-RW BDR-206 Adapter: 1 ID: 0

Режим чтения : Достоверность
Использование точного потока : Да
Отключение кэша аудио : Да
Использование указателей C2 : Нет

Коррекция смещения при чтении : 667
Способность читать области Lead-in и Lead-out : Нет
Заполнение пропущенных сэмплов тишиной : Да
Удаление блоков с тишиной в начале и конце : Нет
При вычислениях CRC использовались нулевые сэмплы : Да
Интерфейс : Встроенный Win32-интерфейс для Win NT/2000

Выходной формат : Пользовательский кодировщик
Выбранный битрейт : 1024 kBit/s
Качество : Высокий
Добавление ID3-тега : Нет
Утилита сжатия : C:\Program Files (x86)\Exact Audio Copy\FLAC\FLAC.EXE
Дополнительные параметры : -V -8 -T "Date=%year%" -T "COMMENT=Ripped by SergeyJD" -T "Genre=%genre%" %source%


TOC извлечённого CD

Трек | Старт | Длительность | Начальный сектор | Конечный сектор
––––––––––––––––––––––––––––––––––-
1 | 0:00.00 | 4:32.48 | 0 | 20447
2 | 4:32.48 | 4:09.60 | 20448 | 39182
3 | 8:42.33 | 4:44.30 | 39183 | 60512
4 | 13:26.63 | 5:41.00 | 60513 | 86087
5 | 19:07.63 | 4:06.32 | 86088 | 104569
6 | 23:14.20 | 4:39.35 | 104570 | 125529
7 | 27:53.55 | 3:43.18 | 125530 | 142272
8 | 31:36.73 | 4:52.37 | 142273 | 164209
9 | 36:29.35 | 4:29.37 | 164210 | 184421
10 | 40:58.72 | 5:11.38 | 184422 | 207784
11 | 46:10.35 | 4:04.35 | 207785 | 226119
12 | 50:14.70 | 3:37.30 | 226120 | 242424
13 | 53:52.25 | 4:06.07 | 242425 | 260881
14 | 57:58.32 | 3:56.17 | 260882 | 278598
15 | 61:54.49 | 3:36.20 | 278599 | 294818


Характеристики диапазона извлечения и сообщения об ошибках

Выбранный диапазон

Имя файла D:\РАЗДАЧИ!!!!\Die Krupps - Collection\2011 - II The Final Option + The Final Option Remixed (SPV 308622 2CD)\Disc 2 - The Final Option Remixed\Die Krupps - II The Final Option Remixed CD2 (SPV 308622 2CD).wav

Пиковый уровень 42.8 %
Скорость извлечения 7.9 X
Качество диапазона 99.9 %
CRC теста 55CFF40C
CRC копии 55CFF40C
Копирование… OK

Ошибок не произошло


AccurateRip: сводка

Трек 1 : извлечено точно (доверие 4) [77C65361] (AR v2)
Трек 2 : извлечено точно (доверие 4) [49BDEE24] (AR v2)
Трек 3 : извлечено точно (доверие 4) [01999655] (AR v2)
Трек 4 : извлечено точно (доверие 4) [DAA801F9] (AR v2)
Трек 5 : извлечено точно (доверие 4) [697922FD] (AR v2)
Трек 6 : извлечено точно (доверие 4) [E9CA3D05] (AR v2)
Трек 7 : извлечено точно (доверие 4) [09C4809F] (AR v2)
Трек 8 : извлечено точно (доверие 4) [E79AF1A5] (AR v2)
Трек 9 : извлечено точно (доверие 4) [63CF7818] (AR v2)
Трек 10 : извлечено точно (доверие 4) [D360CDA2] (AR v2)
Трек 11 : извлечено точно (доверие 4) [F08B9DD4] (AR v2)
Трек 12 : извлечено точно (доверие 4) [4BD1A4FF] (AR v2)
Трек 13 : извлечено точно (доверие 4) [6D3CCF47] (AR v2)
Трек 14 : извлечено точно (доверие 4) [5D809363] (AR v2)
Трек 15 : извлечено точно (доверие 4) [255E39B5] (AR v2)

Все треки извлечены точно

Конец отчёта

–– CUETools DB Plugin V2.1.6

[CTDB TOCID: UvRjW3MejlMK5UJhfYZ1XdPZOxs-] found
Submit result: UvRjW3MejlMK5UJhfYZ1XdPZOxs- has been confirmed
Track | CTDB Status
1 | (8/8) Accurately ripped
2 | (8/8) Accurately ripped
3 | (8/8) Accurately ripped
4 | (8/8) Accurately ripped
5 | (8/8) Accurately ripped
6 | (8/8) Accurately ripped
7 | (8/8) Accurately ripped
8 | (8/8) Accurately ripped
9 | (8/8) Accurately ripped
10 | (8/8) Accurately ripped
11 | (8/8) Accurately ripped
12 | (8/8) Accurately ripped
13 | (8/8) Accurately ripped
14 | (8/8) Accurately ripped
15 | (8/8) Accurately ripped


==== Контрольная сумма отчёта 728E89A84B19F8AA27E3D40709295A81F42336B6DD7CA475978F8E9607193D0C ====


[CUETools log; Date: 08.08.2019 16:35:27; Version: 2.1.4]
[AccurateRip ID: 002532eb-01a38fcf-da0f5a0f] found.
Track [ CRC | V2 ] Status
01 [2579a343|77c65361] (05+07/12) Accurately ripped
02 [58b445fa|49bdee24] (05+07/12) Accurately ripped
03 [b9d98893|01999655] (05+07/12) Accurately ripped
04 [580e6062|daa801f9] (05+07/12) Accurately ripped
05 [9317a098|697922fd] (05+07/12) Accurately ripped
06 [1ea0f0ea|e9ca3d05] (05+07/12) Accurately ripped
07 [b9f8b161|09c4809f] (05+07/12) Accurately ripped
08 [e0ffec69|e79af1a5] (05+07/12) Accurately ripped
09 [7d4ec9b6|63cf7818] (05+07/12) Accurately ripped
10 [33cdf0db|d360cda2] (05+07/12) Accurately ripped
11 [69fd92bd|f08b9dd4] (05+07/12) Accurately ripped
12 [19c0afd0|4bd1a4ff] (05+07/12) Accurately ripped
13 [7c5d2672|6d3ccf47] (05+07/12) Accurately ripped
14 [73ed9d20|5d809363] (05+07/12) Accurately ripped
15 [fd4335aa|255e39b5] (05+07/12) Accurately ripped

Track Peak [ CRC32 ] [W/O NULL] [ LOG ]
– 42,8 [55CFF40C] [82077AA4] CRC32
01 28,3 [7B567CDC] [2F96EC54]
02 36,9 [0B2EDD4D] [5AF638AE]
03 30,9 [1EB9FC46] [CF70D63F]
04 32,1 [86CADFB5] [19ED0A20]
05 34,0 [BA4DC835] [0B7BE317]
06 26,0 [7A21E738] [2CD7A41A]
07 31,0 [AAADBB09] [FEC8C7BD]
08 34,4 [81619A40] [E2F85156]
09 42,8 [7FC4F23C] [C4D74D10]
10 26,7 [15766C6D] [FCA4D428]
11 26,8 [AF3B678C] [F7DF1F4D]
12 34,7 [34B67CAC] [ADEA91A3]
13 27,8 [84DB1BF6] [6BFBC9F7]
14 35,5 [EE7777C1] [607C3019]
15 34,1 [F53095AB] [09F0D63B]


Die Krupps ‎- II: The Final Option + The Final Option Remixed (2011)

All thanks go to the original releaser

Die Krupps in my Blog

Download Die Krupps ‎- II: The Final Option + The Final Option Remixed (2011):