Subcategories

Dierks Bentley - Don't Leave Me In Love (2001)

Posted By: aasana
Dierks Bentley - Don't Leave Me In Love (2001)

Dierks Bentley - Don't Leave Me In Love (2001)
EAC Rip | FLAC (tracks+.cue) | 00:34:24 | 222,52 MB
Country | Label: Dangling Rope Records

2001 Independent release on Dangling Rope Records. Features "Whiskey Tears" and "Bartenders, Barstools, Barmaids" (renamed "Bartenders Etc.") which were re-recorded for his self titled 2003 release on Capitol Records

Tracklist:
01. Dierks Bentley - Always Be Me
02. Dierks Bentley - Don't Leave Me In Love
03. Dierks Bentley - Midnight Radio
04. Dierks Bentley - Bartenders, Barstools, Barmaids
05. Dierks Bentley - Walking Papers
06. Dierks Bentley - Whiskey Tears
07. Dierks Bentley - Living Single
08. Dierks Bentley - Why Do You Love Me
09. Dierks Bentley - Not Through Loving You
10. Dierks Bentley - Home Is Where The Hurt Is

Exact Audio Copy V0.99 prebeta 3 from 28. July 2007

EAC extraction logfile from 3. January 2011, 20:58

Dierks Bentley / Don't Leave Me In Love

Used drive : LITE-ON DVDRW SHW-160H6S Adapter: 5 ID: 0

Read mode : Secure
Utilize accurate stream : Yes
Defeat audio cache : Yes
Make use of C2 pointers : No

Combined read/write offset correction : 0
Overread into Lead-In and Lead-Out : No
Fill up missing offset samples with silence : Yes
Delete leading and trailing silent blocks : No
Null samples used in CRC calculations : No
Used interface : Native Win32 interface for Win NT & 2000
Gap handling : Not detected, thus appended to previous track

Used output format : User Defined Encoder
Selected bitrate : 768 kBit/s
Quality : High
Add ID3 tag : No
Command line compressor : C:\Program Files\Exact Audio Copy\FLAC\FLAC.EXE
Additional command line options : -6 -V -T "ARTIST=%a" -T "TITLE=%t" -T "ALBUM=%g" -T "DATE=%y" -T "TRACKNUMBER=%n" -T "GENRE=%m" -T "COMMENT=%e" %s -o %d


TOC of the extracted CD

Track | Start | Length | Start sector | End sector
––––––––––––––––––––––––––––-
1 | 0:00.00 | 4:07.00 | 0 | 18524
2 | 4:07.00 | 3:55.02 | 18525 | 36151
3 | 8:02.02 | 3:10.18 | 36152 | 50419
4 | 11:12.20 | 2:41.00 | 50420 | 62494
5 | 13:53.20 | 3:47.05 | 62495 | 79524
6 | 17:40.25 | 3:02.32 | 79525 | 93206
7 | 20:42.57 | 2:56.08 | 93207 | 106414
8 | 23:38.65 | 3:22.17 | 106415 | 121581
9 | 27:01.07 | 3:16.10 | 121582 | 136291
10 | 30:17.17 | 4:07.18 | 136292 | 154834


Track 1

Filename C:\Documents and Settings\HP_Administrator\My Documents\Always Be Me.wav

Peak level 95.1 %
Track quality 100.0 %
Test CRC 8FC572CF
Copy CRC 8FC572CF
Copy OK

Track 2

Filename C:\Documents and Settings\HP_Administrator\My Documents\Don't Leave Me In Love.wav

Peak level 95.1 %
Track quality 100.0 %
Test CRC A4CFCC1A
Copy CRC A4CFCC1A
Copy OK

Track 3

Filename C:\Documents and Settings\HP_Administrator\My Documents\Midnight Radio.wav

Peak level 95.1 %
Track quality 100.0 %
Test CRC 9F55CBF8
Copy CRC 9F55CBF8
Copy OK

Track 4

Filename C:\Documents and Settings\HP_Administrator\My Documents\Bartenders, Barstools, Barmaids.wav

Peak level 95.1 %
Track quality 100.0 %
Test CRC E9114B86
Copy CRC E9114B86
Copy OK

Track 5

Filename C:\Documents and Settings\HP_Administrator\My Documents\Walking Papers.wav

Peak level 95.1 %
Track quality 100.0 %
Test CRC A93BDB1E
Copy CRC A93BDB1E
Copy OK

Track 6

Filename C:\Documents and Settings\HP_Administrator\My Documents\Whiskey Tears.wav

Peak level 95.1 %
Track quality 100.0 %
Test CRC 53C59288
Copy CRC 53C59288
Copy OK

Track 7

Filename C:\Documents and Settings\HP_Administrator\My Documents\Living Single.wav

Peak level 95.1 %
Track quality 100.0 %
Test CRC 7777442B
Copy CRC 7777442B
Copy OK

Track 8

Filename C:\Documents and Settings\HP_Administrator\My Documents\Why Do You Love Me.wav

Peak level 95.1 %
Track quality 99.9 %
Test CRC EF5E16B9
Copy CRC EF5E16B9
Copy OK

Track 9

Filename C:\Documents and Settings\HP_Administrator\My Documents\Not Through Loving You.wav

Peak level 95.1 %
Track quality 100.0 %
Test CRC E47871F3
Copy CRC E47871F3
Copy OK

Track 10

Filename C:\Documents and Settings\HP_Administrator\My Documents\Home Is Where The Hurt Is.wav

Peak level 95.1 %
Track quality 100.0 %
Test CRC 020757CB
Copy CRC 020757CB
Copy OK

No errors occurred

End of status report