Dimitri Jurowski, Orchestra Internazionale d'Italia - Cherubini: Lo sposo di tre e marito di nessuna (2006)

Posted By: ArlegZ
Dimitri Jurowski, Orchestra Internazionale d'Italia - Cherubini: Lo sposo di tre e marito di nessuna (2006)

Dimitri Jurowski, Orchestra Internazionale d'Italia - Cherubini: Lo sposo di tre e marito di nessuna (2006)
EAC | FLAC | Image (Cue & Log) ~ 643 Mb | Total time: 76:52+74:03 | Scans included
Classical | Label: Dynamic | # CDS 503/1-2 | Recorded: 2006

Composed in 1783, Thrice Betrothed, Never Wed was the young Cherubini’s fifth opera and his first opera buffa. While it echoes its era—Paisiello, Cimarosa, Haydn, and early Mozart—it displays an almost Rossinian rhythmic bite and a few harmonic touches that look forward to the dramatic masterpieces of Cherubini’s Paris years (Lodoiska, Medée, Les deux journées, Anacréon, the C-Minor Requiem). Despite decades-long exploration of Cherubini, I have never encountered the opera before; this claims to be its first recording. The plot is filled with the expected inanities: disguises, mistaken identities, and Commedia dell’arte shenanigans. Don Pastacchio is the thrice-betrothed nobleman who is left standing when the music stops. After many false starts and red herrings, the other six characters finally match up into couples.
The overture is a gem, but the opera starts slowly; both music and performance get better as the evening progresses. The cast of seven young voices is more than satisfactory. Soprano Martorana sings smoothly and brightly in a role of fierce tessitura; her coloratura moves easily, but at first her pitch is unreliable. Nevertheless, she hits several notes well above high C right on. The second soprano is good, too, in a more reasonable range. The tenor has a fine ring, and the baritones are stylish and solid; vocal ensembles are lively if somewhat rough and ready. A good-sized orchestra (pairs of flutes, oboes, horns, and a clarinet, with strings 9/7/6/4/2) plays smoothly; the solo oboe is especially warm and colorful. Conductor Dimitri Jurowksi keeps everything moving along. A sweet-toned harpsichord enlivens the recitatives with imaginative flourishes. A bright, well-balanced recording captures everything nicely.
(James H. North)

Performer:
Donna Lisetta – Maria Laura Martorana
Don Martino – Emanuele D’Aguanno
Don Pistacchio – Giulio Mastrototaro
Donna Rosa – Rosa Anna Peraino
Don Simone – Vito Priante
Bettina – Rosa Sorice
Folletto – Gabriele Ribis
Orchestra Internazionale d'Italia
Direttore - Dimitri Jurowski

Track List:
CD1:
01. Sinfonia
Atto Primo
02. Guardate quanti giochi (Don Simone)
03. Facciamo piú guadagno (Bettina)
04. Bella cosa ch’è il viaggiare (Lisetta, Martino)
05. Sorella mia, giudizio (Martino)
06. Or che son vestito in gala (Don Pistacchio)
07. Orsú, villani (Don Pistacchio)
08. Superbo di me stesso (Martino)
09. È questa la locanda (Donna Rosa)
10. Gioia bella (Don Simone)
11. Lisetta allegramente (Lisetta)
12. Chi crede a voi altri uomini (Dona Rosa)
13. Quella signora è matta (Don Pistacchio)
14. Moglie quella! Ma di chi? (Don Pistacchio)
15. Chi tiene moneta (Folletto)
16. Sono amante e son pietosa (Lisetta)
17. Ecco la falsa sposa (Don Pistacchio)
18. Donne belle, son fallito (Don Pistacchio)
19. Mio caro Don Simon (Donna Rosa)
20. Se la bella del ritratto (Martino)
21. Zeffiretti che placidi e cheti (Lisetta)
CD2:
01. Bada bene ser nipote (Don Simone)
02. Atto Secondo. Che ne dici Bettina (Folletto)
03. Un uomo astuto e destro (Folletto)
04. Certo, chi è destro al mondo (Bettina)
05. No, tanto scortese (Bettina)
06. Signor zio, signor zio (Don Pistacchio)
07. Qui è Baldo, e Bartolo (Martino)
08. Signoris benvenutis (Don Pistacchio)
09. Facciamo un po' silenzio (Don Pistacchio)
10. Adesso che mi sono consigliato (Don Simone)
11. Vezzosa cara sposa (Don Simone)
12. Così, così si faccia (Donna Rosa)
13. Or che dorme il mio sposino (Donna Rosa)
14. Eccoli, sono qua (Martino)
15. Ah no, non pianger piú (Lisetta)
16. Dolce fiamma del mio core (Lisetta)
17. Lisetta m'ha capito (Martino)
18. Askara ki kila (a 4)
19. La scena veramente è stata bella (Folletto)
20. Quando il labbro io movo a riso (Martino)
21. Sento un'amena voce (Donna Rosa)
22. Tutto questo è accaduto? (Bettina)
23. Prigioniera abbandonata (Lisetta)
24. Allegri staffieri (Bettina)
25. Cara sposa, vezzosa, bellina (Don Simone)


Exact Audio Copy V1.3 from 2. September 2016

EAC extraction logfile from 8. October 2017, 14:12

Dimitri Jurowski, Orchestra Internazionale d'Italia / Cherubini - Lo sposo di tre e marito di nessuna CD1

Used drive : PIONEER DVD-RW DVR-218L Adapter: 1 ID: 0

Read mode : Secure
Utilize accurate stream : Yes
Defeat audio cache : Yes
Make use of C2 pointers : No

Read offset correction : 6
Overread into Lead-In and Lead-Out : No
Fill up missing offset samples with silence : Yes
Delete leading and trailing silent blocks : No
Null samples used in CRC calculations : Yes
Used interface : Native Win32 interface for Win NT & 2000

Used output format : User Defined Encoder
Selected bitrate : 128 kBit/s
Quality : High
Add ID3 tag : No
Command line compressor : C:\Program Files\Exact Audio Copy\Flac\flac.exe
Additional command line options : -V -8 -T "Date=%year%" -T "Genre=%genre%" %source%


TOC of the extracted CD

Track | Start | Length | Start sector | End sector
––––––––––––––––––––––––––––-
1 | 0:00.00 | 4:48.22 | 0 | 21621
2 | 4:48.22 | 5:50.68 | 21622 | 47939
3 | 10:39.15 | 3:49.10 | 47940 | 65124
4 | 14:28.25 | 2:03.45 | 65125 | 74394
5 | 16:31.70 | 1:45.29 | 74395 | 82298
6 | 18:17.24 | 2:48.23 | 82299 | 94921
7 | 21:05.47 | 3:27.68 | 94922 | 110514
8 | 24:33.40 | 5:19.55 | 110515 | 134494
9 | 29:53.20 | 1:41.69 | 134495 | 142138
10 | 31:35.14 | 2:17.36 | 142139 | 152449
11 | 33:52.50 | 3:19.47 | 152450 | 167421
12 | 37:12.22 | 4:51.04 | 167422 | 189250
13 | 42:03.26 | 3:16.57 | 189251 | 204007
14 | 45:20.08 | 6:00.49 | 204008 | 231056
15 | 51:20.57 | 2:13.19 | 231057 | 241050
16 | 53:34.01 | 5:46.30 | 241051 | 267030
17 | 59:20.31 | 2:04.13 | 267031 | 276343
18 | 61:24.44 | 4:22.44 | 276344 | 296037
19 | 65:47.13 | 0:57.05 | 296038 | 300317
20 | 66:44.18 | 5:01.53 | 300318 | 322945
21 | 71:45.71 | 5:06.20 | 322946 | 345915


Range status and errors

Selected range

Filename C:\Program Files\Exact Audio Copy\Flac\Cherubini - Lo sposo di tre e marito di nessuna CD1.wav

Peak level 81.4 %
Extraction speed 2.1 X
Range quality 100.0 %
Test CRC D88B03D9
Copy CRC D88B03D9
Copy OK

No errors occurred


AccurateRip summary

Track 1 not present in database
Track 2 not present in database
Track 3 not present in database
Track 4 not present in database
Track 5 not present in database
Track 6 not present in database
Track 7 not present in database
Track 8 not present in database
Track 9 not present in database
Track 10 not present in database
Track 11 not present in database
Track 12 not present in database
Track 13 not present in database
Track 14 not present in database
Track 15 not present in database
Track 16 not present in database
Track 17 not present in database
Track 18 not present in database
Track 19 not present in database
Track 20 not present in database
Track 21 not present in database

None of the tracks are present in the AccurateRip database

End of status report

==== Log checksum ADB7B2930295963FDE475C1C0D464F945DCFCD166BF6C88CAD4AFB3B3DEB6A92 ====


Exact Audio Copy V1.3 from 2. September 2016

EAC extraction logfile from 8. October 2017, 15:42

Dimitri Jurowski, Orchestra Internazionale d'Italia / Cherubini - Lo sposo di tre e marito di nessuna CD2

Used drive : PIONEER DVD-RW DVR-218L Adapter: 1 ID: 0

Read mode : Secure
Utilize accurate stream : Yes
Defeat audio cache : Yes
Make use of C2 pointers : No

Read offset correction : 6
Overread into Lead-In and Lead-Out : No
Fill up missing offset samples with silence : Yes
Delete leading and trailing silent blocks : No
Null samples used in CRC calculations : Yes
Used interface : Native Win32 interface for Win NT & 2000

Used output format : User Defined Encoder
Selected bitrate : 128 kBit/s
Quality : High
Add ID3 tag : No
Command line compressor : C:\Program Files\Exact Audio Copy\Flac\flac.exe
Additional command line options : -V -8 -T "Date=%year%" -T "Genre=%genre%" %source%


TOC of the extracted CD

Track | Start | Length | Start sector | End sector
––––––––––––––––––––––––––––-
1 | 0:00.00 | 5:43.05 | 0 | 25729
2 | 5:43.05 | 1:47.31 | 25730 | 33785
3 | 7:30.36 | 2:52.65 | 33786 | 46750
4 | 10:23.26 | 1:57.00 | 46751 | 55525
5 | 12:20.26 | 4:01.65 | 55526 | 73665
6 | 16:22.16 | 0:38.29 | 73666 | 76544
7 | 17:00.45 | 1:36.39 | 76545 | 83783
8 | 18:37.09 | 1:10.39 | 83784 | 89072
9 | 19:47.48 | 3:07.37 | 89073 | 103134
10 | 22:55.10 | 1:02.30 | 103135 | 107814
11 | 23:57.40 | 1:50.34 | 107815 | 116098
12 | 25:47.74 | 2:13.48 | 116099 | 126121
13 | 28:01.47 | 4:20.68 | 126122 | 145689
14 | 32:22.40 | 1:32.46 | 145690 | 152635
15 | 33:55.11 | 3:03.47 | 152636 | 166407
16 | 36:58.58 | 5:00.70 | 166408 | 188977
17 | 41:59.53 | 0:38.19 | 188978 | 191846
18 | 42:37.72 | 6:27.26 | 191847 | 220897
19 | 49:05.23 | 1:16.26 | 220898 | 226623
20 | 50:21.49 | 3:24.39 | 226624 | 241962
21 | 53:46.13 | 4:19.70 | 241963 | 261457
22 | 58:06.08 | 2:41.27 | 261458 | 273559
23 | 60:47.35 | 4:06.19 | 273560 | 292028
24 | 64:53.54 | 3:51.09 | 292029 | 309362
25 | 68:44.63 | 5:19.00 | 309363 | 333287


Range status and errors

Selected range

Filename C:\Program Files\Exact Audio Copy\Flac\Cherubini - Lo sposo di tre e marito di nessuna CD2.wav

Peak level 89.7 %
Extraction speed 2.0 X
Range quality 99.9 %
Test CRC 4AAB6145
Copy CRC 4AAB6145
Copy OK

No errors occurred


AccurateRip summary

Track 1 not present in database
Track 2 not present in database
Track 3 not present in database
Track 4 not present in database
Track 5 not present in database
Track 6 not present in database
Track 7 not present in database
Track 8 not present in database
Track 9 not present in database
Track 10 not present in database
Track 11 not present in database
Track 12 not present in database
Track 13 not present in database
Track 14 not present in database
Track 15 not present in database
Track 16 not present in database
Track 17 not present in database
Track 18 not present in database
Track 19 not present in database
Track 20 not present in database
Track 21 not present in database
Track 22 not present in database
Track 23 not present in database
Track 24 not present in database
Track 25 not present in database

None of the tracks are present in the AccurateRip database

End of status report

==== Log checksum 304F29C5FD13F7B73F203C9A83244B1CADC0A34F9FE4F497AE71EC06A909076B ====

Dimitri Jurowski, Orchestra Internazionale d'Italia - Cherubini: Lo sposo di tre e marito di nessuna (2006)