Subcategories

Dirty Looks - I.C.U. (2010) [Digipak]

Posted By: Andi_Deris
Dirty Looks - I.C.U. (2010) [Digipak]

Dirty Looks - I.C.U. (2010) [Digipak]
EAC Rip | FLAC: Tracks+Cue+Log | 376 Mb | MP3 CBR 320 kbps | 128 Mb | Scans | 135 Mb | Time: 46:04
FnA Records | 24735-016-2
Hard Rock, Heavy Metal

Perhaps their heaviest and most diverse album to date, and their best album in the last decade, Dirty Looks charters new territory on their 2010 studio album I.C.U. This album shows the work of a revitalized band that was poised for a comeback, when unfortunately their world was turned upside down when bassist Greg Pianka was killed in a bar fight shortly after he finished laying down his bass tracks. The band, devastated, forged forward to finish the album in Greg's honor and wanted it released asap to commemorate what would be his last work. I.C.U. shows the workhorse mentality of a newly formed, dedicated and hungry young band paired with the classic AC/DC vocal stylings of frontman, Henrik Ostergaard, who brought the band to the dance more than once. While the listener gets what they have come to expect, a classic Dirty Looks sound, they also get something new - a young, hungry, solid band that tweaked the album into a heavy but melodic piece of hard rock history. With up-and-coming producer, Mikhail Pivovarov, at the helms…Dirty Looks was able to tread into new territory as well. The album, while still a very hard rock album, features a couple of surprises. Showing the bands growth, you have the band and producer experimenting with a mixture of violin, cello, piano, and strings on "Only Friend". The other surprises on this album are the three cover tracks: Happy Together (The Turtles), Spirit In The Sky (Norman Greenbaum), and Down Payment Blues (AC/DC). Its surprising to see the band cover an AC/DC tune, when for so many years they tried to shed the often made comparisons to one of Heavy Metals Dynasties. FnA Records releases this long-awaited new studio album with a limited edition digi-pak pressing printed with Metallic Gold Ink (limited to the first 1,500).

Dirty Looks - I.C.U. (2010) [Digipak]




Dirty Looks - I.C.U. (2010) [Digipak]


Track Listing

01. Every Mother's Child (04:30)
02. Special (04:33)
03. Sugar Pie (03:38)
04. Down Payment Blues (AC/DC cover) (06:25)
05. You're Mine (04:56)
06. Only Friend (04:56)
07. Got A Ticket (05:06)
08. Happy Together (The Turtles cover) (04:10)
09. Spirit In The Sky (03:44)
~ Bonus Track ~
10. This Way - Live (Never berofe released live version) (04:07)

Produced by Mario Regano

The Band

• Henrik Ostergaard –-vocals, guitar
• Scott Parmenter - guitar, vocals
• Bill Dailey - drums, vocals
• Greg Pianka - bass

*****
• Tommy Mandel - organ and clavinet (3,4,7,9)
• Angelo Natalie - piano (6)
• SeeRi Sung - violin (6)
• Laurel Pistey - cello (6)
• Jonnie Dredge, Pick Bickmore - string programming (6)
• Mikhail Pivovarov - piano (7) and additional guitar (5)

Exact Audio Copy V1.0 beta 3 from 29. August 2011

EAC extraction logfile from 26. January 2014, 1:09

Dirty Looks / I.C.U.

Used drive : HL-DT-STDVDRAM GH24NS90 Adapter: 4 ID: 0

Read mode : Secure
Utilize accurate stream : Yes
Defeat audio cache : Yes
Make use of C2 pointers : No

Read offset correction : 6
Overread into Lead-In and Lead-Out : No
Fill up missing offset samples with silence : Yes
Delete leading and trailing silent blocks : No
Null samples used in CRC calculations : Yes
Used interface : Native Win32 interface for Win NT & 2000
Gap handling : Appended to previous track

Used output format : User Defined Encoder
Selected bitrate : 1024 kBit/s
Quality : High
Add ID3 tag : No
Command line compressor : F:\7\Program Files (x86)\Exact Audio Copy\FLAC\FLAC.EXE
Additional command line options : -8 -V -T "ARTIST=%artist%" -T "TITLE=%title%" -T "ALBUM=%albumtitle%" -T "DATE=%year%" -T "TRACKNUMBER=%tracknr%" -T "TOTALTRACKS=%numtracks%" -T "GENRE=%genre%" -T "ALBUMARTIST=%albumartist%" -T "ALBUM ARTIST=%albumartist%" -T "COMMENT=EAC Secure Mode, Test & Copy, AccurateRip, FLAC -8" %source%


TOC of the extracted CD

Track | Start | Length | Start sector | End sector
––––––––––––––––––––––––––––-
1 | 0:00.00 | 4:30.07 | 0 | 20256
2 | 4:30.07 | 4:32.44 | 20257 | 40700
3 | 9:02.51 | 3:38.07 | 40701 | 57057
4 | 12:40.58 | 6:24.54 | 57058 | 85911
5 | 19:05.37 | 4:55.73 | 85912 | 108109
6 | 24:01.35 | 4:55.47 | 108110 | 130281
7 | 28:57.07 | 5:05.33 | 130282 | 153189
8 | 34:02.40 | 4:10.14 | 153190 | 171953
9 | 38:12.54 | 3:43.32 | 171954 | 188710
10 | 41:56.11 | 4:07.17 | 188711 | 207252


Track 1

Filename F:\Dirty Looks - I.C.U. - (2010) [FLAC] {FNA Records 247365-016-2}\01 - Every Mother's Child.wav

Pre-gap length 0:00:02.00

Peak level 74.1 %
Extraction speed 1.1 X
Track quality 100.0 %
Test CRC 075E398D
Copy CRC 075E398D
Accurately ripped (confidence 1) [83EEF782] (AR v1)
Copy OK

Track 2

Filename F:\Dirty Looks - I.C.U. - (2010) [FLAC] {FNA Records 247365-016-2}\02 - Special.wav

Pre-gap length 0:00:04.30

Peak level 74.1 %
Extraction speed 1.1 X
Track quality 99.9 %
Test CRC 4C92BCD7
Copy CRC 4C92BCD7
Accurately ripped (confidence 1) [1FB9F1C1] (AR v1)
Copy OK

Track 3

Filename F:\Dirty Looks - I.C.U. - (2010) [FLAC] {FNA Records 247365-016-2}\03 - Sugar Pie.wav

Pre-gap length 0:00:02.00

Peak level 74.1 %
Extraction speed 1.1 X
Track quality 99.9 %
Test CRC 8B4E64B0
Copy CRC 8B4E64B0
Accurately ripped (confidence 1) [A25877D2] (AR v1)
Copy OK

Track 4

Filename F:\Dirty Looks - I.C.U. - (2010) [FLAC] {FNA Records 247365-016-2}\04 - Down Payment Blues.wav

Pre-gap length 0:00:02.00

Peak level 74.1 %
Extraction speed 1.5 X
Track quality 100.0 %
Test CRC 30EC18B6
Copy CRC 30EC18B6
Accurately ripped (confidence 1) [690E638C] (AR v1)
Copy OK

Track 5

Filename F:\Dirty Looks - I.C.U. - (2010) [FLAC] {FNA Records 247365-016-2}\05 - You're Mine.wav

Pre-gap length 0:00:02.00

Peak level 74.1 %
Extraction speed 1.6 X
Track quality 100.0 %
Test CRC 9F375B33
Copy CRC 9F375B33
Accurately ripped (confidence 1) [E0FC6603] (AR v1)
Copy OK

Track 6

Filename F:\Dirty Looks - I.C.U. - (2010) [FLAC] {FNA Records 247365-016-2}\06 - Only Friend.wav

Pre-gap length 0:00:02.00

Peak level 74.1 %
Extraction speed 1.7 X
Track quality 100.0 %
Test CRC 123A3384
Copy CRC 123A3384
Accurately ripped (confidence 1) [D07879E9] (AR v1)
Copy OK

Track 7

Filename F:\Dirty Looks - I.C.U. - (2010) [FLAC] {FNA Records 247365-016-2}\07 - Got A Ticket.wav

Pre-gap length 0:00:02.00

Peak level 74.1 %
Extraction speed 1.6 X
Track quality 99.9 %
Test CRC 271FB6CC
Copy CRC 271FB6CC
Accurately ripped (confidence 1) [C5C55A3D] (AR v1)
Copy OK

Track 8

Filename F:\Dirty Looks - I.C.U. - (2010) [FLAC] {FNA Records 247365-016-2}\08 - Happy Together.wav

Pre-gap length 0:00:02.00

Peak level 74.1 %
Extraction speed 1.8 X
Track quality 100.0 %
Test CRC FFDFFA5D
Copy CRC FFDFFA5D
Accurately ripped (confidence 1) [95A72695] (AR v1)
Copy OK

Track 9

Filename F:\Dirty Looks - I.C.U. - (2010) [FLAC] {FNA Records 247365-016-2}\09 - Spirit In The Sky.wav

Pre-gap length 0:00:02.00

Peak level 88.8 %
Extraction speed 1.6 X
Track quality 99.9 %
Test CRC D43E12EE
Copy CRC D43E12EE
Accurately ripped (confidence 1) [6D5DF728] (AR v1)
Copy OK

Track 10

Filename F:\Dirty Looks - I.C.U. - (2010) [FLAC] {FNA Records 247365-016-2}\10 - This Way (Live).wav

Pre-gap length 0:00:02.00

Peak level 74.5 %
Extraction speed 2.0 X
Track quality 100.0 %
Test CRC 840B2E5F
Copy CRC 840B2E5F
Accurately ripped (confidence 1) [D0C42D44] (AR v1)
Copy OK


All tracks accurately ripped

No errors occurred

End of status report

–– CUETools DB Plugin V2.1.3

[CTDB TOCID: iIyQYi.0pHoOjFoMHam7GVs.xXo-] found, Submit result: already submitted
[86161b9c] (1/1) Accurately ripped


==== Log checksum 5B8335A49BDFED741A9525E45160ECB179B772AD3F9EC0B1F056BA4B6436EA99 ====


Many thanks to the original uploader: Wilddog

–––––––––
Nitroflare