Subcategories

Discharge - Hear Nothing See Nothing Say Nothing (1982) {1987, Japan 1st Press}

Posted By: popsakov
Discharge - Hear Nothing See Nothing Say Nothing (1982) {1987, Japan 1st Press}

Discharge - Hear Nothing See Nothing Say Nothing (1982) {1987, Japan 1st Press}
EAC Rip | FLAC (Img) + Cue + Log ~ 227 Mb | MP3 CBR320 ~ 82 Mb
Scans Included | RAR 5% Recovery
Punk Rock, Hardcore | Vap Inc. #85013-30

Hear Nothing See Nothing Say Nothing is the debut studio album by English hardcore punk band Discharge, released on May 21, 1982 by Clay Records. While some critics at the time dismissed this album as "unmusical", in retrospect, it is viewed both a classic of the era and the peak of Discharge's career. The album is characterized by a minimalistic approach of music and lyrics, a heavy, distorted, and grinding guitar-driven sound and raw, shouted vocals similar to a political speech, with lyrics on anarchist and pacifist themes. The album is considered highly important in the evolution of extreme forms of metal and punk music, paving the way for genres such as thrash metal, black metal, crust punk and grindcore.
~ Wiki

A punk rock landmark if ever there was one, Discharge's Hear Nothing, See Nothing, Say Nothing is one of the most bleak, angry albums to ever grace the underground. The album is important on all sorts of levels, from what it did to the British hardcore scene to the long-lasting effect it had on heavy metal. And the worst part is that time has slowly erased the album from the minds of punk rockers, although the heavy metal tendencies of the band had always made them outcasts in their own scene. But this is the real thing, filled with bitter tirades against the government and predicting all-out nuclear destruction with chilling detail. The unrelenting pound of the music would create a huge movement in the hardcore world, starting first in their own country where bands like the Exploited would bring the metal sound into their music. Within a few years, bands like D.R.I., Agnostic Front, Stormtroopers of Death, and Suicidal Tendencies would make similar metal-flavored punk in the States. On the other side of the spectrum, the brutal chugging of the guitars would be a huge influence on the developing thrash metal scene. Anthrax, Metallica, Megadeth, and Slayer were its earliest champions, while later bands like Helmet and Pantera would also credit the band with inspiration. Time has hardly dulled the effect of the music; this still sounds as relevant as it did in 1982 if only because the song topics are fairly timeless. Tracks like "Protest and Survive," "Hell on Earth," and "Free Speech for the Dumb" are not only incredibly catchy and simple, but pack their maximum impact because of this simplicity. The terrifying screams of "Cries of Help" may be one of the most haunting moments on any hardcore album, while "The End" is an excellent ending track that sums up the message of the album perfectly. The re-release from the mid-'90s appended several more excellent tracks, including the savage "Two Monstrous Nuclear Stockpiles" and "The More I See," a song that possibly has the catchiest riff they have ever written. Their music before and after this point is quite unpredictable when it comes to quality, but this moment in their career was a very vital one that left an enormous imprint on music, even if most people do not realize it.
~ Bradley Torreano, All Music

***************

Discharge - Hear Nothing See Nothing Say Nothing (1982) {1987, Japan 1st Press}

Discharge - Hear Nothing See Nothing Say Nothing (1982) {1987, Japan 1st Press}

Track List:

01. State Violence State Control [2:43]
02. Hear Nothing See Nothing Say Nothing [1:30]
03. The Nightmare Continues [1:49]
04. The Final Blood Bath [1:40]
05. Protest And Survive [2:14]
06. I Won't Subscribe [1:36]
07. Drunk With Power [2:44]
08. Meanwhile [1:30]
09. Dooms' Day [2:38]
10. A Hell On Earth [3:53]
11. Cries Of Help [1:06]
12. The Possiblity Of Life's Destruction [1:14]
13. Q: And Children? A: And Children. [1:47]
14. The Blood Runs Red [1:34]
15. Free Speech For The Dumb [2:15]
16. The End [2:31]

Personnel:
Cal Morris - lead vocals
Bones - lead & rhythm guitar
Rainy - bass
Garry Moloney - drums

Exact Audio Copy V1.0 beta 3 from 29. August 2011

Отчёт EAC об извлечении, выполненном 14. апреля 2017, 13:58

Discharge / Hear Nothing See Nothing Say Nothing [85013-30]

Дисковод: ASUS DRW-2014S1 Adapter: 1 ID: 0

Режим чтения : Достоверность
Использование точного потока : Да
Отключение кэша аудио : Да
Использование указателей C2 : Нет

Коррекция смещения при чтении : 6
Способность читать области Lead-in и Lead-out : Нет
Заполнение пропущенных сэмплов тишиной : Да
Удаление блоков с тишиной в начале и конце : Нет
При вычислениях CRC использовались нулевые сэмплы : Да
Интерфейс : Встроенный Win32-интерфейс для Win NT/2000

Выходной формат : Пользовательский кодировщик
Выбранный битрейт : 128 kBit/s
Качество : Высокий
Добавление ID3-тега : Нет
Утилита сжатия : C:\Program Files (x86)\Exact Audio Copy\Flac\flac.exe
Дополнительные параметры : -V -8 -T "Date=%year%" -T "Genre=%genre%" %source%


TOC извлечённого CD

Трек | Старт | Длительность | Начальный сектор | Конечный сектор
––––––––––––––––––––––––––––––––––-
1 | 0:00.00 | 2:43.33 | 0 | 12257
2 | 2:43.33 | 1:30.02 | 12258 | 19009
3 | 4:13.35 | 1:48.68 | 19010 | 27177
4 | 6:02.28 | 1:39.52 | 27178 | 34654
5 | 7:42.05 | 2:14.25 | 34655 | 44729
6 | 9:56.30 | 1:36.30 | 44730 | 51959
7 | 11:32.60 | 2:43.68 | 51960 | 64252
8 | 14:16.53 | 1:29.55 | 64253 | 70982
9 | 15:46.33 | 2:38.25 | 70983 | 82857
10 | 18:24.58 | 3:52.50 | 82858 | 100307
11 | 22:17.33 | 1:05.50 | 100308 | 105232
12 | 23:23.08 | 1:14.12 | 105233 | 110794
13 | 24:37.20 | 1:46.45 | 110795 | 118789
14 | 26:23.65 | 1:34.25 | 118790 | 125864
15 | 27:58.15 | 2:15.23 | 125865 | 136012
16 | 30:13.38 | 2:31.12 | 136013 | 147349


Характеристики диапазона извлечения и сообщения об ошибках

Выбранный диапазон

Имя файла Z:\Discharge\1982 Hear Nothing See Nothing Say Nothing\Discharge - Hear Nothing See Nothing Say Nothing [85013-30].wav

Пиковый уровень 100.0 %
Скорость извлечения 8.0 X
Качество диапазона 100.0 %
CRC копии 667EF193
Копирование… OK

Ошибок не произошло


AccurateRip: сводка

Трек 1 : извлечено точно (доверие 2) [5C84DD2C] (AR v2)
Трек 2 : извлечено точно (доверие 2) [610A50A4] (AR v2)
Трек 3 : извлечено точно (доверие 2) [0454EAFE] (AR v2)
Трек 4 : извлечено точно (доверие 2) [E8116C76] (AR v2)
Трек 5 : извлечено точно (доверие 2) [FDC1C162] (AR v2)
Трек 6 : извлечено точно (доверие 2) [2FC111A8] (AR v2)
Трек 7 : извлечено точно (доверие 2) [365FBC9B] (AR v2)
Трек 8 : извлечено точно (доверие 2) [5C27E3EF] (AR v2)
Трек 9 : извлечено точно (доверие 2) [B89075BD] (AR v2)
Трек 10 : извлечено точно (доверие 2) [04703AC4] (AR v2)
Трек 11 : извлечено точно (доверие 2) [20DEDC97] (AR v2)
Трек 12 : извлечено точно (доверие 2) [82384DC3] (AR v2)
Трек 13 : извлечено точно (доверие 2) [EB78FC91] (AR v2)
Трек 14 : извлечено точно (доверие 2) [9AEB21BD] (AR v2)
Трек 15 : извлечено точно (доверие 2) [0948305F] (AR v2)
Трек 16 : извлечено точно (доверие 2) [137632FA] (AR v2)

Все треки извлечены точно

Конец отчёта

==== Контрольная сумма отчёта F7F211D027BF95D35F59EF1F27F50A264D8CC10240CFC60B37ABF9128CDEA2F0 ====

foobar2000 1.3.16 / Dynamic Range Meter 1.1.1
log date: 2018-09-23 10:38:48

––––––––––––––––––––––––––––––––––––––––
Analyzed: Discharge / Hear Nothing See Nothing Say Nothing [85013-30]
––––––––––––––––––––––––––––––––––––––––

DR Peak RMS Duration Track
––––––––––––––––––––––––––––––––––––––––
DR13 0.00 dB -13.88 dB 2:43 01-State Violence State Control
DR12 -1.25 dB -14.29 dB 1:30 02-Hear Nothing See Nothing Say Nothing
DR11 -1.55 dB -14.05 dB 1:49 03-The Nightmare Continues
DR11 -0.42 dB -14.61 dB 1:40 04-The Final Blood Bath
DR12 -0.97 dB -15.01 dB 2:14 05-Protest And Survive
DR11 -1.37 dB -14.13 dB 1:36 06-I Won't Subscribe
DR11 -0.37 dB -13.90 dB 2:44 07-Drunk With Power
DR11 -1.27 dB -14.26 dB 1:30 08-Meanwhile
DR12 -1.03 dB -14.59 dB 2:38 09-Dooms' Day
DR11 -2.75 dB -15.32 dB 3:53 10-A Hell On Earth
DR10 -4.52 dB -17.48 dB 1:06 11-Cries Of Help
DR12 -1.33 dB -14.81 dB 1:14 12-The Possiblity Of Life's Destruction
DR11 -2.55 dB -15.63 dB 1:47 13-Q: And Children? A: And Children.
DR10 -1.55 dB -14.72 dB 1:34 14-The Blood Runs Red
DR12 -1.71 dB -15.65 dB 2:15 15-Free Speech For The Dumb
DR13 0.00 dB -14.53 dB 2:31 16-The End
––––––––––––––––––––––––––––––––––––––––

Number of tracks: 16
Official DR value: DR11

Samplerate: 44100 Hz
Channels: 2
Bits per sample: 16
Bitrate: 912 kbps
Codec: FLAC
================================================================================

[CUETools log; Date: 23.09.2018 10:38:40; Version: 2.1.6]
[CTDB TOCID: .bTrHgEnlmXnQ0Reh3alRkvfzeM-] found.
Track | CTDB Status
1 | (6/6) Accurately ripped
2 | (6/6) Accurately ripped
3 | (6/6) Accurately ripped
4 | (6/6) Accurately ripped
5 | (6/6) Accurately ripped
6 | (6/6) Accurately ripped
7 | (6/6) Accurately ripped
8 | (6/6) Accurately ripped
9 | (6/6) Accurately ripped
10 | (6/6) Accurately ripped
11 | (6/6) Accurately ripped
12 | (6/6) Accurately ripped
13 | (6/6) Accurately ripped
14 | (6/6) Accurately ripped
15 | (6/6) Accurately ripped
16 | (6/6) Accurately ripped
[AccurateRip ID: 00131b8f-00e51f75-f007ac10] found.
Track [ CRC | V2 ] Status
01 [ec0d0d01|5c84dd2c] (0+3/3) Accurately ripped
02 [7e90e837|610a50a4] (0+3/3) Accurately ripped
03 [95d487a6|0454eafe] (0+3/3) Accurately ripped
04 [4d46e653|e8116c76] (0+3/3) Accurately ripped
05 [1154c492|fdc1c162] (0+3/3) Accurately ripped
06 [288e550d|2fc111a8] (0+3/3) Accurately ripped
07 [b731999e|365fbc9b] (0+3/3) Accurately ripped
08 [9329acac|5c27e3ef] (0+3/3) Accurately ripped
09 [5a73f91b|b89075bd] (0+3/3) Accurately ripped
10 [ca34e70e|04703ac4] (0+3/3) Accurately ripped
11 [ddfa600d|20dedc97] (0+3/3) Accurately ripped
12 [2553a51c|82384dc3] (0+3/3) Accurately ripped
13 [27360983|eb78fc91] (0+3/3) Accurately ripped
14 [56aeeda1|9aeb21bd] (0+3/3) Accurately ripped
15 [b34a882b|0948305f] (0+3/3) Accurately ripped
16 [741fdf39|137632fa] (0+3/3) Accurately ripped
Offsetted by 95:
01 [7a2cb898] (0/3) No match (V2 was not tested)
02 [4e9432b8] (0/3) No match (V2 was not tested)
03 [b958dbb5] (0/3) No match (V2 was not tested)
04 [14e5e314] (0/3) No match (V2 was not tested)
05 [3e3cfa50] (0/3) No match (V2 was not tested)
06 [07f30db4] (0/3) No match (V2 was not tested)
07 [bf14029a] (0/3) No match (V2 was not tested)
08 [4b2889b2] (0/3) No match (V2 was not tested)
09 [5cf8791b] (0/3) No match (V2 was not tested)
10 [940cbb22] (0/3) No match (V2 was not tested)
11 [0b397ff1] (0/3) No match (V2 was not tested)
12 [0020d57f] (0/3) No match (V2 was not tested)
13 [e608e506] (0/3) No match (V2 was not tested)
14 [bcf32244] (0/3) No match (V2 was not tested)
15 [4dda5132] (0/3) No match (V2 was not tested)
16 [2b39e408] (0/3) No match (V2 was not tested)

Track Peak [ CRC32 ] [W/O NULL] [ LOG ]
– 100,0 [667EF193] [C67AC61A] CRC32
01 100,0 [4F8B3A22] [362D5F6C]
02 86,5 [241BD948] [CBA9AEAB]
03 83,6 [B04733F9] [2E8570BA]
04 95,2 [73DAC712] [1C3D3048]
05 89,4 [8F0D3471] [32452665]
06 85,4 [5B3970EA] [D73E7815]
07 95,8 [A1B9537F] [752C6526]
08 86,3 [51C09709] [B00BCC97]
09 88,8 [E51CC05D] [48192CE3]
10 72,8 [ED1CBE78] [A1528A6C]
11 59,4 [67EC2EED] [1C8B9F47]
12 85,8 [C521CD62] [F383D428]
13 74,5 [33FE5B25] [7F752194]
14 83,6 [F0E27EBD] [A25E6D28]
15 82,1 [CF44C619] [31894BBF]
16 100,0 [A543664A] [D3FCEEDB]

Discharge - Hear Nothing See Nothing Say Nothing (1982) {1987, Japan 1st Press}

All thanks go to ikebana

>>> My Blog <<<

Download from icerbox.com: