Subcategories

VA - Disco Not Disco: Post Punk, Electro & Leftfield Disco Classics 1974-1986 (2008) [Re-Up]

Posted By: Designol
VA - Disco Not Disco: Post Punk, Electro & Leftfield Disco Classics 1974-1986 (2008) [Re-Up]

VA - Disco Not Disco: Post Punk, Electro & Leftfield Disco Classics 1974-1986 (2008)
EAC | FLAC | Tracks (Cue&Log) ~ 497 Mb | Mp3 (CBR320) ~ 171 Mb | Scans ~ 103 Mb
Label: Strut Records | # STRUT032CD | Time: 01:14:49
Post-Punk, Leftfield Disco, New Wave, Alternative Dance, Electro

The new edition moves from New York classics by Liquid Liquid and Bill Laswell's Material to early Detroit machine music, Belgian New Beat and a healthy dose of UK originals from Pigbag, Quando Quango and more on seminal labels like Y and Factory. Watch out too for rare gems from unexpected sources including Sisters Of Mercy side project The Sisterhood, '70s prog collective Isotope and free jazz legend Ornette Coleman.DISCO NOT DISCO is packaged in a deluxe digipak with full booklet featuring sleeve notes by Bill Brewster, author of 'Last Night A DJ Saved My Life', extensive track by track notes and rare photos.

Given new life through an arrangement with !K7, the Strut label – the source of so many wonderful compilations covering many neglected points within the spectrum of dance music across several decades – resumes with its third Disco Not Disco compilation, compiled by "Last Night a DJ Saved My Life" author Bill Brewster (who provides typically sharp and fact-packed notes) and Strut founder Quinton Scott. When the first two volumes were released in 2000 and 2002, many listeners susceptible to strange rhythmic sounds had yet to be introduced to Arthur Russell or Material, and it's safe to say that those who never set foot inside places like the Paradise Garage or the Loft would have ever thought to give a 16-minute cut off a 1981 Steve Miller Band album any kind of attention. Since then, compilations covering roughly the same territory – or one or two specific subgenres dusted off by these discs – have become common enough to make some Disco Not Disco disciples a little cynical about a third volume. Most of the tracks on this volume are indeed readily available on an assortment of compilations released within the last ten years: Nine O'Clock Drop, Anti NY, the Mutant Disco reissues, Rough Trade Shops: Post Punk and a few recent single-artist reissues, just to cite a few. Even so, we're not talking about the umpteenth big-disco-hit comp; "Contort Yourself" has a long way to go before it becomes one-tenth as comped as "I Will Survive." (And it's not like all the tracks from the first two Disco Not Discos had ever been wiped out of existence, either.) Easily the most post-punk volume of the series, there's Vivien Goldman (with the relatively scarce "Launderette"), Delta 5, Shriekback, Konk, and Maximum Joy. They mix it up with another assortment of obscurities from unexpected corners. The biggest, deepest surprises are "Crunch Cake" (thick, tightly wrapped fusion-funk from Isotope), "Binary" (a frosty 1985 B-side from France's Kazino), and "Seoul Music" (one of the series' most distinctive tracks, from Yellow Magic Orchestra, a spell weaved by spiraling percussion and serpentine bass). Even considering the timing and context, the disc is every bit as replayable as the second volume. The only truly bad move here is the inclusion of the instrumental mix of A Number of Names' proto-techno "Sharevari," which is like favoring an instrumental of Laid Back's "White Horse" over the vocal version. (Then again, the instrumental does leave room for you to perfect your impersonation of a black Detroiter approximating a posh Frenchman speaking English.) Important note: Gina X Performance's "Kaddish" is not on the disc, even though it is listed. "Seoul Music" is in its place – in the end, a good thing. Bizarrely, the advance copies did list the YMO track and included it, and there was no Gina X presence whatsoever.

Review by Andy Kellman, Allmusic.com

Tracklist:

01. Vivien Goldman - Launderette (03:47)
02. Delta 5 - Mind Your Own Business (03:13)
03. Shriekback - My Spine Is The Bassline (12'' Edit) (04:01)
04. Konk - Your Life (Party Mix) (07:25)
05. Isotope - Crunch Cake (03:55)
06. James White & The Blacks - Contort Yourself (August Darnell Remix) (06:15)
07. Quango Quango - Love Tempo (Remix) (07:55)
08. Gina X Performance - Kaddish (04:19)
09. Material - Don't Lose Control (Dance Version) (04:19)
10. Kazino - Binary (03:56)
11. Liaisons Dangereuses - Los Ninos Del Parque (12'' Mix) (05:03)
12. A Number Of Names - Sharevari (Instrumental) (06:17)
13. Six Sed Red - Shake It Right (Bang 'Em Right) (06:24)
14. Maximum Joy - Silent Street- Silent Dub (07:54)


Exact Audio Copy V1.0 beta 1 from 15. November 2010

EAC extraction logfile from 31. May 2015, 14:58

Various / Disco Not Disco (Post Punk, Electro & Leftfield Disco Classics 1974-1986)

Used drive : TSSTcorpCDDVDW SH-224DB Adapter: 1 ID: 0

Read mode : Secure
Utilize accurate stream : Yes
Defeat audio cache : Yes
Make use of C2 pointers : No

Read offset correction : 6
Overread into Lead-In and Lead-Out : No
Fill up missing offset samples with silence : Yes
Delete leading and trailing silent blocks : No
Null samples used in CRC calculations : Yes
Used interface : Native Win32 interface for Win NT & 2000
Gap handling : Appended to previous track

Used output format : User Defined Encoder
Selected bitrate : 896 kBit/s
Quality : High
Add ID3 tag : No
Command line compressor : C:\Program Files\Exact Audio Copy\Flac\flac.exe
Additional command line options : -6 -V -T "ARTIST=%a" -T "TITLE=%t" -T "ALBUM=%g" -T "DATE=%y" -T "TRACKNUMBER=%n" -T "GENRE=%m" -T "COMMENT=%e" %s -o %d


TOC of the extracted CD

Track | Start | Length | Start sector | End sector
––––––––––––––––––––––––––––-
1 | 0:00.00 | 3:47.16 | 0 | 17040
2 | 3:47.16 | 3:13.27 | 17041 | 31542
3 | 7:00.43 | 4:01.52 | 31543 | 49669
4 | 11:02.20 | 7:25.31 | 49670 | 83075
5 | 18:27.51 | 3:55.09 | 83076 | 100709
6 | 22:22.60 | 6:15.09 | 100710 | 128843
7 | 28:37.69 | 7:55.07 | 128844 | 164475
8 | 36:33.01 | 4:19.65 | 164476 | 183965
9 | 40:52.66 | 4:19.34 | 183966 | 203424
10 | 45:12.25 | 3:56.42 | 203425 | 221166
11 | 49:08.67 | 5:03.68 | 221167 | 243959
12 | 54:12.60 | 6:17.39 | 243960 | 272273
13 | 60:30.24 | 6:24.24 | 272274 | 301097
14 | 66:54.48 | 7:54.45 | 301098 | 336692


Track 1

Filename C:\New Folder\01 - Vivien Goldman - Launderette.wav

Pre-gap length 0:00:02.00

Peak level 87.0 %
Extraction speed 1.9 X
Track quality 100.0 %
Test CRC 2C766ABE
Copy CRC 2C766ABE
Accurately ripped (confidence 9) [EB74DD91]
Copy OK

Track 2

Filename C:\New Folder\02 - Delta 5 - Mind Your Own Business.wav

Pre-gap length 0:00:02.33

Peak level 97.7 %
Extraction speed 2.0 X
Track quality 100.0 %
Test CRC 0CE0EC1A
Copy CRC 0CE0EC1A
Accurately ripped (confidence 9) [E9DC8D3B]
Copy OK

Track 3

Filename C:\New Folder\03 - Shriekback - My Spine Is The Bassline (12'' Edit).wav

Pre-gap length 0:00:02.45

Peak level 100.0 %
Extraction speed 2.2 X
Track quality 100.0 %
Test CRC CE3C959C
Copy CRC CE3C959C
Accurately ripped (confidence 9) [E771F3C1]
Copy OK

Track 4

Filename C:\New Folder\04 - Konk - Your Life (Party Mix).wav

Pre-gap length 0:00:02.51

Peak level 100.0 %
Extraction speed 2.6 X
Track quality 100.0 %
Test CRC 6B61EB4F
Copy CRC 6B61EB4F
Accurately ripped (confidence 9) [4724D78E]
Copy OK

Track 5

Filename C:\New Folder\05 - Isotope - Crunch Cake.wav

Pre-gap length 0:00:02.51

Peak level 100.0 %
Extraction speed 2.1 X
Track quality 99.9 %
Test CRC 19809F56
Copy CRC 19809F56
Accurately ripped (confidence 9) [39BFA906]
Copy OK

Track 6

Filename C:\New Folder\06 - James White & The Blacks - Contort Yourself (August Darnell Remix).wav

Pre-gap length 0:00:02.51

Peak level 89.1 %
Extraction speed 3.0 X
Track quality 100.0 %
Test CRC FD180F05
Copy CRC FD180F05
Accurately ripped (confidence 9) [9DA9986C]
Copy OK

Track 7

Filename C:\New Folder\07 - Quango Quango - Love Tempo (Remix).wav

Pre-gap length 0:00:01.73

Peak level 100.0 %
Extraction speed 3.2 X
Track quality 100.0 %
Test CRC 7BE434EB
Copy CRC 7BE434EB
Accurately ripped (confidence 9) [163BFD31]
Copy OK

Track 8

Filename C:\New Folder\08 - Gina X Performance - Kaddish.wav

Pre-gap length 0:00:02.51

Peak level 100.0 %
Extraction speed 3.2 X
Track quality 100.0 %
Test CRC 79DDEA3C
Copy CRC 79DDEA3C
Accurately ripped (confidence 9) [36E71136]
Copy OK

Track 9

Filename C:\New Folder\09 - Material - Don't Lose Control (Dance Version).wav

Pre-gap length 0:00:02.33

Peak level 100.0 %
Extraction speed 3.3 X
Track quality 100.0 %
Test CRC E9A082AF
Copy CRC E9A082AF
Accurately ripped (confidence 9) [E52E8E70]
Copy OK

Track 10

Filename C:\New Folder\10 - Kazino - Binary.wav

Pre-gap length 0:00:02.44

Peak level 97.7 %
Extraction speed 3.4 X
Track quality 100.0 %
Test CRC A64CDBAB
Copy CRC A64CDBAB
Accurately ripped (confidence 9) [1BCBFA3E]
Copy OK

Track 11

Filename C:\New Folder\11 - Liaisons Dangereuses - Los Ninos Del Parque (12'' Mix).wav

Pre-gap length 0:00:02.10

Peak level 100.0 %
Extraction speed 3.6 X
Track quality 100.0 %
Test CRC CB03BE97
Copy CRC CB03BE97
Accurately ripped (confidence 9) [CC7A4629]
Copy OK

Track 12

Filename C:\New Folder\12 - A Number Of Names - Sharevari (Instrumental).wav

Pre-gap length 0:00:02.45

Peak level 97.7 %
Extraction speed 3.2 X
Track quality 99.9 %
Test CRC 276FBA0D
Copy CRC 276FBA0D
Accurately ripped (confidence 8) [2650E91C]
Copy OK

Track 13

Filename C:\New Folder\13 - Six Sed Red - Shake It Right (Bang 'Em Right).wav

Pre-gap length 0:00:02.33

Peak level 97.7 %
Extraction speed 4.0 X
Track quality 100.0 %
Test CRC 19A75743
Copy CRC 19A75743
Accurately ripped (confidence 9) [F9CF0403]
Copy OK

Track 14

Filename C:\New Folder\14 - Maximum Joy - Silent Street- Silent Dub.wav

Pre-gap length 0:00:02.49

Peak level 100.0 %
Extraction speed 4.2 X
Track quality 100.0 %
Test CRC 429F6475
Copy CRC 429F6475
Accurately ripped (confidence 9) [28F10A88]
Copy OK


All tracks accurately ripped

No errors occurred

End of status report

==== Log checksum FC424F89036F031EC07C152BF25FDCB08E38077DCD6334AD3B4AC3CE45769DE6 ====

foobar2000 1.2 / Dynamic Range Meter 1.1.1
log date: 2015-07-16 00:02:59

––––––––––––––––––––––––––––––––––––––––
Analyzed: A Number Of Names / Disco Not Disco (Post Punk, Electro & Leftfield Disco Classics 1974-1986) (1)
Delta 5 / Disco Not Disco (Post Punk, Electro & Leftfield Disco Classics 1974-1986) (2)
Gina X Performance / Disco Not Disco (Post Punk, Electro & Leftfield Disco Classics 1974-1986) (3)
Isotope / Disco Not Disco (Post Punk, Electro & Leftfield Disco Classics 1974-1986) (4)
James White & The Blacks / Disco Not Disco (Post Punk, Electro & Leftfield Disco Classics 1974-1986) (5)
Kazino / Disco Not Disco (Post Punk, Electro & Leftfield Disco Classics 1974-1986) (6)
Konk / Disco Not Disco (Post Punk, Electro & Leftfield Disco Classics 1974-1986) (7)
Liaisons Dangereuses / Disco Not Disco (Post Punk, Electro & Leftfield Disco Classics 1974-1986) (8)
Material / Disco Not Disco (Post Punk, Electro & Leftfield Disco Classics 1974-1986) (9)
Maximum Joy / Disco Not Disco (Post Punk, Electro & Leftfield Disco Classics 1974-1986) (10)
Quango Quango / Disco Not Disco (Post Punk, Electro & Leftfield Disco Classics 1974-1986) (11)
Shriekback / Disco Not Disco (Post Punk, Electro & Leftfield Disco Classics 1974-1986) (12)
Six Sed Red / Disco Not Disco (Post Punk, Electro & Leftfield Disco Classics 1974-1986) (13)
Vivien Goldman / Disco Not Disco (Post Punk, Electro & Leftfield Disco Classics 1974-1986) (14)
––––––––––––––––––––––––––––––––––––––––

DR Peak RMS Duration Track
––––––––––––––––––––––––––––––––––––––––
DR8 -0.20 dB -9.00 dB 6:18 12-Sharevari (Instrumental)
DR7 -0.20 dB -8.34 dB 3:13 02-Mind Your Own Business
DR8 0.00 dB -9.30 dB 4:20 08-Kaddish
DR8 0.00 dB -10.04 dB 3:55 05-Crunch Cake
DR9 -1.00 dB -11.19 dB 6:15 06-Contort Yourself (August Darnell Remix)
DR10 -0.20 dB -11.39 dB 3:57 10-Binary
DR10 0.00 dB -11.50 dB 7:25 04-Your Life (Party Mix)
DR8 0.00 dB -9.63 dB 5:04 11-Los Ninos Del Parque (12'' Mix)
DR10 0.00 dB -11.95 dB 4:19 09-Don't Lose Control (Dance Version)
DR8 0.00 dB -9.58 dB 7:55 14-Silent Street- Silent Dub
DR8 0.00 dB -8.88 dB 7:55 07-Love Tempo (Remix)
DR10 0.00 dB -11.14 dB 4:02 03-My Spine Is The Bassline (12'' Edit)
DR9 -0.20 dB -10.90 dB 6:24 13-Shake It Right (Bang 'Em Right)
DR8 -1.20 dB -10.77 dB 3:47 01-Launderette
––––––––––––––––––––––––––––––––––––––––

Number of tracks: 14
Official DR value: DR9

Samplerate: 44100 Hz
Channels: 2
Bits per sample: 16
Bitrate: 961 kbps
Codec: FLAC
================================================================================

VA - Disco Not Disco: Post Punk, Electro & Leftfield Disco Classics 1974-1986 (2008) [Re-Up]

VA - Disco Not Disco: Post Punk, Electro & Leftfield Disco Classics 1974-1986 (2008) [Re-Up]

All thanks to original releaser - alekow

More interesting music in My Blog