Subcategories

Various - Disco Vaults: A Dive Into Deep Rhythm (2001)

Posted By: v3122
Various - Disco Vaults: A Dive Into Deep Rhythm (2001)

Various - Disco Vaults: A Dive Into Deep Rhythm (2001)
EAC | Flac(Image) + Cue + Log & MP3 CBR 320Kbps
2CD | Warner/WEA, 8573 89145-2 | ~ 1008 or 332 Mb | Scans(jpg) -> 37 Mb
Soul, Funk, Disco

~ 2CD - 23 tracks: Sheila & B Devotion, Side Effect, Two Tons O' Fun, Phreek, Damon Harris and many more! ~

Various - Disco Vaults: A Dive Into Deep Rhythm (2001):

Various - Disco Vaults: A Dive Into Deep Rhythm (2001)

Tracklist CD1:

01. Sheila & B Devotion - Spacer
02. Chic - Chic Cheer
03. Sister Sledge - Got To Love Somebody
04. Change - A Lover's Holiday
05. Kleeer - Winners
06. Slave - Feel My Love
07. Patrice Rushen - Haven't You Heard
08. Side Effect - Always There
09. Ronn Matlock - Let Me Dance
10. Tasha Thomas - Shoot Me (With Your Love)
11. Herbie Mann - Superman
12. Pleasure - Glide

Converted to Image (CUETools 2.1.4)

Exact Audio Copy V1.0 beta 4 from 7. December 2014

EAC extraction logfile from 25. June 2016, 9:52

Various Artists / Disco Vaults (A Dive Into Deep Rhythm) (Disc 1)

Used drive : TSSTcorpCDDVDW SH-224DB Adapter: 1 ID: 0

Read mode : Secure
Utilize accurate stream : Yes
Defeat audio cache : Yes
Make use of C2 pointers : No

Read offset correction : 6
Overread into Lead-In and Lead-Out : No
Fill up missing offset samples with silence : Yes
Delete leading and trailing silent blocks : No
Null samples used in CRC calculations : Yes
Used interface : Native Win32 interface for Win NT & 2000
Gap handling : Appended to previous track

Used output format : User Defined Encoder
Selected bitrate : 896 kBit/s
Quality : High
Add ID3 tag : No
Command line compressor : C:\Program Files\Exact Audio Copy\Flac\flac.exe
Additional command line options : -6 -V -T "ARTIST=%artist%" -T "TITLE=%title%" -T "ALBUM=%albumtitle%" -T "DATE=%year%" -T "TRACKNUMBER=%tracknr%" -T "GENRE=%genre%" -T "COMMENT=%comment%" %source% -o %dest%


TOC of the extracted CD

Track | Start | Length | Start sector | End sector
––––––––––––––––––––––––––––-
1 | 0:00.00 | 5:54.10 | 0 | 26559
2 | 5:54.10 | 4:39.35 | 26560 | 47519
3 | 10:33.45 | 6:50.22 | 47520 | 78291
4 | 17:23.67 | 6:17.73 | 78292 | 106639
5 | 23:41.65 | 6:53.20 | 106640 | 137634
6 | 30:35.10 | 4:29.45 | 137635 | 157854
7 | 35:04.55 | 6:43.57 | 157855 | 188136
8 | 41:48.37 | 5:03.65 | 188137 | 210926
9 | 46:52.27 | 5:05.58 | 210927 | 233859
10 | 51:58.10 | 7:03.50 | 233860 | 265634
11 | 59:01.60 | 5:32.22 | 265635 | 290556
12 | 64:34.07 | 6:22.13 | 290557 | 319219


Track 1

Filename C:\New Folder\01 - Sheila & B Devotion - Spacer.wav

Pre-gap length 0:00:02.00

Peak level 97.1 %
Extraction speed 4.7 X
Track quality 100.0 %
Test CRC BAB46572
Copy CRC BAB46572
Cannot be verified as accurate (confidence 1) [FA45CE0D], AccurateRip returned [5DC8F67A] (AR v2)
Copy OK

Track 2

Filename C:\New Folder\02 - Chic - Chic Cheer.wav

Peak level 97.1 %
Extraction speed 5.1 X
Track quality 100.0 %
Test CRC E307AF04
Copy CRC E307AF04
Cannot be verified as accurate (confidence 1) [DD30A10E], AccurateRip returned [3F0D8D42] (AR v2)
Copy OK

Track 3

Filename C:\New Folder\03 - Sister Sledge - Got To Love Somebody.wav

Peak level 99.8 %
Extraction speed 5.9 X
Track quality 100.0 %
Test CRC C32BA484
Copy CRC C32BA484
Cannot be verified as accurate (confidence 1) [B2ABECCE], AccurateRip returned [DEB0F746] (AR v2)
Copy OK

Track 4

Filename C:\New Folder\04 - Change - A Lover's Holiday.wav

Peak level 97.1 %
Extraction speed 6.3 X
Track quality 100.0 %
Test CRC A73880A9
Copy CRC A73880A9
Cannot be verified as accurate (confidence 1) [925C44FB], AccurateRip returned [9897ADA4] (AR v2)
Copy OK

Track 5

Filename C:\New Folder\05 - Kleeer - Winners.wav

Peak level 97.1 %
Extraction speed 6.9 X
Track quality 100.0 %
Test CRC F8C58D97
Copy CRC F8C58D97
Cannot be verified as accurate (confidence 1) [202BB2E3], AccurateRip returned [3311DD0E] (AR v2)
Copy OK

Track 6

Filename C:\New Folder\06 - Slave - Feel My Love.wav

Peak level 97.1 %
Extraction speed 5.6 X
Track quality 99.9 %
Test CRC 01C41360
Copy CRC 01C41360
Cannot be verified as accurate (confidence 1) [54A173CE], AccurateRip returned [BCF0444B] (AR v2)
Copy OK

Track 7

Filename C:\New Folder\07 - Patrice Rushen - Haven't You Heard.wav

Peak level 97.1 %
Extraction speed 7.6 X
Track quality 100.0 %
Test CRC DEAD5752
Copy CRC DEAD5752
Cannot be verified as accurate (confidence 1) [F73F7309], AccurateRip returned [CA250830] (AR v2)
Copy OK

Track 8

Filename C:\New Folder\08 - Side Effect - Always There.wav

Peak level 97.1 %
Extraction speed 7.7 X
Track quality 100.0 %
Test CRC D6B2A93C
Copy CRC D6B2A93C
Cannot be verified as accurate (confidence 1) [969C0BAC], AccurateRip returned [38D80568] (AR v2)
Copy OK

Track 9

Filename C:\New Folder\09 - Ronn Matlock - Let Me Dance.wav

Peak level 97.1 %
Extraction speed 6.5 X
Track quality 99.9 %
Test CRC 3183101E
Copy CRC 3183101E
Cannot be verified as accurate (confidence 1) [4EBDA288], AccurateRip returned [3802FC4F] (AR v2)
Copy OK

Track 10

Filename C:\New Folder\10 - Tasha Thomas - Shoot Me (With Your Love).wav

Peak level 97.1 %
Extraction speed 8.5 X
Track quality 100.0 %
Test CRC A388B44B
Copy CRC A388B44B
Cannot be verified as accurate (confidence 1) [110D7C3E], AccurateRip returned [CD807D53] (AR v2)
Copy OK

Track 11

Filename C:\New Folder\11 - Herbie Mann - Superman.wav

Peak level 97.1 %
Extraction speed 8.6 X
Track quality 100.0 %
Test CRC 751381E2
Copy CRC 751381E2
Cannot be verified as accurate (confidence 1) [31F91D59], AccurateRip returned [2575214A] (AR v2)
Copy OK

Track 12

Filename C:\New Folder\12 - Pleasure - Glide.wav

Peak level 97.1 %
Extraction speed 9.0 X
Track quality 100.0 %
Test CRC 615E4A59
Copy CRC 615E4A59
Cannot be verified as accurate (confidence 1) [47548061], AccurateRip returned [1A026AD0] (AR v2)
Copy OK


No tracks could be verified as accurate
You may have a different pressing from the one(s) in the database

No errors occurred

End of status report

–– CUETools DB Plugin V2.1.4

[CTDB TOCID: cR2W.Uh6n4UkTND.E5VJ1W4F4fg-] disk not present in database
Submit result: cR2W.Uh6n4UkTND.E5VJ1W4F4fg- has been uploaded


==== Log checksum BE7E58DAF7C114C57A9D1E6CA34C95E1CEB2742333B7286B57AEE362F99C3428 ====

Various - Disco Vaults: A Dive Into Deep Rhythm (2001)

Tracklist CD2:

01. Sylvester - Dance (Disco Heat)
02. Two Tons O' Fun - I Got The Feeling
03. Fever - Beat Of The Night
04. Slick - Space Bass
05. Phreek - Weekend
06. Stargard - Wear It Out
07. Chaka Khan - Clouds
08. Damon Harris - It's Music
09. Trussel - Love Injection
10. Goody Goody - #1 Dee Jay
11. Paradise Express - Poinciana

Converted to Image (CUETools 2.1.4)

Exact Audio Copy V1.0 beta 4 from 7. December 2014

EAC extraction logfile from 25. June 2016, 10:50

Various Artists / Disco Vaults (A Dive Into Deep Rhythm) (Disc 2)

Used drive : TSSTcorpCDDVDW SH-224DB Adapter: 1 ID: 0

Read mode : Secure
Utilize accurate stream : Yes
Defeat audio cache : Yes
Make use of C2 pointers : No

Read offset correction : 6
Overread into Lead-In and Lead-Out : No
Fill up missing offset samples with silence : Yes
Delete leading and trailing silent blocks : No
Null samples used in CRC calculations : Yes
Used interface : Native Win32 interface for Win NT & 2000
Gap handling : Appended to previous track

Used output format : User Defined Encoder
Selected bitrate : 896 kBit/s
Quality : High
Add ID3 tag : No
Command line compressor : C:\Program Files\Exact Audio Copy\Flac\flac.exe
Additional command line options : -6 -V -T "ARTIST=%artist%" -T "TITLE=%title%" -T "ALBUM=%albumtitle%" -T "DATE=%year%" -T "TRACKNUMBER=%tracknr%" -T "GENRE=%genre%" -T "COMMENT=%comment%" %source% -o %dest%


TOC of the extracted CD

Track | Start | Length | Start sector | End sector
––––––––––––––––––––––––––––-
1 | 0:00.00 | 5:44.57 | 0 | 25856
2 | 5:44.57 | 5:09.48 | 25857 | 49079
3 | 10:54.30 | 5:42.65 | 49080 | 74794
4 | 16:37.20 | 6:54.55 | 74795 | 105899
5 | 23:32.00 | 6:44.10 | 105900 | 136209
6 | 30:16.10 | 5:17.45 | 136210 | 160029
7 | 35:33.55 | 4:25.60 | 160030 | 179964
8 | 39:59.40 | 7:19.37 | 179965 | 212926
9 | 47:19.02 | 7:48.48 | 212927 | 248074
10 | 55:07.50 | 7:22.60 | 248075 | 281284
11 | 62:30.35 | 7:29.12 | 281285 | 314971


Track 1

Filename C:\New Folder\01 - Sylvester - Dance (Disco Heat).wav

Pre-gap length 0:00:02.00

Peak level 97.1 %
Extraction speed 1.8 X
Track quality 100.0 %
Test CRC 79DB7EB1
Copy CRC 79DB7EB1
Cannot be verified as accurate (confidence 1) [8B662528], AccurateRip returned [C6A79A7E] (AR v2)
Copy OK

Track 2

Filename C:\New Folder\02 - Two Tons O' Fun - I Got The Feeling.wav

Peak level 97.1 %
Extraction speed 2.1 X
Track quality 100.0 %
Test CRC 502F5C09
Copy CRC 502F5C09
Cannot be verified as accurate (confidence 1) [4EAB3CB5], AccurateRip returned [D5652361] (AR v2)
Copy OK

Track 3

Filename C:\New Folder\03 - Fever - Beat Of The Night.wav

Peak level 97.1 %
Extraction speed 2.3 X
Track quality 100.0 %
Test CRC 344068DC
Copy CRC 344068DC
Cannot be verified as accurate (confidence 1) [0C2BEEF6], AccurateRip returned [830F05F5] (AR v2)
Copy OK

Track 4

Filename C:\New Folder\04 - Slick - Space Bass.wav

Peak level 97.1 %
Extraction speed 2.6 X
Track quality 100.0 %
Test CRC 7BC68941
Copy CRC 7BC68941
Cannot be verified as accurate (confidence 1) [E12B1222], AccurateRip returned [0341FD17] (AR v2)
Copy OK

Track 5

Filename C:\New Folder\05 - Phreek - Weekend.wav

Peak level 97.1 %
Extraction speed 2.8 X
Track quality 100.0 %
Test CRC E15392AE
Copy CRC E15392AE
Cannot be verified as accurate (confidence 1) [BA481C47], AccurateRip returned [8E79FBAC] (AR v2)
Copy OK

Track 6

Filename C:\New Folder\06 - Stargard - Wear It Out.wav

Peak level 97.1 %
Extraction speed 2.9 X
Track quality 100.0 %
Test CRC C2644817
Copy CRC C2644817
Cannot be verified as accurate (confidence 1) [BC2E475B], AccurateRip returned [17974300] (AR v2)
Copy OK

Track 7

Filename C:\New Folder\07 - Chaka Khan - Clouds.wav

Peak level 97.1 %
Extraction speed 3.0 X
Track quality 100.0 %
Test CRC FB760B28
Copy CRC FB760B28
Cannot be verified as accurate (confidence 1) [143C619E], AccurateRip returned [69BD6005] (AR v2)
Copy OK

Track 8

Filename C:\New Folder\08 - Damon Harris - It's Music.wav

Peak level 97.1 %
Extraction speed 3.3 X
Track quality 100.0 %
Test CRC 635D1D30
Copy CRC 635D1D30
Cannot be verified as accurate (confidence 1) [7E948659], AccurateRip returned [0B59DA51] (AR v2)
Copy OK

Track 9

Filename C:\New Folder\09 - Trussel - Love Injection.wav

Peak level 97.1 %
Extraction speed 3.5 X
Track quality 100.0 %
Test CRC 0324D009
Copy CRC 0324D009
Cannot be verified as accurate (confidence 1) [AAD24402], AccurateRip returned [001B7A74] (AR v2)
Copy OK

Track 10

Filename C:\New Folder\10 - Goody Goody - #1 Dee Jay.wav

Peak level 100.0 %
Extraction speed 3.6 X
Track quality 100.0 %
Test CRC 98E02B93
Copy CRC 98E02B93
Cannot be verified as accurate (confidence 1) [E789E0F3], AccurateRip returned [6BF85971] (AR v2)
Copy OK

Track 11

Filename C:\New Folder\11 - Paradise Express - Poinciana.wav

Peak level 97.1 %
Extraction speed 3.8 X
Track quality 100.0 %
Test CRC 53C3AEC0
Copy CRC 53C3AEC0
Cannot be verified as accurate (confidence 1) [112F34FE], AccurateRip returned [4AAC3006] (AR v2)
Copy OK


No tracks could be verified as accurate
You may have a different pressing from the one(s) in the database

No errors occurred

End of status report

–– CUETools DB Plugin V2.1.4

[CTDB TOCID: ax6pbStToUVuk7KV5GhJ6x_ybWk-] found
Submit result: ax6pbStToUVuk7KV5GhJ6x_ybWk- has been uploaded
Track | CTDB Status
1 | (1/1) Accurately ripped
2 | (1/1) Accurately ripped
3 | (1/1) Accurately ripped
4 | (1/1) Accurately ripped
5 | (1/1) Accurately ripped
6 | (1/1) Accurately ripped
7 | (1/1) Accurately ripped
8 | (1/1) Accurately ripped
9 | (1/1) Differs in 1204 samples @02:25:16,02:25:51,05:57:55,05:58:71,05:59:32,05:59:68,06:00:65,06:01:63,06:03:03,06:03:39,06:05:15,06:05:69-06:05:70,06:06:13,06:06:31,06:06:67,06:07:28,06:08:43-06:08:44,06:08:61,06:09:58-06:09:59,06:10:02,06:10:20,06:10:56,06:11:18,06:11:35,06:11:54,06:11:72,06:12:15,06:12:32-06:12:33,06:12:51,06:12:69,06:13:12,06:13:66,06:14:27-06:14:28,06:14:63-06:14:64,06:15:07,06:15:25,06:15:43,06:15:61,06:16:04,06:16:22-06:16:23,06:17:01,06:17:19-06:17:20,06:17:38,06:17:56,06:17:74,06:18:17,06:18:35,06:18:53-06:18:54,06:18:71-06:18:72,06:19:14-06:19:15,06:19:32,06:19:51,06:19:69,06:20:12,06:20:66,06:21:09-06:21:10,06:21:27-06:21:28,06:21:45-06:21:46,06:21:63-06:21:64,06:22:07,06:22:24-06:22:25,06:22:43,06:22:61,06:23:04,06:23:22-06:23:23,06:23:40-06:23:41,06:24:01-06:24:02,06:24:19-06:24:20,06:24:55-06:24:56,06:24:74,06:25:17,06:25:71-06:25:72,06:26:33,06:26:51,06:26:69,06:27:12,06:27:30-06:27:31,06:27:48-06:27:49,06:28:09-06:28:10,06:28:27-06:28:28,06:28:45-06:28:46,06:28:63-06:28:64,06:29:07,06:29:25-06:29:26,06:29:43,06:30:04,06:30:22-06:30:23,06:30:58-06:30:59,06:31:02,06:31:20-06:31:21,06:31:38-06:31:39,06:31:56-06:31:57,06:31:74-06:32:00,06:32:17-06:32:18,06:32:35-06:32:36,06:32:53-06:32:54,06:32:72,06:33:15-06:33:16,06:33:33-06:33:34,06:33:51-06:33:52,06:33:69,06:34:12-06:34:13,06:34:49,06:34:67,06:35:10-06:35:11,06:36:08,06:36:26,06:36:62-06:36:63,06:37:41-06:37:42,06:37:60,06:38:02,06:38:22,06:39:37,06:40:16,06:40:52-06:40:53,06:42:65-06:42:66,06:43:09,06:44:43,06:45:58-06:45:59,06:51:27,06:54:38,06:55:18,06:55:72,06:57:49,07:04:15,07:06:11,07:44:25,07:45:05,07:46:22
10 | (1/1) Differs in 2 samples @00:01:41
11 | (1/1) Accurately ripped
If you are sure that your rip contains errors, you can use CUETools to repair it.


==== Log checksum D857B374DAD5CE026A6A5276D4003FF8CAEA02E32BE93D8273438E533DCA61EE ====

Various - Disco Vaults: A Dive Into Deep Rhythm (2001)

All thanks go to alekow

Download Various - Disco Vaults: A Dive Into Deep Rhythm (2001):