Subcategories

Dizzy Gillespie - The Cool World + Dizzy Goes Hollywood (1996) 2LP in 1CD

Posted By: Designol
Dizzy Gillespie - The Cool World + Dizzy Goes Hollywood (1996) 2LP in 1CD

Dizzy Gillespie - The Cool World + Dizzy Goes Hollywood (1996) 2LP in 1CD
EAC | FLAC | Tracks (Cue&Log) ~ 459 Mb | Mp3 (CBR320) ~ 172 Mb | Scans ~ 102 Mb | 01:15:06
Mainstream Jazz, Bop, Cool, Afro-Cuban Jazz, Soundtracks | Label: Verve | # 531 230-2

This single CD reissues all of the music from two rare Dizzy Gillespie LPs. Dating from 1963-64, the set features the trumpeter's interpretation of the score of the obscure film The Cool World (although these are not the actual performances heard in the movie) plus 11 themes from other films. Gillespie, who is joined by James Moody (on tenor, alto and flute), pianist Kenny Barron, bassist Chris White and drummer Rudy Collins, was in peak form during that era and hopefully all of his other Philips recordings will also be reissued by Verve in the future. Although the liner notes deal only with The Cool World, the other set is actually of greater interest. Gillespie uplifts such tunes as the "Theme from Exodus," "Moon River," "Days of Wine and Roses," "Never on Sunday" and "Walk on the Wild Side," turning them into swinging jazz. The Cool World pieces (all composed by Mal Waldron) are also worth hearing although they are not as memorable overall. This set is a real historical curiosity and, although not essential, it is a release that should please Dizzy Gillespie fans while reminding others of how great a trumpeter he was before his long decline.

Review by Scott Yanow, Allmusic.com

Dizzy Gillespie - The Cool World + Dizzy Goes Hollywood (1996) 2LP in 1CD



Trumpet – Dizzy Gillespie
Alto Saxophone, Tenor Saxophone, Flute – James Moody
Piano – Kenny Barron
Bass – Chris White
Drums – Rudy Collins

"The Cool World" (tracks 1 to 11) is the original score of the same-named movie, an avant-garde Sixties film of Harlem life.
"Dizzy Goes Hollywood" (tracks 12 to 22) consists of Gillespie treatments of Hollywood film themes.

"Dizzy Goes Hollywood" (PHS-600-123) was recorded 1963 in Chicago, "The Cool World" (PHS-600-138) 1964 in New York City.

Tracklist:

The Cool World: Original Score

01. Theme From The Cool World (5:17)
02. The Pushers (2:34)
03. Enter, Priest (4:11)
04. Duke's Awakening (2:43)
05. Duke On The Run (5:16)
06. Street Music (2:35)
07. Bonnie's Blues (4:01)
08. Coney Island (3:45)
09. Duke's Fantasy (2:16)
10. Coolie (3:39)
11. Duke's Last Soliloquy (3:07)

Dizzy Goes Hollywood

12. Theme From Exodus (2:45)
13. Moon River (2:53)
14. Caesar And Cleopatra Theme (3:10)
15. Days Of Wine And Roses (2:19)
16. Walk On The Wild Side (7:13)
17. More (2:47)
18. Love Theme From Lolita (2:49)
19. Theme From Picnic (2:27)
20. Never On Sunday (3:07)
21. Theme From Lawrence Of Arabia (3:11)
22. Carioca (3:00)


Exact Audio Copy V1.0 beta 4 from 7. December 2014

EAC extraction logfile from 30. September 2017, 13:20

Dizzy Gillespie / The Cool World OST + Dizzy Goes Hollywood

Used drive : TSSTcorpCDDVDW SH-224DB Adapter: 1 ID: 0

Read mode : Secure
Utilize accurate stream : Yes
Defeat audio cache : Yes
Make use of C2 pointers : No

Read offset correction : 6
Overread into Lead-In and Lead-Out : No
Fill up missing offset samples with silence : Yes
Delete leading and trailing silent blocks : No
Null samples used in CRC calculations : Yes
Used interface : Native Win32 interface for Win NT & 2000
Gap handling : Appended to previous track

Used output format : User Defined Encoder
Selected bitrate : 896 kBit/s
Quality : High
Add ID3 tag : No
Command line compressor : C:\Program Files\Exact Audio Copy\Flac\flac.exe
Additional command line options : -5 -V -T "ARTIST=%artist%" -T "TITLE=%title%" -T "ALBUM=%albumtitle%" -T "DATE=%year%" -T "TRACKNUMBER=%tracknr%" -T "GENRE=%genre%" -T "COMMENT=%comment%" %source% -o %dest%


TOC of the extracted CD

Track | Start | Length | Start sector | End sector
––––––––––––––––––––––––––––-
1 | 0:00.00 | 5:17.27 | 0 | 23801
2 | 5:17.27 | 2:34.05 | 23802 | 35356
3 | 7:51.32 | 4:10.70 | 35357 | 54176
4 | 12:02.27 | 2:42.68 | 54177 | 66394
5 | 14:45.20 | 5:15.47 | 66395 | 90066
6 | 20:00.67 | 2:35.35 | 90067 | 101726
7 | 22:36.27 | 4:00.50 | 101727 | 119776
8 | 26:37.02 | 3:44.58 | 119777 | 136634
9 | 30:21.60 | 2:16.22 | 136635 | 146856
10 | 32:38.07 | 3:39.30 | 146857 | 163311
11 | 36:17.37 | 3:07.25 | 163312 | 177361
12 | 39:24.62 | 2:44.53 | 177362 | 189714
13 | 42:09.40 | 2:52.70 | 189715 | 202684
14 | 45:02.35 | 3:10.25 | 202685 | 216959
15 | 48:12.60 | 2:19.22 | 216960 | 227406
16 | 50:32.07 | 7:12.45 | 227407 | 259851
17 | 57:44.52 | 2:47.33 | 259852 | 272409
18 | 60:32.10 | 2:49.37 | 272410 | 285121
19 | 63:21.47 | 2:27.00 | 285122 | 296146
20 | 65:48.47 | 3:06.55 | 296147 | 310151
21 | 68:55.27 | 3:10.60 | 310152 | 324461
22 | 72:06.12 | 3:00.00 | 324462 | 337961


Track 1

Filename C:\New Folder\01 - Theme From The Cool World.wav

Pre-gap length 0:00:02.00

Peak level 100.0 %
Extraction speed 1.8 X
Track quality 99.9 %
Test CRC CD252DF6
Copy CRC CD252DF6
Accurately ripped (confidence 2) [4FBD8CBE] (AR v2)
Copy OK

Track 2

Filename C:\New Folder\02 - The Pushers.wav

Pre-gap length 0:00:02.62

Peak level 100.0 %
Extraction speed 1.9 X
Track quality 100.0 %
Test CRC 4F4F0754
Copy CRC 4F4F0754
Accurately ripped (confidence 2) [D944BE93] (AR v2)
Copy OK

Track 3

Filename C:\New Folder\03 - Enter, Priest.wav

Pre-gap length 0:00:02.70

Peak level 100.0 %
Extraction speed 2.2 X
Track quality 100.0 %
Test CRC D65BE40B
Copy CRC D65BE40B
Accurately ripped (confidence 2) [CAF22FA5] (AR v2)
Copy OK

Track 4

Filename C:\New Folder\04 - Duke's Awakening.wav

Pre-gap length 0:00:02.65

Peak level 99.9 %
Extraction speed 2.2 X
Track quality 100.0 %
Test CRC DD2D4129
Copy CRC DD2D4129
Accurately ripped (confidence 2) [F7D9FA1C] (AR v2)
Copy OK

Track 5

Filename C:\New Folder\05 - Duke On The Run.wav

Pre-gap length 0:00:02.63

Peak level 100.0 %
Extraction speed 2.6 X
Track quality 100.0 %
Test CRC 20211324
Copy CRC 20211324
Accurately ripped (confidence 2) [9EA4BF7B] (AR v2)
Copy OK

Track 6

Filename C:\New Folder\06 - Street Music.wav

Pre-gap length 0:00:02.60

Peak level 99.9 %
Extraction speed 2.5 X
Track quality 100.0 %
Test CRC 798632DE
Copy CRC 798632DE
Accurately ripped (confidence 2) [E14B02F9] (AR v2)
Copy OK

Track 7

Filename C:\New Folder\07 - Bonnie's Blues.wav

Pre-gap length 0:00:02.67

Peak level 88.2 %
Extraction speed 2.2 X
Track quality 99.9 %
Test CRC D2140FE0
Copy CRC D2140FE0
Accurately ripped (confidence 2) [E80DBC27] (AR v2)
Copy OK

Track 8

Filename C:\New Folder\08 - Coney Island.wav

Pre-gap length 0:00:03.50

Peak level 82.8 %
Extraction speed 2.3 X
Track quality 99.9 %
Test CRC CE855B6F
Copy CRC CE855B6F
Accurately ripped (confidence 2) [DDEBA95D] (AR v2)
Copy OK

Track 9

Filename C:\New Folder\09 - Duke's Fantasy.wav

Pre-gap length 0:00:02.53

Peak level 100.0 %
Extraction speed 2.7 X
Track quality 100.0 %
Test CRC E604D553
Copy CRC E604D553
Accurately ripped (confidence 2) [D8AB0517] (AR v2)
Copy OK

Track 10

Filename C:\New Folder\10 - Coolie.wav

Pre-gap length 0:00:02.52

Peak level 100.0 %
Extraction speed 3.0 X
Track quality 100.0 %
Test CRC 2D39C435
Copy CRC 2D39C435
Accurately ripped (confidence 2) [66070D6B] (AR v2)
Copy OK

Track 11

Filename C:\New Folder\11 - Duke's Last Soliloquy.wav

Pre-gap length 0:00:02.60

Peak level 100.0 %
Extraction speed 3.0 X
Track quality 100.0 %
Test CRC 03B5C596
Copy CRC 03B5C596
Accurately ripped (confidence 2) [A6D1A06E] (AR v2)
Copy OK

Track 12

Filename C:\New Folder\12 - Theme From Exodus.wav

Pre-gap length 0:00:02.60

Peak level 97.5 %
Extraction speed 3.0 X
Track quality 100.0 %
Test CRC A45FB3F9
Copy CRC A45FB3F9
Accurately ripped (confidence 2) [7F343F91] (AR v2)
Copy OK

Track 13

Filename C:\New Folder\13 - Moon River.wav

Pre-gap length 0:00:02.38

Peak level 99.4 %
Extraction speed 3.1 X
Track quality 100.0 %
Test CRC 7A15D103
Copy CRC 7A15D103
Accurately ripped (confidence 2) [DE37C929] (AR v2)
Copy OK

Track 14

Filename C:\New Folder\14 - Caesar And Cleopatra Theme.wav

Pre-gap length 0:00:02.33

Peak level 84.4 %
Extraction speed 3.2 X
Track quality 100.0 %
Test CRC 86C133D2
Copy CRC 86C133D2
Accurately ripped (confidence 2) [B1BA6B02] (AR v2)
Copy OK

Track 15

Filename C:\New Folder\15 - Days Of Wine And Roses.wav

Pre-gap length 0:00:02.18

Peak level 74.7 %
Extraction speed 3.1 X
Track quality 100.0 %
Test CRC 2837A6DE
Copy CRC 2837A6DE
Accurately ripped (confidence 2) [99F0B410] (AR v2)
Copy OK

Track 16

Filename C:\New Folder\16 - Walk On The Wild Side.wav

Pre-gap length 0:00:02.67

Peak level 100.0 %
Extraction speed 3.2 X
Track quality 99.9 %
Test CRC 0507891A
Copy CRC 0507891A
Accurately ripped (confidence 2) [B14D47CC] (AR v2)
Copy OK

Track 17

Filename C:\New Folder\17 - More.wav

Pre-gap length 0:00:02.65

Peak level 88.2 %
Extraction speed 3.4 X
Track quality 100.0 %
Test CRC 17AFE48A
Copy CRC 17AFE48A
Accurately ripped (confidence 2) [A92E88F9] (AR v2)
Copy OK

Track 18

Filename C:\New Folder\18 - Love Theme From Lolita.wav

Pre-gap length 0:00:02.43

Peak level 100.0 %
Extraction speed 3.5 X
Track quality 100.0 %
Test CRC EFF6EEB5
Copy CRC EFF6EEB5
Accurately ripped (confidence 2) [92533F5D] (AR v2)
Copy OK

Track 19

Filename C:\New Folder\19 - Theme From Picnic.wav

Pre-gap length 0:00:03.30

Peak level 97.6 %
Extraction speed 3.4 X
Track quality 100.0 %
Test CRC 1BDD140D
Copy CRC 1BDD140D
Accurately ripped (confidence 2) [3DF4A4FE] (AR v2)
Copy OK

Track 20

Filename C:\New Folder\20 - Never On Sunday.wav

Pre-gap length 0:00:02.57

Peak level 99.9 %
Extraction speed 3.7 X
Track quality 100.0 %
Test CRC 78BDEE76
Copy CRC 78BDEE76
Accurately ripped (confidence 2) [4A23790B] (AR v2)
Copy OK

Track 21

Filename C:\New Folder\21 - Theme From Lawrence Of Arabia.wav

Pre-gap length 0:00:02.47

Peak level 99.6 %
Extraction speed 3.8 X
Track quality 100.0 %
Test CRC B5FDB2C3
Copy CRC B5FDB2C3
Accurately ripped (confidence 2) [B5A08812] (AR v2)
Copy OK

Track 22

Filename C:\New Folder\22 - Carioca.wav

Pre-gap length 0:00:02.57

Peak level 100.0 %
Extraction speed 3.8 X
Track quality 100.0 %
Test CRC E658EFCF
Copy CRC E658EFCF
Accurately ripped (confidence 2) [7A5741EB] (AR v2)
Copy OK


All tracks accurately ripped

No errors occurred

End of status report

–– CUETools DB Plugin V2.1.4

[CTDB TOCID: C_CPTW1iUIn1TUqXVlj81_k0qyU-] found
Submit result: C_CPTW1iUIn1TUqXVlj81_k0qyU- has been confirmed
Track | CTDB Status
1 | (6/6) Accurately ripped
2 | (6/6) Accurately ripped
3 | (6/6) Accurately ripped
4 | (6/6) Accurately ripped
5 | (6/6) Accurately ripped
6 | (6/6) Accurately ripped
7 | (6/6) Accurately ripped
8 | (6/6) Accurately ripped
9 | (6/6) Accurately ripped
10 | (6/6) Accurately ripped
11 | (6/6) Accurately ripped
12 | (6/6) Accurately ripped
13 | (6/6) Accurately ripped
14 | (6/6) Accurately ripped
15 | (6/6) Accurately ripped
16 | (6/6) Accurately ripped
17 | (6/6) Accurately ripped
18 | (6/6) Accurately ripped
19 | (6/6) Accurately ripped
20 | (6/6) Accurately ripped
21 | (5/6) Accurately ripped, or (1/6) differs in 134 samples @00:23:29-00:23:30,00:24:41,00:24:62-00:24:63
22 | (6/6) Accurately ripped


==== Log checksum 73F13509F24661C1043D333E362FACFD0AFDB4DC5DCF5C1F4F1F5F9B42EE3F8E ====

foobar2000 1.2 / Dynamic Range Meter 1.1.1
log date: 2017-12-04 19:32:30

––––––––––––––––––––––––––––––––––––––––
Analyzed: Dizzy Gillespie / The Cool World OST + Dizzy Goes Hollywood
––––––––––––––––––––––––––––––––––––––––

DR Peak RMS Duration Track
––––––––––––––––––––––––––––––––––––––––
DR12 0.00 dB -15.57 dB 5:17 01-Theme From The Cool World
DR11 0.00 dB -15.69 dB 2:34 02-The Pushers
DR12 0.00 dB -16.63 dB 4:11 03-Enter, Priest
DR12 0.00 dB -16.13 dB 2:43 04-Duke's Awakening
DR13 0.00 dB -16.20 dB 5:16 05-Duke On The Run
DR14 0.00 dB -17.24 dB 2:35 06-Street Music
DR13 -1.09 dB -18.02 dB 4:01 07-Bonnie's Blues
DR10 -1.63 dB -17.66 dB 3:45 08-Coney Island
DR12 0.00 dB -16.37 dB 2:16 09-Duke's Fantasy
DR12 0.00 dB -15.48 dB 3:39 10-Coolie
DR12 0.00 dB -17.12 dB 3:07 11-Duke's Last Soliloquy
DR13 -0.22 dB -15.51 dB 2:45 12-Theme From Exodus
DR12 -0.05 dB -15.44 dB 2:53 13-Moon River
DR11 -1.47 dB -16.12 dB 3:10 14-Caesar And Cleopatra Theme
DR11 -2.53 dB -16.05 dB 2:19 15-Days Of Wine And Roses
DR11 0.00 dB -13.37 dB 7:13 16-Walk On The Wild Side
DR12 -1.09 dB -16.93 dB 2:47 17-More
DR12 0.00 dB -15.45 dB 2:49 18-Love Theme From Lolita
DR12 -0.21 dB -17.68 dB 2:27 19-Theme From Picnic
DR12 0.00 dB -14.63 dB 3:07 20-Never On Sunday
DR11 -0.03 dB -14.51 dB 3:11 21-Theme From Lawrence Of Arabia
DR12 0.00 dB -14.43 dB 3:00 22-Carioca
––––––––––––––––––––––––––––––––––––––––

Number of tracks: 22
Official DR value: DR12

Samplerate: 44100 Hz
Channels: 2
Bits per sample: 16
Bitrate: 889 kbps
Codec: FLAC
================================================================================

Dizzy Gillespie - The Cool World + Dizzy Goes Hollywood (1996) 2LP in 1CD

Dizzy Gillespie - The Cool World + Dizzy Goes Hollywood (1996) 2LP in 1CD

All thanks to original releaser - alekow

More interesting music in My Blog